Энтони Бурден (Бурдэн): Неизведанные края / Anthony Bourdain: Parts Unknown (3 сезон: 8 серий из 9) (Tom Vitale) [2014, документальный, путешествия, кулинария, IPTVRip]

Страницы:  1

Ответить
Автор
Сообщение

crazynike94

Top Seed 03* 160r

Стаж: 9 лет 3 месяца

Сообщений: 636

crazynike94 · 19-Ноя-17 17:57 (1 год 8 месяцев назад, ред. 29-Янв-18 13:07)

Энтони Бурден: Неизведанные края / Anthony Bourdain: Parts Unknown
3 сезон: 8 серий из 9
Год выпуска: 2014
Страна: США
Жанр: документальный, путешествия, кулинария
Продолжительность: ~00:42:40 x8
Перевод: Профессиональный (многоголосый закадровый) Первый ТВЧ
Русские субтитры: нет
Оригинальная аудиодорожка: нет
Режиссер: Tom Vitale
Телеканал: CNN / Телепутешествия
Описание: Каждый человек иногда задумывается, как сложилась бы его жизнь, живи он в другой стране. Известный американский шеф-повар Энтони Бурден ищет ответ на этот вопрос, путешествуя по всему миру. Погрузиться в чужую языковую среду, попробовать блюда местной кухни, погулять по затерянным улочкам городов и пообщаться с их обитателями - всё это стало его настоящей страстью.
Семпл: https://yadi.sk/i/xhy2BgiN3RhXeL
Качество: IPTVRip
Формат: MP4
Видео: AVC, 960x540 (16:9), ~1375 kbps, 25 fps
Аудио: AAC, ~94 kbps, 44.1 kHz, 2 ch
Список выпусков/серий
S03.E01 (18) - Prime Cuts: Season Two
S03.E02 (19) - Punjab, India
S03.E03 (20) - Las Vegas
S03.E04 (21) - Lyon
S03.E05 (22) - Mexico City
S03.E06 (23) - Russia
S03.E07 (24) - Mississippi Delta
S03.E08 (25) - Thailand
S03.E09 (26) - Bahia, Brazil
MediaInfo
Общее
Формат : MPEG-4
Профиль формата : Base Media
Идентификатор кодека : isom (isom/avc1)
Размер файла : 429 Мбайт
Продолжительность : 40 м. 51 с.
Режим общего битрейта : Переменный
Общий поток : 1469 Кбит/сек
Дата кодирования : UTC 2017-11-02 19:37:25
Дата пометки : UTC 2017-11-02 19:37:25
Видео
Идентификатор : 1
Формат : AVC
Формат/Информация : Advanced Video Codec
Профиль формата : [email protected]
Настройки формата : CABAC / 2 Ref Frames
Параметр CABAC формата : Да
Параметр RefFrames формата : 2 кадра
Идентификатор кодека : avc1
Идентификатор кодека/Информация : Advanced Video Coding
Продолжительность : 40 м. 51 с.
Битрейт : 1372 Кбит/сек
Максимальный битрейт : 3361 Кбит/сек
Ширина : 960 пикселей
Высота : 540 пикселей
Соотношение сторон : 16:9
Режим частоты кадров : Постоянный
Частота кадров : 25,000 кадров/сек
Цветовое пространство : YUV
Субдискретизация насыщенности : 4:2:0
Битовая глубина : 8 бит
Тип развёртки : Прогрессивная
Бит/(Пиксели*Кадры) : 0.106
Размер потока : 401 Мбайт (93%)
Заголовок : h264:[email protected]
Дата кодирования : UTC 2017-11-02 19:37:25
Дата пометки : UTC 2017-11-02 19:37:40
Аудио
Идентификатор : 2
Формат : AAC
Формат/Информация : Advanced Audio Codec
Профиль формата : LC
Идентификатор кодека : mp4a-40-2
Продолжительность : 40 м. 51 с.
Вид битрейта : Переменный
Битрейт : 93,6 Кбит/сек
Максимальный битрейт : 120 Кбит/сек
Каналы : 2 канала
Расположение каналов : Front: L R
Частота : 44,1 КГц
Частота кадров : 43,066 кадра/сек (1024 SPF)
Метод сжатия : С потерями
Размер потока : 27,3 Мбайт (6%)
Заголовок : aac:[email protected]
Язык : Russian
Дата кодирования : UTC 2017-11-02 19:37:37
Дата пометки : UTC 2017-11-02 19:37:40
Скриншоты
Сезоны: --1-- --2-- --3-- --4-- --5-- --6-- --7-- --8--
Download
Для скачивания .torrent файлов необходима регистрация
Сайт не распространяет и не хранит электронные версии произведений, а лишь предоставляет доступ к создаваемому пользователями каталогу ссылок на торрент-файлы, которые содержат только списки хеш-сумм
[Профиль]  [ЛС] 

SergeyJD

Moderator

Стаж: 11 лет 5 месяцев

Сообщений: 4874

SergeyJD · 23-Янв-18 11:59 (спустя 2 месяца 3 дня)

crazynike94
Уменьшите, пожалуйста, постер, он не должен быть меньше чем 200х200pixel по меньшей стороне, но и не больше, чем 500x600pixel, и не в виде превью.
О постерах ⇒

Сделайте, пожалуйста, сэмпл
Как сделать сэмпл видео?




? Недооформлено


⇒ Устранили замечания и дооформили раздачу - отписываемся мне по ЛС с указанием ссылки на эту раздачу
[Профиль]  [ЛС] 

cheriko

Стаж: 1 год 7 месяцев

Сообщений: 3


cheriko · 28-Июн-18 20:31 (спустя 5 месяцев 5 дней)

Передача про Россию начинается с описания "мертвых глаз Путина" и того, что он диктатор и убийца. Ни хера себе туристическая передача! Сплошная политическая пропаганда. Не советую.
[Профиль]  [ЛС] 

bump33

Стаж: 5 лет 7 месяцев

Сообщений: 53


bump33 · 01-Июл-18 10:23 (спустя 2 дня 13 часов)

cheriko писал(а):
75574565Передача про Россию начинается с описания "мертвых глаз Путина" и того, что он диктатор и убийца. Ни хера себе туристическая передача! Сплошная политическая пропаганда. Не советую.
не ссы ты так
[Профиль]  [ЛС] 

kate london

Стаж: 10 лет 10 месяцев

Сообщений: 1860

kate london · 20-Июл-18 09:24 (спустя 18 дней)

Выпуск про Россию довольно любопытный.
[Профиль]  [ЛС] 

cheriko

Стаж: 1 год 7 месяцев

Сообщений: 3


cheriko · 14-Авг-18 21:31 (спустя 25 дней)

bump33 писал(а):
75602914
cheriko писал(а):
75574565Передача про Россию начинается с описания "мертвых глаз Путина" и того, что он диктатор и убийца. Ни хера себе туристическая передача! Сплошная политическая пропаганда. Не советую.
не ссы ты так
Сказал чувак из Макао.
[Профиль]  [ЛС] 

serofir

Стаж: 8 лет 11 месяцев

Сообщений: 49


serofir · 19-Июн-19 15:18 (спустя 10 месяцев)

Спасибо.
[Профиль]  [ЛС] 
 
Ответить
Loading...
Error