(Progressive Rock) [CD] Neil Innes & The World - Lucky Planet - 1970 (2004), FLAC (image+.cue), lossless

Страницы:  1
Ответить
Автор
Сообщение

Копысов

Lossless Group

Стаж: 9 лет 5 месяцев

Сообщений: 1088

Копысов · 30-Янв-16 17:59 (3 года 6 месяцев назад)

Neil Innes & The World / Lucky Planet
Жанр: Progressive Rock
Носитель: CD
Страна-производитель диска (релиза): UK
Год издания: 1970 (CD 2004)
Издатель (лейбл): Acadia Records
Номер по каталогу: ACA 8056
Страна исполнителя (группы): UK
Аудиокодек: FLAC (*.flac)
Тип рипа: image+.cue
Битрейт аудио: lossless
Продолжительность: 00:41:28
Источник (релизер): собственный рип
Наличие сканов в содержимом раздачи: нет
Треклист:
1 Angelina
2 Come Out Into The Open (Ver. 1)
3 Not The First Time
4 Sail Away
5 9-5 Pollution Blues
6 Lead Us
7 Things I Could Have Said
8 Come Out Into The Open (Ver. 2)
9 Godzilla's Return 10:25
Лог создания рипа
Exact Audio Copy V1.1 from 23. June 2015
Отчёт EAC об извлечении, выполненном 30. января 2016, 17:48
Neil Innes & The World / Lucky Planet
Дисковод: ASUS DRW-24B3ST Adapter: 0 ID: 0
Режим чтения : Достоверность
Использование точного потока : Да
Отключение кэша аудио : Да
Использование указателей C2 : Нет
Коррекция смещения при чтении : 6
Способность читать области Lead-in и Lead-out : Нет
Заполнение пропущенных сэмплов тишиной : Да
Удаление блоков с тишиной в начале и конце : Нет
При вычислениях CRC использовались нулевые сэмплы : Да
Интерфейс : Установленный внешний ASPI-интерфейс
Выходной формат : Пользовательский кодировщик
Выбранный битрейт : 896 kBit/s
Качество : Высокий
Добавление ID3-тега : Нет
Утилита сжатия : C:\Program Files (x86)\Exact Audio Copy\FLAC\FLAC.EXE
Дополнительные параметры : -6 -V -T "ARTIST=%artist%" -T "TITLE=%title%" -T "ALBUM=%albumtitle%" -T "DATE=%year%" -T "TRACKNUMBER=%tracknr%" -T "GENRE=%genre%" -T "COMMENT=%comment%" -T "BAND=%albuminterpret%" -T "ALBUMARTIST=%albuminterpret%" -T "COMPOSER=%composer%" %haslyrics%--tag-from-file=LYRICS="%lyricsfile%"%haslyrics% -T "DISCNUMBER=%cdnumber%" -T "TOTALDISCS=%totalcds%" -T "TOTALTRACKS=%numtracks%" %hascover%--picture="%coverfile%"%hascover% %source% -o %dest%
TOC извлечённого CD
Трек | Старт | Длительность | Начальный сектор | Конечный сектор
---------------------------------------------------------------------
1 | 0:00.00 | 2:50.38 | 0 | 12787
2 | 2:50.38 | 3:43.67 | 12788 | 29579
3 | 6:34.30 | 4:03.28 | 29580 | 47832
4 | 10:37.58 | 3:31.52 | 47833 | 63709
5 | 14:09.35 | 4:25.00 | 63710 | 83584
6 | 18:34.35 | 5:12.53 | 83585 | 107037
7 | 23:47.13 | 4:07.27 | 107038 | 125589
8 | 27:54.40 | 3:07.45 | 125590 | 139659
9 | 31:02.10 | 10:25.38 | 139660 | 186572
Характеристики диапазона извлечения и сообщения об ошибках
Выбранный диапазон
Имя файла E:\Torrents\Neil Innes & The World - 1970 - Lucky Planet\Neil Innes & The World - Lucky Planet.wav
Пиковый уровень 100.0 %
Скорость извлечения 7.7 X
Качество диапазона 100.0 %
CRC теста 06DA44C4
CRC копии 06DA44C4
Копирование... OK
Ошибок не произошло
Конец отчёта
==== Контрольная сумма отчёта 75A91C2511CF33DD4587B3607466A9327E964CACFFB27402B3733E3C47EECC0E ====
Состав
Bass, Guitar, Vocals – Dennis Cowan
Guitar [Lead] – Ian Wallace, Roger McKew
Producer, Lead Vocals, Guitar, Piano, Written-By – Neil Innes
Download
Сайт не распространяет и не хранит электронные версии произведений, а лишь предоставляет доступ к создаваемому пользователями каталогу ссылок на торрент-файлы, которые содержат только списки хеш-сумм
Как скачивать? (для скачивания .torrent файлов необходима регистрация)
[Профиль]  [ЛС] 

Копысов

Lossless Group

Стаж: 9 лет 5 месяцев

Сообщений: 1088

Копысов · 30-Янв-16 18:02 (спустя 3 мин.)

Это не повтор этой раздачи: https://rutracker.org/forum/viewtopic.php?t=4273278.
Здесь другое расположение треков, плюс еще один трек и другое оформление. Но, впрочем, все на усмотрение модераторов.
[Профиль]  [ЛС] 

latimer

Стаж: 8 лет 8 месяцев

Сообщений: 525

latimer · 02-Фев-16 18:22 (спустя 3 дня)

I would never put this album under progressive cover, maybe only the last track: Godzilla's Return, even this one faintly.
[Профиль]  [ЛС] 

lazulli1

Стаж: 5 лет 1 месяц

Сообщений: 1394

lazulli1 · 06-Фев-16 13:21 (спустя 3 дня)

Thank You Friend
Best !!!!!
Marek (Lazulli1)
[Профиль]  [ЛС] 

liza2010

Стаж: 9 лет 8 месяцев

Сообщений: 657


liza2010 · 19-Мар-16 16:25 (спустя 1 месяц 13 дней)

Тоже довольно интересно. Спасибо, Валера.
[Профиль]  [ЛС] 

DrugDisi

Стаж: 2 года 2 месяца

Сообщений: 224

DrugDisi · 18-Июл-19 07:37 (спустя 3 года 3 месяца)

Есть ли что-то подобное ещё?
[Профиль]  [ЛС] 

Копысов

Lossless Group

Стаж: 9 лет 5 месяцев

Сообщений: 1088

Копысов · 19-Июл-19 08:52 (спустя 1 день 1 час)

DrugDisi писал(а):
77686730Есть ли что-то подобное ещё?
Мне понравилось вот эта группа, советую: https://rutracker.org/forum/viewtopic.php?t=5754594
[Профиль]  [ЛС] 
 
Ответить
Loading...
Error