(Jazz, Fusion) Mike Stern - Дискография (15 CDs) - 1983 - 2012, lossless

Страницы :  1, 2  След.

Ответить
Автор
Сообщение

(Y)игрек

Хранитель

Стаж: 9 лет 6 месяцев

Сообщений: 1379

(Y)игрек · 20-Июл-08 20:10 (10 лет 4 месяца назад, ред. 02-Авг-13 23:09)

Mike Stern - Дискография (15 альбомов) - 1983 - 2012 Майк Стерн (Mike Stern, род. 10.01.1953) - американский джазовый гитарист. Стал известен в 80-е годы как участник ансамбля Майлза Дэвиса.
Начал играть на гитаре в 12 лет, подражая блюзовым исполнителям - Би Би Кингу, Эрику Клэптону и Бадди Гаю. Два года (1981-83) работал в группе Дэвиса, затем вошел в ансамбль Жако Пасториуса Word Of Mouth. В 1985 вновь присоединился к группе Дэвиса, гастролировал в Европе.
В дальнейшем играл в ансамбле Steps Ahead с Майклом Бреккером, Майком Маниери, сотрудничал с Бобом Бергом, Херби Хенкоком, Доном Грольником и другими. В 1997 году организовал квартет с Джоном Патитуччи, Джеком ДеЖонеттом и перкуссионистом Доном Алиасом.
Трижды номинант Grammy, обладатель титула "Лучший джазовый гитарист мира" по версии авторитетнейшего журнала Guitar Player.

Полная дискография джаз-фьюжн-гитариста Майка Стерна (Mike Stern). Собраны все сольные работы с 1983 года по 2012 год. Все альбомы упакованы и оформлены. Обложки присутствуют. К некоторым альбомам прилагаются сканы высокого разрешения. Все логи исправны. Аудио кодэк - APE и FLAC.
Далее подробно по каждому альбому.

1983 - Neesh
Artist: Mike Stern
Title Of Album: Neesh
Year Of Release: 1985
Label: Trio
Genre: Fusion, Post-Bop
Quality: APE (image + .cue + log)
Bitrate: lossless
Total Time: 39 мин. 43 сек.
Tracks:
01. Zee Frizz (6:46)
02. Fine Line (5:31)
03. Bruze (6:51)
04. Mumbley Peg (7:16)
05. Up-Ology (5:17)
06. Banacos (1:51)
07. Neesh Zone (6:11)
Отчёт EAC
EAC extraction logfile from 25. February 2006, 22:16 for CD
Mike Stern / Neesh
Used drive : HL-DT-STDVD-ROM GDR8163B Adapter: 1 ID: 1
Read mode : Secure with NO C2, accurate stream, disable cache
Read offset correction : 102
Overread into Lead-In and Lead-Out : No
Used output format : Internal WAV Routines
44.100 Hz; 16 Bit; Stereo
Other options :
Fill up missing offset samples with silence : Yes
Delete leading and trailing silent blocks : No
Installed external ASPI interface
Range status and errors
Selected range
Filename D:\EAC-TEMP\Mike Stern - Neesh\Mike Stern - Neesh.wav
Peak level 99.9 %
Range quality 99.9 %
CRC 93D80CAE
Copy OK
No errors occured
End of status report
1986 - Upside Downside
Artist: Mike Stern
Title Of Album: Upside Downside
Year Of Release: 1986
Label: Atlantic
Genre: Fusion, Post-Bop
Quality: APE (tracks +.cue + log)
Bitrate: lossless
Total Time: 35 мин. 39 сек.
Tracks:
01. Upside Downside (5:43)
02. Little Shoes (5:33)
03. Goodbye Again (6:38)
04. Mood Swings (6:06)
05. After You (5:29)
06. Scuffle (6:10)
Отчёт EAC
EAC extraction logfile from 21. January 2006, 12:43 for CD
Mike Stern / Upside Downside
Used drive : HL-DT-STCD-ROM GCR-8523B Adapter: 0 ID: 1
Read mode : Secure with NO C2, accurate stream, disable cache
Read offset correction : -24
Overread into Lead-In and Lead-Out : No
Used output format : Internal WAV Routines
44.100 Hz; 16 Bit; Stereo
Other options :
Fill up missing offset samples with silence : Yes
Delete leading and trailing silent blocks : No
Native Win32 interface for Win NT & 2000
Track 1
Filename D:\Mike Stern - Upside Downside (1986) [Flac]\01 - Upside Downside.wav
Pre-gap length 0:00:02.44
Peak level 83.6 %
Track quality 100.0 %
Test CRC 55E68D83
Copy CRC 55E68D83
Copy OK
Track 2
Filename D:\Mike Stern - Upside Downside (1986) [Flac]\02 - Little Shoes.wav
Peak level 83.1 %
Track quality 100.0 %
Test CRC 35D8BD26
Copy CRC 35D8BD26
Copy OK
Track 3
Filename D:\Mike Stern - Upside Downside (1986) [Flac]\03 - Goodbye Again.wav
Peak level 72.5 %
Track quality 100.0 %
Test CRC DE72DB6E
Copy CRC DE72DB6E
Copy OK
Track 4
Filename D:\Mike Stern - Upside Downside (1986) [Flac]\04 - Mood Swings.wav
Peak level 100.0 %
Track quality 99.9 %
Test CRC 7EB4F09A
Copy CRC 7EB4F09A
Copy OK
Track 5
Filename D:\Mike Stern - Upside Downside (1986) [Flac]\05 - After You.wav
Peak level 67.9 %
Track quality 100.0 %
Test CRC 4EAB4B5A
Copy CRC 4EAB4B5A
Copy OK
Track 6
Filename D:\Mike Stern - Upside Downside (1986) [Flac]\06 - Scuffle.wav
Peak level 81.5 %
Track quality 99.9 %
Test CRC 953E6A83
Copy CRC 953E6A83
Copy OK
No errors occured
End of status report
1988 - Time In Place
Artist: Mike Stern
Title Of Album: Time In Place
Year Of Release: 1988
Label: Atlantic
Genre: Fusion, Post-Bop
Quality: FLAC (tracks + .cue + log)
Bitrate: lossless
Total Time: 45 мин. 25 сек.
Tracks:
01. Gossip (6:00)
02. Time In Place (6:50)
03. Before You Go (5:32)
04. No Notice (6:40)
05. After All (7:36)
06. Four Shades (5:04)
07. Chromazone (7:42)
Отчёт EAC
Exact Audio Copy V0.99 prebeta 5 from 4. May 2009
EAC extraction logfile from 20. November 2010, 22:19
Mike Stern / Time In Place
Used drive : HL-DT-STDVDRAM GH20NS10 Adapter: 2 ID: 0
Read mode : Secure
Utilize accurate stream : Yes
Defeat audio cache : Yes
Make use of C2 pointers : No
Read offset correction : 667
Overread into Lead-In and Lead-Out : No
Fill up missing offset samples with silence : Yes
Delete leading and trailing silent blocks : No
Null samples used in CRC calculations : Yes
Used interface : Native Win32 interface for Win NT & 2000
Gap handling : Appended to previous track
Used output format : User Defined Encoder
Selected bitrate : 1024 kBit/s
Quality : High
Add ID3 tag : No
Command line compressor : C:\Program Files\Exact Audio Copy\Flac\flac.exe
Additional command line options : -8 -V -T "ARTIST=%a" -T "TITLE=%t" -T "ALBUM=%g" -T "DATE=%y" -T "TRACKNUMBER=%n" -T "TOTALTRACKS=%x" -T "GENRE=%m" -T "ALBUMARTIST=%v" -T "ALBUM ARTIST=%v" -T "COMMENT=EAC Secure Mode, Test & Copy, AccurateRip, FLAC -8" %s
TOC of the extracted CD
Track | Start | Length | Start sector | End sector
---------------------------------------------------------
1 | 0:00.32 | 5:59.63 | 32 | 27019
2 | 6:00.20 | 6:49.67 | 27020 | 57761
3 | 12:50.12 | 5:31.63 | 57762 | 82649
4 | 18:22.00 | 6:40.22 | 82650 | 112671
5 | 25:02.22 | 7:36.18 | 112672 | 146889
6 | 32:38.40 | 5:04.32 | 146890 | 169721
7 | 37:42.72 | 7:42.28 | 169722 | 204399
Track 1
Filename C:\Users\Tiburon\Desktop\Mike Stern - Time In Place (1988) {Atlantic 781 840-2}\01 - Gossip.wav
Pre-gap length 0:00:02.42
Peak level 97.9 %
Track quality 100.0 %
Test CRC 2404B45B
Copy CRC 2404B45B
Cannot be verified as accurate (confidence 8) [2C2656C0], AccurateRip returned [0085E015]
Copy OK
Track 2
Filename C:\Users\Tiburon\Desktop\Mike Stern - Time In Place (1988) {Atlantic 781 840-2}\02 - Time In Place.wav
Pre-gap length 0:00:03.50
Peak level 83.8 %
Track quality 100.0 %
Test CRC F3025B67
Copy CRC F3025B67
Cannot be verified as accurate (confidence 8) [658365B3], AccurateRip returned [025FE393]
Copy OK
Track 3
Filename C:\Users\Tiburon\Desktop\Mike Stern - Time In Place (1988) {Atlantic 781 840-2}\03 - Before You Go.wav
Pre-gap length 0:00:02.69
Peak level 55.2 %
Track quality 100.0 %
Test CRC DA6B2015
Copy CRC DA6B2015
Cannot be verified as accurate (confidence 8) [9F7FB229], AccurateRip returned [5C13F9E2]
Copy OK
Track 4
Filename C:\Users\Tiburon\Desktop\Mike Stern - Time In Place (1988) {Atlantic 781 840-2}\04 - No Notice.wav
Pre-gap length 0:00:01.26
Peak level 100.0 %
Track quality 100.0 %
Test CRC 9DE06BAE
Copy CRC 9DE06BAE
Cannot be verified as accurate (confidence 8) [6DFEDD8B], AccurateRip returned [6048B229]
Copy OK
Track 5
Filename C:\Users\Tiburon\Desktop\Mike Stern - Time In Place (1988) {Atlantic 781 840-2}\05 - After All.wav
Pre-gap length 0:00:03.13
Peak level 89.8 %
Track quality 99.9 %
Test CRC C31E19D1
Copy CRC C31E19D1
Cannot be verified as accurate (confidence 8) [0B9D29B6], AccurateRip returned [1353EF84]
Copy OK
Track 6
Filename C:\Users\Tiburon\Desktop\Mike Stern - Time In Place (1988) {Atlantic 781 840-2}\06 - Four Shades.wav
Pre-gap length 0:00:01.52
Peak level 90.1 %
Track quality 100.0 %
Test CRC F0D5341E
Copy CRC F0D5341E
Cannot be verified as accurate (confidence 8) [01863E7F], AccurateRip returned [20867810]
Copy OK
Track 7
Filename C:\Users\Tiburon\Desktop\Mike Stern - Time In Place (1988) {Atlantic 781 840-2}\07 - Chromazone.wav
Pre-gap length 0:00:04.00
Peak level 90.9 %
Track quality 100.0 %
Test CRC 2DDD0B90
Copy CRC 2DDD0B90
Cannot be verified as accurate (confidence 8) [CE4A91F5], AccurateRip returned [1DDE7ED9]
Copy OK
No tracks could be verified as accurate
You may have a different pressing from the one(s) in the database
No errors occurred
End of status report
1989 - Jigsaw
Artist: Mike Stern
Title Of Album: Jigsaw
Year Of Release: 1989
Label: Atlantic
Genre: Fusion, Post-Bop
Quality: FLAC (image + .cue
Bitrate: lossless
Total Time: 46 мин. 28 сек.
Tracks:
01. Another Way Around (6:26)
02. Loose Ends (6:11)
03. To Let You Know (6:30)
04. Jigsaw (7:06)
05. Chief (7:45)
06. Rhyme Or Reason (5:46)
07. Kwirk (6:58)
Отчёт EAC
Exact Audio Copy V0.99 prebeta 3 from 28. July 2007
EAC extraction logfile from 16. April 2008, 11:05
Mike Stern / Jigsaw
Used drive : PIONEER DVD-RW DVR-111D Adapter: 1 ID: 0
Read mode : Secure
Utilize accurate stream : Yes
Defeat audio cache : Yes
Make use of C2 pointers : No
Read offset correction : 48
Overread into Lead-In and Lead-Out : No
Fill up missing offset samples with silence : Yes
Delete leading and trailing silent blocks : No
Null samples used in CRC calculations : Yes
Used interface : Native Win32 interface for Win NT & 2000
Used output format : User Defined Encoder
Selected bitrate : 1024 kBit/s
Quality : High
Add ID3 tag : No
Command line compressor : D:\Program Files\Exact Audio Copy\FLAC\FLAC.EXE
Additional command line options : -6 -V -T "ARTIST=%a" -T "TITLE=%t" -T "ALBUM=%g" -T "DATE=%y" -T "TRACKNUMBER=%n" -T "GENRE=%m" -T "COMMENT=%e" %s -o %d
TOC of the extracted CD
Track | Start | Length | Start sector | End sector
---------------------------------------------------------
1 | 0:00.00 | 6:25.57 | 0 | 28931
2 | 6:25.57 | 6:11.00 | 28932 | 56756
3 | 12:36.57 | 6:30.03 | 56757 | 86009
4 | 19:06.60 | 7:06.20 | 86010 | 117979
5 | 26:13.05 | 7:45.12 | 117980 | 152866
6 | 33:58.17 | 5:46.35 | 152867 | 178851
7 | 39:44.52 | 6:58.08 | 178852 | 210209
Range status and errors
Selected range
Filename D:\Mike Stern - Jigsaw (1989)\Mike Stern - Jigsaw.wav
Peak level 100.0 %
Range quality 100.0 %
Copy CRC C0D5B69C
Copy OK
No errors occurred
End of status report
1991 - Odds or Evens
Artist: Mike Stern
Title Of Album: Odds or Evens
Year Of Release: 1991
Label: Atlantic
Genre: Fusion, Post-Bop
Quality: FLAC (tracks +.cue + log)
Bitrate: lossless
Total Time: 53 мин. 13 сек.
Tracks:
01. Keys (7:29)
02. D.C. (7:41)
03. Common Ground (6:06)
04. Odds Or Evens (7:08)
05. Seven Thirty (6:27)
06. If You Say So (7:36)
07. Sandbox (3:59)
08. Walkie Talkie (6:58)
Отчёт EAC
Exact Audio Copy V0.99 prebeta 4 from 23. January 2008
EAC extraction logfile from 14. June 2009, 11:08
Mike Stern / Odds Or Evens
Used drive : Optiarc DVD RW AD-5170A Adapter: 0 ID: 0
Read mode : Secure
Utilize accurate stream : Yes
Defeat audio cache : Yes
Make use of C2 pointers : No
Read offset correction : 48
Overread into Lead-In and Lead-Out : No
Fill up missing offset samples with silence : Yes
Delete leading and trailing silent blocks : No
Null samples used in CRC calculations : Yes
Used interface : Native Win32 interface for Win NT & 2000
Gap handling : Appended to previous track
Used output format : User Defined Encoder
Selected bitrate : 320 kBit/s
Quality : High
Add ID3 tag : No
Command line compressor : C:\Program Files\Exact Audio Copy\FLAC\FLAC.EXE
Additional command line options : -V -8 -T "artist=%a" -T "title=%t" -T "album=%g" -T "date=%y" -T "tracknumber=%n" -T "genre=%m" %s
TOC of the extracted CD
Track | Start | Length | Start sector | End sector
---------------------------------------------------------
1 | 0:00.00 | 7:29.33 | 0 | 33707
2 | 7:29.33 | 7:40.55 | 33708 | 68262
3 | 15:10.13 | 6:05.60 | 68263 | 95697
4 | 21:15.73 | 7:08.07 | 95698 | 127804
5 | 28:24.05 | 6:26.38 | 127805 | 156792
6 | 34:50.43 | 7:36.30 | 156793 | 191022
7 | 42:26.73 | 3:59.10 | 191023 | 208957
8 | 46:26.08 | 6:58.05 | 208958 | 240312
Track 1
Filename K:\[ Torrents ]\Mike Stern\Mike Stern - Odds Or Evens (1991) [flac]\01 - Keys.wav
Pre-gap length 0:00:02.00
Peak level 100.0 %
Track quality 100.0 %
Test CRC 0AF6CF61
Copy CRC 0AF6CF61
Accurately ripped (confidence 4) [B8FC3B84]
Copy OK
Track 2
Filename K:\[ Torrents ]\Mike Stern\Mike Stern - Odds Or Evens (1991) [flac]\02 - D.C..wav
Pre-gap length 0:00:04.26
Peak level 100.0 %
Track quality 100.0 %
Test CRC C16ABE02
Copy CRC C16ABE02
Accurately ripped (confidence 4) [0BEAF8E8]
Copy OK
Track 3
Filename K:\[ Torrents ]\Mike Stern\Mike Stern - Odds Or Evens (1991) [flac]\03 - Common Ground.wav
Pre-gap length 0:00:02.70
Peak level 88.8 %
Track quality 100.0 %
Test CRC C05FC42F
Copy CRC C05FC42F
Accurately ripped (confidence 4) [47945F82]
Copy OK
Track 4
Filename K:\[ Torrents ]\Mike Stern\Mike Stern - Odds Or Evens (1991) [flac]\04 - Odds Or Evens.wav
Pre-gap length 0:00:04.30
Peak level 100.0 %
Track quality 100.0 %
Test CRC 0C1F7002
Copy CRC 0C1F7002
Accurately ripped (confidence 4) [743BB818]
Copy OK
Track 5
Filename K:\[ Torrents ]\Mike Stern\Mike Stern - Odds Or Evens (1991) [flac]\05 - Seven Thirty.wav
Pre-gap length 0:00:02.40
Peak level 100.0 %
Track quality 99.9 %
Test CRC 33116C73
Copy CRC 33116C73
Accurately ripped (confidence 4) [19DF100D]
Copy OK
Track 6
Filename K:\[ Torrents ]\Mike Stern\Mike Stern - Odds Or Evens (1991) [flac]\06 - If You Say So.wav
Peak level 100.0 %
Track quality 100.0 %
Test CRC 586FB98B
Copy CRC 586FB98B
Accurately ripped (confidence 4) [6D8D7261]
Copy OK
Track 7
Filename K:\[ Torrents ]\Mike Stern\Mike Stern - Odds Or Evens (1991) [flac]\07 - Sandbox.wav
Pre-gap length 0:00:02.80
Peak level 63.1 %
Track quality 100.0 %
Test CRC C6F59008
Copy CRC C6F59008
Accurately ripped (confidence 4) [1BEF8E37]
Copy OK
Track 8
Filename K:\[ Torrents ]\Mike Stern\Mike Stern - Odds Or Evens (1991) [flac]\08 - Walkie Talkie.wav
Pre-gap length 0:00:03.26
Peak level 100.0 %
Track quality 99.9 %
Test CRC 2FEDF54D
Copy CRC 2FEDF54D
Accurately ripped (confidence 4) [7B2617A3]
Copy OK
All tracks accurately ripped
No errors occurred
End of status report
1992 - Standards and Other Songs
Artist: Mike Stern
Title Of Album: Standards and Other Songs
Year Of Release: 1992
Label: Atlantic
Genre: Fusion, Post-Bop
Quality: FLAC (image + .cue + log)
Bitrate: lossless
Total Time: 61 мин. 24 сек.
Tracks:
01. Like Someone In Love (6:40)
02. Source (1:49)
03. There Is No Greater Love (9:14)
04. L Bird (5:48)
05. Moment's Notice (4:42)
06. Lost Time (6:47)
07. Windows (6:29)
08. Straight No Chaser (5:26)
09. Peace (5:17)
10. Jean Pierre (1:44)
11. Nardis (7:39)
Отчёт EAC
Отчёт EAC об извлечении, выполненном 25. мая 2007, 9:05 для диска:
Mike Stern / Standards (And Other Songs)
Дисковод: _NEC NR-7800B Adapter: 2 ID: 0
Режим чтения: Достоверный (C2: нет, Точный поток: да, Отключение кэша: да)
Коррекция смещения при чтении: 685
Способность читать области Lead-in и Lead-out : Нет
Выходной формат: Внутренние WAV-операции
44.100 Гц; 16 бит; стерео
Другие параметры:
Заполнение пропущенных сэмплов тишиной : Да
Удаление блоков с тишиной в начале и конце : Нет
Установленный внешний ASPI-интерфейс
Характеристики диапазона извлечения и сообщения об ошибках
Выбранный диапазон
Имя файла F:\Mike Stern - Standards (And Other Songs) (1992).wav
Пиковый уровень 100.0 %
Качество диапазона 99.9 %
CRC F48F2AA7
Копирование... OK
Ошибок не произошло
Конец отчёта
1994 - Is What It Is
Artist: Mike Stern
Title Of Album: Is What It Is
Year Of Release: 1994
Label: Atlantic
Genre: Fusion, Post-Bop
Quality: FLAC (tracks + .cue + log)
Bitrate: lossless
Total Time: 56 мин. 18 сек.
Tracks:
01. Swunk (7:56)
02. A Little Luck (6:38)
03. What I Meant To Say (6:23)
04. Showbiz (5:45)
05. Believe It (4:36)
06. Wherever You Are (5:35)
07. Ha Ha Hotel (6:11)
08. Signs (7:50)
09. Dive (5:45)
EAC log
Exact Audio Copy V0.99 prebeta 4 from 23. January 2008
EAC extraction logfile from 14. June 2009, 13:51
Mike Stern / Is What It Is
Used drive : Optiarc DVD RW AD-5170A Adapter: 0 ID: 0
Read mode : Secure
Utilize accurate stream : Yes
Defeat audio cache : Yes
Make use of C2 pointers : No
Read offset correction : 48
Overread into Lead-In and Lead-Out : No
Fill up missing offset samples with silence : Yes
Delete leading and trailing silent blocks : No
Null samples used in CRC calculations : Yes
Used interface : Native Win32 interface for Win NT & 2000
Gap handling : Appended to previous track
Used output format : User Defined Encoder
Selected bitrate : 320 kBit/s
Quality : High
Add ID3 tag : No
Command line compressor : C:\Program Files\Exact Audio Copy\FLAC\FLAC.EXE
Additional command line options : -V -8 -T "artist=%a" -T "title=%t" -T "album=%g" -T "date=%y" -T "tracknumber=%n" -T "genre=%m" %s
TOC of the extracted CD
Track | Start | Length | Start sector | End sector
---------------------------------------------------------
1 | 0:00.00 | 7:55.67 | 0 | 35691
2 | 7:55.67 | 6:38.00 | 35692 | 65541
3 | 14:33.67 | 6:22.53 | 65542 | 94244
4 | 20:56.45 | 5:45.07 | 94245 | 120126
5 | 26:41.52 | 4:36.03 | 120127 | 140829
6 | 31:17.55 | 5:35.30 | 140830 | 165984
7 | 36:53.10 | 6:10.47 | 165985 | 193781
8 | 43:03.57 | 7:49.53 | 193782 | 229009
9 | 50:53.35 | 5:44.50 | 229010 | 254859
Track 1
Filename K:\[ Torrents ]\Mike Stern\Mike Stern - Is What It Is (1994) [flac]\01 - Swunk.wav
Pre-gap length 0:00:02.00
Peak level 100.0 %
Track quality 100.0 %
Test CRC 856104B0
Copy CRC 856104B0
Accurately ripped (confidence 7) [51278F37]
Copy OK
Track 2
Filename K:\[ Torrents ]\Mike Stern\Mike Stern - Is What It Is (1994) [flac]\02 - A Little Luck.wav
Pre-gap length 0:00:02.20
Peak level 100.0 %
Track quality 100.0 %
Test CRC 6DD6EE9E
Copy CRC 6DD6EE9E
Accurately ripped (confidence 7) [BB7BAB9F]
Copy OK
Track 3
Filename K:\[ Torrents ]\Mike Stern\Mike Stern - Is What It Is (1994) [flac]\03 - What I Meant To Say.wav
Pre-gap length 0:00:01.93
Peak level 99.9 %
Track quality 100.0 %
Test CRC 0AB5669E
Copy CRC 0AB5669E
Accurately ripped (confidence 7) [BFECBC31]
Copy OK
Track 4
Filename K:\[ Torrents ]\Mike Stern\Mike Stern - Is What It Is (1994) [flac]\04 - Showbiz.wav
Pre-gap length 0:00:02.26
Peak level 100.0 %
Track quality 100.0 %
Test CRC E10C242E
Copy CRC E10C242E
Accurately ripped (confidence 7) [43321F73]
Copy OK
Track 5
Filename K:\[ Torrents ]\Mike Stern\Mike Stern - Is What It Is (1994) [flac]\05 - Believe It.wav
Pre-gap length 0:00:02.09
Peak level 100.0 %
Track quality 100.0 %
Test CRC FFAEBB52
Copy CRC FFAEBB52
Accurately ripped (confidence 7) [32EFDE62]
Copy OK
Track 6
Filename K:\[ Torrents ]\Mike Stern\Mike Stern - Is What It Is (1994) [flac]\06 - Wherever You Are.wav
Pre-gap length 0:00:03.40
Peak level 79.3 %
Track quality 100.0 %
Test CRC B62B232E
Copy CRC B62B232E
Accurately ripped (confidence 7) [3F7C90DF]
Copy OK
Track 7
Filename K:\[ Torrents ]\Mike Stern\Mike Stern - Is What It Is (1994) [flac]\07 - Ha Ha Hotel.wav
Pre-gap length 0:00:02.93
Peak level 100.0 %
Track quality 100.0 %
Test CRC 8C36EEEE
Copy CRC 8C36EEEE
Accurately ripped (confidence 7) [C26E6268]
Copy OK
Track 8
Filename K:\[ Torrents ]\Mike Stern\Mike Stern - Is What It Is (1994) [flac]\08 - Signs.wav
Pre-gap length 0:00:00.96
Peak level 100.0 %
Track quality 100.0 %
Test CRC FFCA1DEF
Copy CRC FFCA1DEF
Accurately ripped (confidence 7) [C5095F62]
Copy OK
Track 9
Filename K:\[ Torrents ]\Mike Stern\Mike Stern - Is What It Is (1994) [flac]\09 - Dive.wav
Pre-gap length 0:00:01.00
Peak level 100.0 %
Track quality 99.9 %
Test CRC 2E428805
Copy CRC 2E428805
Accurately ripped (confidence 7) [DF1D9B1B]
Copy OK
All tracks accurately ripped
No errors occurred
End of status report
1996 - Between the Lines
Artist: Mike Stern
Title Of Album: Between The Lines
Year Of Release: 1996
Label: Atlantic Jazz
Genre: Fusion, Post-Bop
Quality: FLAC (tracks + .cue + log)
Bitrate: lossless
Total Time: 63 мин. 33 сек.
Tracks:
01. Sunnyside (7:30)
02. The Vine (6:28)
03. Wing And A Prayer (6:39)
04. Lose The Suit (8:46)
05. You Never Know (7:15)
06. Tell Me (6:03)
07. With A Twist (6:40)
08. True Enough (6:45)
09. Pages (6:44)
10. Bait Tone Blues (7:37)
Отчёт EAC
Exact Audio Copy V0.99 prebeta 5 from 4. May 2009
EAC extraction logfile from 22. November 2010, 10:48
Mike Stern / Between the Lines
Used drive : HL-DT-STDVDRAM GH20NS10 Adapter: 2 ID: 0
Read mode : Secure
Utilize accurate stream : Yes
Defeat audio cache : Yes
Make use of C2 pointers : No
Read offset correction : 667
Overread into Lead-In and Lead-Out : No
Fill up missing offset samples with silence : Yes
Delete leading and trailing silent blocks : No
Null samples used in CRC calculations : Yes
Used interface : Native Win32 interface for Win NT & 2000
Gap handling : Appended to previous track
Used output format : User Defined Encoder
Selected bitrate : 1024 kBit/s
Quality : High
Add ID3 tag : No
Command line compressor : C:\Program Files\Exact Audio Copy\Flac\flac.exe
Additional command line options : -8 -V -T "ARTIST=%a" -T "TITLE=%t" -T "ALBUM=%g" -T "DATE=%y" -T "TRACKNUMBER=%n" -T "TOTALTRACKS=%x" -T "GENRE=%m" -T "ALBUMARTIST=%v" -T "ALBUM ARTIST=%v" -T "COMMENT=EAC Secure Mode, Test & Copy, AccurateRip, FLAC -8" %s
TOC of the extracted CD
Track | Start | Length | Start sector | End sector
---------------------------------------------------------
1 | 0:00.00 | 7:30.00 | 0 | 33749
2 | 7:30.00 | 6:28.35 | 33750 | 62884
3 | 13:58.35 | 6:38.47 | 62885 | 92781
4 | 20:37.07 | 8:46.10 | 92782 | 132241
5 | 29:23.17 | 7:15.08 | 132242 | 164874
6 | 36:38.25 | 6:03.30 | 164875 | 192129
7 | 42:41.55 | 6:39.60 | 192130 | 222114
8 | 49:21.40 | 6:44.57 | 222115 | 252471
9 | 56:06.22 | 6:43.53 | 252472 | 282749
10 | 62:50.00 | 7:37.10 | 282750 | 317034
Track 1
Filename C:\Users\Tiburon\Desktop\Mike Stern - Between The Lines (1996) {Atlantic 7567-82835-2}\01 - Sunnyside.wav
Pre-gap length 0:00:02.00
Peak level 100.0 %
Track quality 100.0 %
Test CRC FA981582
Copy CRC FA981582
Cannot be verified as accurate (confidence 24) [ED694043], AccurateRip returned [AC06F983]
Copy OK
Track 2
Filename C:\Users\Tiburon\Desktop\Mike Stern - Between The Lines (1996) {Atlantic 7567-82835-2}\02 - The Vine.wav
Pre-gap length 0:00:02.24
Peak level 100.0 %
Track quality 100.0 %
Test CRC 63D79F5E
Copy CRC 63D79F5E
Cannot be verified as accurate (confidence 24) [033BF62B], AccurateRip returned [D83AA44B]
Copy OK
Track 3
Filename C:\Users\Tiburon\Desktop\Mike Stern - Between The Lines (1996) {Atlantic 7567-82835-2}\03 - Wing And A Prayer.wav
Pre-gap length 0:00:01.37
Peak level 86.6 %
Track quality 100.0 %
Test CRC 76794DB0
Copy CRC 76794DB0
Cannot be verified as accurate (confidence 24) [A5E75992], AccurateRip returned [02281ED2]
Copy OK
Track 4
Filename C:\Users\Tiburon\Desktop\Mike Stern - Between The Lines (1996) {Atlantic 7567-82835-2}\04 - Lose The Suit.wav
Pre-gap length 0:00:01.16
Peak level 100.0 %
Track quality 100.0 %
Test CRC 258F6DA6
Copy CRC 258F6DA6
Cannot be verified as accurate (confidence 24) [9559B420], AccurateRip returned [341AFF40]
Copy OK
Track 5
Filename C:\Users\Tiburon\Desktop\Mike Stern - Between The Lines (1996) {Atlantic 7567-82835-2}\05 - You Never Know.wav
Pre-gap length 0:00:03.13
Peak level 100.0 %
Track quality 100.0 %
Test CRC 0F2150D7
Copy CRC 0F2150D7
Cannot be verified as accurate (confidence 24) [BF29A40D], AccurateRip returned [17A66E6D]
Copy OK
Track 6
Filename C:\Users\Tiburon\Desktop\Mike Stern - Between The Lines (1996) {Atlantic 7567-82835-2}\06 - Tell Me.wav
Pre-gap length 0:00:02.00
Peak level 100.0 %
Track quality 100.0 %
Test CRC 388FE48C
Copy CRC 388FE48C
Cannot be verified as accurate (confidence 24) [32672E1B], AccurateRip returned [3D683C1B]
Copy OK
Track 7
Filename C:\Users\Tiburon\Desktop\Mike Stern - Between The Lines (1996) {Atlantic 7567-82835-2}\07 - With A Twist.wav
Pre-gap length 0:00:01.73
Peak level 100.0 %
Track quality 99.9 %
Test CRC 393580B9
Copy CRC 393580B9
Cannot be verified as accurate (confidence 23) [D3446F49], AccurateRip returned [99438A29]
Copy OK
Track 8
Filename C:\Users\Tiburon\Desktop\Mike Stern - Between The Lines (1996) {Atlantic 7567-82835-2}\08 - True Enough.wav
Pre-gap length 0:00:03.40
Peak level 100.0 %
Track quality 100.0 %
Test CRC 995969F4
Copy CRC 995969F4
Cannot be verified as accurate (confidence 23) [3CA6AEE9], AccurateRip returned [708A9B29]
Copy OK
Track 9
Filename C:\Users\Tiburon\Desktop\Mike Stern - Between The Lines (1996) {Atlantic 7567-82835-2}\09 - Pages.wav
Pre-gap length 0:00:03.16
Peak level 100.0 %
Track quality 100.0 %
Test CRC 1AD7EC34
Copy CRC 1AD7EC34
Cannot be verified as accurate (confidence 24) [90152AEF], AccurateRip returned [E7B4BE2F]
Copy OK
Track 10
Filename C:\Users\Tiburon\Desktop\Mike Stern - Between The Lines (1996) {Atlantic 7567-82835-2}\10 - Bait Tone Blues.wav
Pre-gap length 0:00:01.26
Peak level 100.0 %
Track quality 100.0 %
Test CRC 6017FEC3
Copy CRC 6017FEC3
Cannot be verified as accurate (confidence 24) [424359D2], AccurateRip returned [21240E92]
Copy OK
No tracks could be verified as accurate
You may have a different pressing from the one(s) in the database
No errors occurred
End of status report
1997 - Give And Take
Artist: Mike Stern
Title Of Album: Give And Take
Year Of Release: 1997
Label: Atlantic
Genre: Fusion, Post-Bop
Quality: FLAC (tracks + .cue + log)
Bitrate: lossless
Total Time: 63 мин. 23 сек.
Tracks:
01. I Love You (6:20)
02. Hook Up (7:04)
03. Everything Changes (5:41)
04. One Liners (8:19)
05. Jones Street (7:35)
06. Lumpy (3:15)
07. Rooms (5:04)
08. That's What You Think (6:43)
09. Giant Steps (5:09)
10. Who Knows (3:05)
11. Oleo (5:34)
Отчёт EAC
Exact Audio Copy V0.99 prebeta 4 from 23. January 2008
EAC extraction logfile from 21. May 2009, 7:38
Mike Stern / Give and take
Used drive : PIONEER DVD-RW DVR-112D Adapter: 0 ID: 0
Read mode : Secure
Utilize accurate stream : Yes
Defeat audio cache : Yes
Make use of C2 pointers : No
Read offset correction : 48
Overread into Lead-In and Lead-Out : No
Fill up missing offset samples with silence : Yes
Delete leading and trailing silent blocks : No
Null samples used in CRC calculations : Yes
Used interface : Installed external ASPI interface
Gap handling : Appended to previous track
Used output format : User Defined Encoder
Selected bitrate : 320 kBit/s
Quality : High
Add ID3 tag : Yes
Command line compressor : C:\Program Files\Exact Audio Copy\Flac\flac.exe
Additional command line options : -V -8 -T "artist=%a" -T "title=%t" -T "album=%g" -T "date=%y" -T "tracknumber=%n" -T "genre=%m" %s
TOC of the extracted CD
Track | Start | Length | Start sector | End sector
---------------------------------------------------------
1 | 0:00.00 | 6:20.02 | 0 | 28501
2 | 6:20.02 | 7:04.10 | 28502 | 60311
3 | 13:24.12 | 5:40.65 | 60312 | 85876
4 | 19:05.02 | 8:18.50 | 85877 | 123276
5 | 27:23.52 | 7:34.45 | 123277 | 157371
6 | 34:58.22 | 3:15.03 | 157372 | 171999
7 | 38:13.25 | 5:03.50 | 172000 | 194774
8 | 43:17.00 | 6:42.42 | 194775 | 224966
9 | 49:59.42 | 5:09.30 | 224967 | 248171
10 | 55:08.72 | 3:04.38 | 248172 | 262009
11 | 58:13.35 | 5:33.40 | 262010 | 287024
Track 1
Filename D:\music\rip\Mike Stern - Give And Take (1997) {Atlantic Jazz}\01 - I Love You.wav
Pre-gap length 0:00:02.00
Peak level 100.0 %
Track quality 100.0 %
Test CRC C746FF43
Copy CRC C746FF43
Accurately ripped (confidence 7) [80379455]
Copy OK
Track 2
Filename D:\music\rip\Mike Stern - Give And Take (1997) {Atlantic Jazz}\02 - Hook Up.wav
Pre-gap length 0:00:02.09
Peak level 100.0 %
Track quality 100.0 %
Test CRC D313ED49
Copy CRC D313ED49
Accurately ripped (confidence 7) [DCA1E6C0]
Copy OK
Track 3
Filename D:\music\rip\Mike Stern - Give And Take (1997) {Atlantic Jazz}\03 - Everything Changes.wav
Pre-gap length 0:00:02.73
Peak level 100.0 %
Track quality 100.0 %
Test CRC 5E31B015
Copy CRC 5E31B015
Accurately ripped (confidence 7) [674773C2]
Copy OK
Track 4
Filename D:\music\rip\Mike Stern - Give And Take (1997) {Atlantic Jazz}\04 - One Liners.wav
Pre-gap length 0:00:01.80
Peak level 100.0 %
Track quality 100.0 %
Test CRC E9F56ED3
Copy CRC E9F56ED3
Accurately ripped (confidence 7) [D4D1BDE5]
Copy OK
Track 5
Filename D:\music\rip\Mike Stern - Give And Take (1997) {Atlantic Jazz}\05 - Jones Street.wav
Pre-gap length 0:00:02.26
Peak level 100.0 %
Track quality 99.9 %
Test CRC 52C2DF0C
Copy CRC 52C2DF0C
Accurately ripped (confidence 7) [7407E919]
Copy OK
Track 6
Filename D:\music\rip\Mike Stern - Give And Take (1997) {Atlantic Jazz}\06 - Lumpy.wav
Pre-gap length 0:00:03.13
Peak level 99.9 %
Track quality 100.0 %
Test CRC 02BD3F14
Copy CRC 02BD3F14
Accurately ripped (confidence 7) [ADA5F52B]
Copy OK
Track 7
Filename D:\music\rip\Mike Stern - Give And Take (1997) {Atlantic Jazz}\07 - Rooms.wav
Pre-gap length 0:00:01.90
Peak level 89.2 %
Track quality 100.0 %
Test CRC 0B7CEE0C
Copy CRC 0B7CEE0C
Accurately ripped (confidence 7) [65D99B19]
Copy OK
Track 8
Filename D:\music\rip\Mike Stern - Give And Take (1997) {Atlantic Jazz}\08 - That's What You Think.wav
Pre-gap length 0:00:01.37
Peak level 100.0 %
Track quality 100.0 %
Test CRC 828B7E0F
Copy CRC 828B7E0F
Accurately ripped (confidence 6) [4DDF6D9E]
Copy OK
Track 9
Filename D:\music\rip\Mike Stern - Give And Take (1997) {Atlantic Jazz}\09 - Giant Steps.wav
Pre-gap length 0:00:01.89
Peak level 100.0 %
Track quality 100.0 %
Test CRC 0D4FD36B
Copy CRC 0D4FD36B
Accurately ripped (confidence 7) [9ADA9B2D]
Copy OK
Track 10
Filename D:\music\rip\Mike Stern - Give And Take (1997) {Atlantic Jazz}\10 - Who Knows.wav
Pre-gap length 0:00:02.06
Peak level 98.1 %
Track quality 100.0 %
Test CRC 064F4ED7
Copy CRC 064F4ED7
Accurately ripped (confidence 7) [4EA436F1]
Copy OK
Track 11
Filename D:\music\rip\Mike Stern - Give And Take (1997) {Atlantic Jazz}\11 - Oleo.wav
Pre-gap length 0:00:02.57
Peak level 100.0 %
Track quality 100.0 %
Test CRC DAE5FFA1
Copy CRC DAE5FFA1
Accurately ripped (confidence 7) [14DA7CC5]
Copy OK
All tracks accurately ripped
No errors occurred
End of status report
1999 - Play
Artist: Mike Stern
Title Of Album: Play
Year Of Release: 1999
Label: Atlantic
Genre: Fusion, Post-Bop, Contemporary Jazz
Quality: APE (image + .cue + log)
Bitrate: lossless
Total Time: 62 мин. 35 сек.
Tracks:
01. Play (7:13)
02. Small World (5:25)
03. Outta Town (6:09)
04. Blue Tone (6:44)
05. Tipatina's (6:34)
06. All Heart (6:22)
07. Frizz (5:40)
08. Link (6:53)
09. Goin' Under (4:08)
10. Big Kids (7:28)
Отчёт EAC
EAC extraction logfile from 24. February 2006, 18:37 for CD
Mike Stern / Play
Used drive : HL-DT-STDVD-ROM GDR8161B Adapter: 1 ID: 0
Read mode : Secure with NO C2, accurate stream, disable cache
Read offset correction : 102
Overread into Lead-In and Lead-Out : No
Used output format : C:\Audio\EAC\Monkey\wapet.exe (User Defined Encoder)
320 kBit/s
Additional command line options : %d -t "Artist=%a" -t "Title=%t" -t "Album=%g" -t "Year=%y" -t "Track=%n" -t "Genre=%m" mac.exe %s %d -c4000 -v
Other options :
Fill up missing offset samples with silence : Yes
Delete leading and trailing silent blocks : No
Installed external ASPI interface
Range status and errors
Selected range
Filename C:\Music\Mike.Stern_Play_(J.Scofield-B.Frisell).[eac.ape.cue]\CDImage.wav
Peak level 99.8 %
Range quality 100.0 %
CRC 55FBC909
Copy OK
No errors occured
End of status report
2001 - Voices
Artist: Mike Stern
Title Of Album: Voices
Year Of Release: 2001
Label: Atlantic
Genre: Fusion, Post-Bop, Contemporary Jazz
Quality: FLAC (image +.cue + log)
Bitrate: lossless
Total Time: 59 мин. 02 сек.
Tracks:
01. One World (6:28)
02. The River (6:31)
03. Slow Change (7:17)
04. Wishing Well (6:14)
05. Still There (7:35)
06. Spirit (6:40)
07. What Might Have Been (5:35)
08. Leni's Smile (5:36)
09. Way Out East (7:05)
Отчёт EAC
Exact Audio Copy V0.99 prebeta 4 from 23. January 2008
EAC extraction logfile from 15. March 2008, 2:26
Mike Stern / Voices
Used drive : _NEC DVD_RW ND-3500AG Adapter: 1 ID: 0
Read mode : Secure
Utilize accurate stream : Yes
Defeat audio cache : Yes
Make use of C2 pointers : No
Read offset correction : 102
Overread into Lead-In and Lead-Out : No
Fill up missing offset samples with silence : Yes
Delete leading and trailing silent blocks : No
Null samples used in CRC calculations : Yes
Used interface : Installed external ASPI interface
Used output format : User Defined Encoder
Selected bitrate : 768 kBit/s
Quality : High
Add ID3 tag : No
Command line compressor : C:\Program Files\Exact Audio Copy\FLAC\FLAC.EXE
Additional command line options : -6 -V -T "ARTIST=%a" -T "TITLE=%t" -T "ALBUM=%g" -T "DATE=%y" -T "TRACKNUMBER=%n" -T "GENRE=%m" -T "COMMENT=%e" %s -o %d
TOC of the extracted CD
Track | Start | Length | Start sector | End sector
---------------------------------------------------------
1 | 0:00.00 | 6:27.63 | 0 | 29087
2 | 6:27.63 | 6:31.05 | 29088 | 58417
3 | 12:58.68 | 7:17.07 | 58418 | 91199
4 | 20:16.00 | 6:14.10 | 91200 | 119259
5 | 26:30.10 | 7:35.35 | 119260 | 153419
6 | 34:05.45 | 6:40.33 | 153420 | 183452
7 | 40:46.03 | 5:35.30 | 183453 | 208607
8 | 46:21.33 | 5:35.62 | 208608 | 233794
9 | 51:57.20 | 7:05.15 | 233795 | 265684
Range status and errors
Selected range
Filename C:\eac\cdimage.wav
Peak level 99.8 %
Range quality 99.9 %
Copy CRC 1149008A
Copy OK
No errors occurred
End of status report
2004 - These Times
Artist: Mike Stern
Title Of Album: These Times
Year Of Release: 2004
Label: ESC
Genre: Post-Bop, Fusion
Quality: FLAC (image + .cue + log)
Bitrate: lossless
Total Time: 69 мин. 47 сек.
Tracks:
01. Chatter (6:11)
02. Silver Lining (6:37)
03. I Know You (5:07)
04. Mirage (6:47)
05. If Only (5:32)
06. Street Rhyme (6:39)
07. Avenue B (6:14)
08. Remember (For Bob Berg) (6:05)
09. These Times (8:14)
10. What You Believe (6:48)
11. Last One Down (5:33)
Отчёт EAC
EAC extraction logfile from 25. February 2006, 22:43 for CD
Mike Stern / These Times
Used drive : PIONEER DVD-RW DVR-105 Adapter: 0 ID: 1
Read mode : Secure with NO C2, accurate stream, disable cache
Read offset correction : 48
Overread into Lead-In and Lead-Out : No
Used output format : Internal WAV Routines
44.100 Hz; 16 Bit; Stereo
Other options :
Fill up missing offset samples with silence : Yes
Delete leading and trailing silent blocks : No
Installed external ASPI interface
Range status and errors
Selected range
Filename E:\Converted Music\Mike Stern - This Times\Mike Stern - These Times.wav
Peak level 99.8 %
Range quality 100.0 %
CRC F1F1FFD8
Copy OK
No errors occured
End of status report
2006 - Who Let The Cats Out
Artist: Mike Stern
Title Of Album: Who Let The Cats Out
Year Of Release: 2006
Label: Heads Up International
Genre: Fusion, Post-Bop, Contemporary Jazz
Quality: FLAC (image + .cue + log)
Bitrate: lossless
Total Time: 73 мин. 28 сек.
Tracks:
01. Tumble Home (8:15)
02. KT (7:58)
03. Good Question (4:18)
04. Language (7:04)
05. We're with You (5:49)
06. Leni Goes Shopping (4:39)
07. Roll with It (5:02)
08. Texas (7:05)
09. Who Let the Cats Out? (7:45)
10. All You Need (6:57)
11. Blue Runway (8:37)
Отчёт EAC
Exact Audio Copy V0.99 prebeta 4 from 23. January 2008
EAC extraction logfile from 16. March 2008, 20:19
Mike Stern / Who Let the Cats Out?
Used drive : _NEC DVD_RW ND-3500AG Adapter: 1 ID: 0
Read mode : Secure
Utilize accurate stream : Yes
Defeat audio cache : Yes
Make use of C2 pointers : No
Read offset correction : 102
Overread into Lead-In and Lead-Out : No
Fill up missing offset samples with silence : Yes
Delete leading and trailing silent blocks : No
Null samples used in CRC calculations : Yes
Used interface : Installed external ASPI interface
Used output format : User Defined Encoder
Selected bitrate : 768 kBit/s
Quality : High
Add ID3 tag : No
Command line compressor : C:\Program Files\Exact Audio Copy\FLAC\FLAC.EXE
Additional command line options : -6 -V -T "ARTIST=%a" -T "TITLE=%t" -T "ALBUM=%g" -T "DATE=%y" -T "TRACKNUMBER=%n" -T "GENRE=%m" -T "COMMENT=%e" %s -o %d
TOC of the extracted CD
Track | Start | Length | Start sector | End sector
---------------------------------------------------------
1 | 0:00.00 | 8:14.69 | 0 | 37118
2 | 8:14.69 | 7:57.52 | 37119 | 72945
3 | 16:12.46 | 4:17.55 | 72946 | 92275
4 | 20:30.26 | 7:03.49 | 92276 | 124049
5 | 27:34.00 | 5:48.69 | 124050 | 150218
6 | 33:22.69 | 4:38.40 | 150219 | 171108
7 | 38:01.34 | 5:02.37 | 171109 | 193795
8 | 43:03.71 | 7:04.51 | 193796 | 225646
9 | 50:08.47 | 7:44.56 | 225647 | 260502
10 | 57:53.28 | 6:57.18 | 260503 | 291795
11 | 64:50.46 | 8:37.21 | 291796 | 330591
Range status and errors
Selected range
Filename C:\eac\cdimage.wav
Peak level 99.8 %
Range quality 99.9 %
Copy CRC 14689BA9
Copy OK
No errors occurred
End of status report
2009 - Big Neighborhood
Artist: Mike Stern
Title Of Album: Big Neighborhood
Year Of Release: 2009
Label: Heads Up International
Genre: Fusion, Post-Bop, Contemporary Jazz
Quality: FLAC (tracks + .cue + log)
Bitrate: lossless
Total Time: 79 мин. 55 сек.
01. Big Neighborhood (7:41)
02. 6th Street (7:49)
03. Reach (5:31)
04. Song For Pepper (5:44)
05. Coupe De Ville (4:37)
06. Bird Blue (5:44)
07. Moroccan Roll (7:07)
08. Long Time Gone (7:53)
09. Check One (7:39)
10. That's All It Is (4:52)
11. Hope You Don't Mind (5:19)
EAC log
Exact Audio Copy V0.99 prebeta 5 from 4. May 2009
EAC extraction logfile from 26. December 2009, 18:43
Mike Stern / Big Neighborhood
Used drive : PLEXTOR DVDR PX-810SA Adapter: 8 ID: 0
Read mode : Secure
Utilize accurate stream : Yes
Defeat audio cache : Yes
Make use of C2 pointers : No
Read offset correction : 48
Overread into Lead-In and Lead-Out : No
Fill up missing offset samples with silence : Yes
Delete leading and trailing silent blocks : No
Null samples used in CRC calculations : Yes
Used interface : Installed external ASPI interface
Gap handling : Appended to previous track
Used output format : User Defined Encoder
Selected bitrate : 128 kBit/s
Quality : High
Add ID3 tag : No
Command line compressor : C:\Program Files (x86)\Exact Audio Copy\Flac\flac.exe
Additional command line options : -8 -V -T "ARTIST=%a" -T "TITLE=%t" -T "ALBUM=%g" -T "DATE=%y" -T "TRACKNUMBER=%n" -T "GENRE=%m" -T "COMMENT=EAC v.0.99pb5 Flac 1.2.1 -8" %s
TOC of the extracted CD
Track | Start | Length | Start sector | End sector
---------------------------------------------------------
1 | 0:00.00 | 7:40.66 | 0 | 34565
2 | 7:40.66 | 7:49.28 | 34566 | 69768
3 | 15:30.19 | 5:30.60 | 69769 | 94578
4 | 21:01.04 | 5:43.45 | 94579 | 120348
5 | 26:44.49 | 4:36.64 | 120349 | 141112
6 | 31:21.38 | 5:44.03 | 141113 | 166915
7 | 37:05.41 | 7:06.70 | 166916 | 198935
8 | 44:12.36 | 7:52.56 | 198936 | 234391
9 | 52:05.17 | 7:39.15 | 234392 | 268831
10 | 59:44.32 | 4:52.23 | 268832 | 290754
11 | 64:36.55 | 5:18.54 | 290755 | 314658
Track 1
Filename H:\RIPS\01 - Big Neighborhood.wav
Pre-gap length 0:00:02.00
Peak level 99.8 %
Track quality 99.9 %
Test CRC 92D039DC
Copy CRC 92D039DC
Accurately ripped (confidence 3) [669E1D39]
Copy OK
Track 2
Filename H:\RIPS\02 - 6th Street.wav
Pre-gap length 0:00:00.02
Peak level 99.8 %
Track quality 100.0 %
Test CRC 0B5FB048
Copy CRC 0B5FB048
Accurately ripped (confidence 3) [52DD5983]
Copy OK
Track 3
Filename H:\RIPS\03 - Reach.wav
Pre-gap length 0:00:00.02
Peak level 98.3 %
Track quality 100.0 %
Test CRC AC1B59EB
Copy CRC AC1B59EB
Accurately ripped (confidence 3) [CBFFAA9D]
Copy OK
Track 4
Filename H:\RIPS\04 - Song For Pepper.wav
Pre-gap length 0:00:00.98
Peak level 96.2 %
Track quality 100.0 %
Test CRC 84CA015A
Copy CRC 84CA015A
Accurately ripped (confidence 3) [D3CDFC02]
Copy OK
Track 5
Filename H:\RIPS\05 - Coupe De Ville.wav
Pre-gap length 0:00:00.02
Peak level 97.6 %
Track quality 100.0 %
Test CRC DEC86303
Copy CRC DEC86303
Accurately ripped (confidence 3) [B2AE66A2]
Copy OK
Track 6
Filename H:\RIPS\06 - Bird Blue.wav
Pre-gap length 0:00:01.09
Peak level 95.3 %
Track quality 99.9 %
Test CRC 4B464FC0
Copy CRC 4B464FC0
Accurately ripped (confidence 3) [F949CD1D]
Copy OK
Track 7
Filename H:\RIPS\07 - Moroccan Roll.wav
Pre-gap length 0:00:02.05
Peak level 99.8 %
Track quality 100.0 %
Test CRC 3ACA8C21
Copy CRC 3ACA8C21
Accurately ripped (confidence 3) [1B55CE8A]
Copy OK
Track 8
Filename H:\RIPS\08 - Long Time Gone.wav
Pre-gap length 0:00:02.28
Peak level 99.8 %
Track quality 100.0 %
Test CRC EF279882
Copy CRC EF279882
Accurately ripped (confidence 3) [156EC85C]
Copy OK
Track 9
Filename H:\RIPS\09 - Check One.wav
Pre-gap length 0:00:01.29
Peak level 98.2 %
Track quality 100.0 %
Test CRC 5CCDFF75
Copy CRC 5CCDFF75
Accurately ripped (confidence 3) [CE815CC1]
Copy OK
Track 10
Filename H:\RIPS\10 - That's All It Is.wav
Pre-gap length 0:00:01.89
Peak level 97.2 %
Track quality 100.0 %
Test CRC EB4C8217
Copy CRC EB4C8217
Accurately ripped (confidence 3) [560CB19F]
Copy OK
Track 11
Filename H:\RIPS\11 - Hope You Don't Mind.wav
Pre-gap length 0:00:02.33
Peak level 95.5 %
Track quality 100.0 %
Test CRC 94CADEED
Copy CRC 94CADEED
Accurately ripped (confidence 3) [D9176B22]
Copy OK
All tracks accurately ripped
No errors occurred
End of status report
.CUE
REM GENRE Jazz
REM DATE 2009
REM DISCID A410630B
REM COMMENT "ExactAudioCopy v0.99pb5"
PERFORMER "Mike Stern"
TITLE "Big Neighborhood"
FILE "01 - Big Neighborhood.wav" WAVE
TRACK 01 AUDIO
TITLE "Big Neighborhood"
PERFORMER "Mike Stern"
INDEX 01 00:00:00
TRACK 02 AUDIO
TITLE "6th Street"
PERFORMER "Mike Stern"
INDEX 00 07:40:64
FILE "02 - 6th Street.wav" WAVE
INDEX 01 00:00:00
TRACK 03 AUDIO
TITLE "Reach"
PERFORMER "Mike Stern"
INDEX 00 07:49:26
FILE "03 - Reach.wav" WAVE
INDEX 01 00:00:00
TRACK 04 AUDIO
TITLE "Song For Pepper"
PERFORMER "Mike Stern"
INDEX 00 05:29:61
FILE "04 - Song For Pepper.wav" WAVE
INDEX 01 00:00:00
TRACK 05 AUDIO
TITLE "Coupe De Ville"
PERFORMER "Mike Stern"
INDEX 00 05:43:43
FILE "05 - Coupe De Ville.wav" WAVE
INDEX 01 00:00:00
TRACK 06 AUDIO
TITLE "Bird Blue"
PERFORMER "Mike Stern"
INDEX 00 04:35:57
FILE "06 - Bird Blue.wav" WAVE
INDEX 01 00:00:00
TRACK 07 AUDIO
TITLE "Moroccan Roll"
PERFORMER "Mike Stern"
INDEX 00 05:41:74
FILE "07 - Moroccan Roll.wav" WAVE
INDEX 01 00:00:00
TRACK 08 AUDIO
TITLE "Long Time Gone"
PERFORMER "Mike Stern"
INDEX 00 07:04:49
FILE "08 - Long Time Gone.wav" WAVE
INDEX 01 00:00:00
TRACK 09 AUDIO
TITLE "Check One"
PERFORMER "Mike Stern"
INDEX 00 07:51:34
FILE "09 - Check One.wav" WAVE
INDEX 01 00:00:00
TRACK 10 AUDIO
TITLE "That's All It Is"
PERFORMER "Mike Stern"
INDEX 00 07:37:23
FILE "10 - That's All It Is.wav" WAVE
INDEX 01 00:00:00
TRACK 11 AUDIO
TITLE "Hope You Don't Mind"
PERFORMER "Mike Stern"
INDEX 00 04:49:73
FILE "11 - Hope You Don't Mind.wav" WAVE
INDEX 01 00:00:00
2012 - All Over The Place
Artist: Mike Stern
Title Of Album: All Over The Place
Year Of Release: 2012
Label: Heads Up International
Genre: Fusion, Post-Bop, Contemporary Jazz
Quality: FLAC (tracks + .cue + log)
Bitrate: lossless
Total Time: 75 мин. 27 сек.
01. AJ (8:53)
02. Cameroon (5:46)
03. Out Of The Blue (6:15)
04. As Far As We Know (6:34)
05. Blues For Al (7:07)
06. OCD (8:08)
07. You Never Told Me (6:18)
08. Half Way Home (6:29)
09. Light (6:14)
10. Flipside (7:22)
11. All Over The Place (6:20)
EAC log
EAC extraction logfile from 3. July 2012, 20:59 for CD
Mike Stern / All Over The Place
Used drive : TSSTcorpCD/DVDW SH-S182D Adapter: 1 ID: 0
Read mode : Secure with NO C2, accurate stream, disable cache
Read offset correction : 6
Overread into Lead-In and Lead-Out : No
Used output format : C:\Programs\EAC\Encoders\Flac\flac.exe (User Defined Encoder)
32 kBit/s
Additional command line options : -V -8 -T "artist=%a" -T "title=%t" -T "album=%g" -T "date=%y" -T "tracknumber=%n" -T "genre=%m" %s -T"comment=EAC (secure mode) / FLAC 1.1.4 - by manfred"
Other options :
Fill up missing offset samples with silence : Yes
Delete leading and trailing silent blocks : No
Installed external ASPI interface
Track 1
Filename D:\Music\Recording\Mike Stern - All Over The Place (2012) [FLAC]\01 - AJ.wav
Pre-gap length 0:00:02.00
Peak level 99.8 %
Track quality 99.9 %
Test CRC D77F6175
Copy CRC D77F6175
Copy OK
Track 2
Filename D:\Music\Recording\Mike Stern - All Over The Place (2012) [FLAC]\02 - Cameroon.wav
Peak level 99.1 %
Track quality 100.0 %
Test CRC 92569F3E
Copy CRC 92569F3E
Copy OK
Track 3
Filename D:\Music\Recording\Mike Stern - All Over The Place (2012) [FLAC]\03 - Out Of The Blue.wav
Peak level 99.8 %
Track quality 100.0 %
Test CRC FE30435D
Copy CRC FE30435D
Copy OK
Track 4
Filename D:\Music\Recording\Mike Stern - All Over The Place (2012) [FLAC]\04 - As Far As We Know.wav
Peak level 95.3 %
Track quality 100.0 %
Test CRC 8F7889C0
Copy CRC 8F7889C0
Copy OK
Track 5
Filename D:\Music\Recording\Mike Stern - All Over The Place (2012) [FLAC]\05 - Blues For Al.wav
Peak level 95.8 %
Track quality 100.0 %
Test CRC 811F1437
Copy CRC 811F1437
Copy OK
Track 6
Filename D:\Music\Recording\Mike Stern - All Over The Place (2012) [FLAC]\06 - OCD.wav
Peak level 99.8 %
Track quality 100.0 %
Test CRC F5353EA9
Copy CRC F5353EA9
Copy OK
Track 7
Filename D:\Music\Recording\Mike Stern - All Over The Place (2012) [FLAC]\07 - You Never Told Me.wav
Peak level 95.7 %
Track quality 100.0 %
Test CRC 49CAF374
Copy CRC 49CAF374
Copy OK
Track 8
Filename D:\Music\Recording\Mike Stern - All Over The Place (2012) [FLAC]\08 - Half Way Home.wav
Peak level 99.8 %
Track quality 100.0 %
Test CRC DC54A683
Copy CRC DC54A683
Copy OK
Track 9
Filename D:\Music\Recording\Mike Stern - All Over The Place (2012) [FLAC]\09 - Light.wav
Peak level 99.8 %
Track quality 100.0 %
Test CRC FE7E36A2
Copy CRC FE7E36A2
Copy OK
Track 10
Filename D:\Music\Recording\Mike Stern - All Over The Place (2012) [FLAC]\10 - Flipside.wav
Peak level 99.8 %
Track quality 100.0 %
Test CRC BC9094AD
Copy CRC BC9094AD
Copy OK
Track 11
Filename D:\Music\Recording\Mike Stern - All Over The Place (2012) [FLAC]\11 - All Over The Place.wav
Peak level 99.8 %
Track quality 100.0 %
Test CRC 6EEC7B40
Copy CRC 6EEC7B40
Copy OK
No errors occured
End of status report
.CUE
REM GENRE Fusion
REM DATE 2012
REM DISCID 9A11AF0B
REM COMMENT "ExactAudioCopy v0.95b4"
PERFORMER "Mike Stern"
TITLE "All Over The Place"
FILE "01 - AJ.wav" WAVE
TRACK 01 AUDIO
TITLE "AJ"
PERFORMER "Mike Stern"
INDEX 01 00:00:00
FILE "02 - Cameroon.wav" WAVE
TRACK 02 AUDIO
TITLE "Cameroon"
PERFORMER "Mike Stern"
INDEX 01 00:00:00
FILE "03 - Out Of The Blue.wav" WAVE
TRACK 03 AUDIO
TITLE "Out Of The Blue"
PERFORMER "Mike Stern"
INDEX 01 00:00:00
FILE "04 - As Far As We Know.wav" WAVE
TRACK 04 AUDIO
TITLE "As Far As We Know"
PERFORMER "Mike Stern"
INDEX 01 00:00:00
FILE "05 - Blues For Al.wav" WAVE
TRACK 05 AUDIO
TITLE "Blues For Al"
PERFORMER "Mike Stern"
INDEX 01 00:00:00
FILE "06 - OCD.wav" WAVE
TRACK 06 AUDIO
TITLE "OCD"
PERFORMER "Mike Stern"
INDEX 01 00:00:00
FILE "07 - You Never Told Me.wav" WAVE
TRACK 07 AUDIO
TITLE "You Never Told Me"
PERFORMER "Mike Stern"
INDEX 01 00:00:00
FILE "08 - Half Way Home.wav" WAVE
TRACK 08 AUDIO
TITLE "Half Way Home"
PERFORMER "Mike Stern"
INDEX 01 00:00:00
FILE "09 - Light.wav" WAVE
TRACK 09 AUDIO
TITLE "Light"
PERFORMER "Mike Stern"
INDEX 01 00:00:00
FILE "10 - Flipside.wav" WAVE
TRACK 10 AUDIO
TITLE "Flipside"
PERFORMER "Mike Stern"
INDEX 01 00:00:00
FILE "11 - All Over The Place.wav" WAVE
TRACK 11 AUDIO
TITLE "All Over The Place"
PERFORMER "Mike Stern"
INDEX 01 00:00:00
Состав
musicians
Mike Stern - guitars, acoustic nylon string guitar
Jim Beard - Rhodes piano, synths, Hammond B3
Dave Weckl - drums
Anthony Jackson - contrabass guitar
Richard Bona - vocals, bass
Kenny Garrett - sax
Dave Holland - acoustic bass
Victor Bailey - bass
Bob Malach - sax
Will Lee - bass
Victor Wooten - bass
Esperanza Spalding - acoustic bass, vocals
Tom Kennedy - bass
Randy Brecker - trumpet
Chris Potter - sax
Leni Stern - rhythm wah wah guitar, N'goni Ba
Bob Franceschini - sax
Al Foster - drums
Keith Carlock - drums
Tim Keiper - percussion
Kim Thompson - drums
Lionel Cordew - drums
Produced by Jim Beard

Большое спасибо всем релизерам, кто помог собрать эту прекрасную коллекцию!Персональное спасибо Willy за предоставленный материал.
Download
Для скачивания .torrent файлов необходима регистрация
Сайт не распространяет и не хранит электронные версии произведений, а лишь предоставляет доступ к создаваемому пользователями каталогу ссылок на торрент-файлы, которые содержат только списки хеш-сумм
[Профиль]  [ЛС] 

GrBear

VIP (Заслуженный)

Стаж: 11 лет 5 месяцев

Сообщений: 8619

GrBear · 20-Июл-08 23:31 (спустя 3 часа)

[Цитировать] 

Небольшое добавление по поводу корректных вариантов. Вот для этих альбомов неплохо по возможности найти правильные рипы:
1988 - Time In Place - неправильные настроики EAC (используется C2, не выставлен оффсет)
1991 - Odds or Evens - (не выставлен оффсет)
1994 - Is What It Is (и так понятно)
1996 - Between the Lines - (не выставлен оффсет)
1997 - Give And Take - (не выставлен оффсет).
[Профиль]  [ЛС] 

Willy

VIP (Заслуженный)

Стаж: 11 лет 2 месяца

Сообщений: 6103

Willy · 20-Июл-08 23:34 (спустя 3 мин.)

[Цитировать] 

GrBear
Понял. Принялся искать.
Может имеет смысл прикрепить тему вверху раздела? Как никак, полная дискография.
[Профиль]  [ЛС] 

GrBear

VIP (Заслуженный)

Стаж: 11 лет 5 месяцев

Сообщений: 8619

GrBear · 21-Июл-08 00:49 (спустя 1 час 14 мин.)

[Цитировать] 

Willy787
Здесь оставляй сообщение.
Все дискографии не прилепишь, никакого места не хватит
Да, забыл сказать: оформление отличное!
[Профиль]  [ЛС] 

Willy

VIP (Заслуженный)

Стаж: 11 лет 2 месяца

Сообщений: 6103

Willy · 21-Июл-08 01:39 (спустя 50 мин.)

[Цитировать] 

GrBear писал(а):
Здесь оставляй сообщение.
Там тоже оставлю сообщение. Сегодня замотался с этим. На днях оформлю.
GrBear писал(а):
оформление отличное
Ещё бы. Мы не лыком шиты
[Профиль]  [ЛС] 

Willy

VIP (Заслуженный)

Стаж: 11 лет 2 месяца

Сообщений: 6103

Willy · 22-Июл-08 22:32 (спустя 1 день 20 часов)

[Цитировать] 

За два дня только 3 личера??? Не густо. Это я ради этого полдня провозился с оформлением и подготовкой дискографии?
[Профиль]  [ЛС] 

u_caged

Стаж: 10 лет 10 месяцев

Сообщений: 411

u_caged · 23-Июл-08 10:11 (спустя 11 часов)

[Цитировать] 

Willy787 писал(а):
Это я ради этого полдня провозился с оформлением и подготовкой дискографии?
Не нада спешить. К тому же Стерн далеко не всеми любимый гитарюго.
Здесь совсем нелишним был бы кто-нибудь с открытым портом на раздаче, а то, похоже, есть желающие скачать это, но коннекту нету. Вообще, надо думать, в выходные все разрулиться...
[Профиль]  [ЛС] 

Willy

VIP (Заслуженный)

Стаж: 11 лет 2 месяца

Сообщений: 6103

Willy · 23-Июл-08 10:42 (спустя 30 мин.)

[Цитировать] 

u_caged писал(а):
Здесь совсем нелишним был бы кто-нибудь с открытым портом на раздаче
Ну уж извиняйте. Я вообще запутался со своими портами. Пробовали их и так, и эдак настраивать. Что есть, то есть.
[Профиль]  [ЛС] 

u_caged

Стаж: 10 лет 10 месяцев

Сообщений: 411

u_caged · 23-Июл-08 11:01 (спустя 18 мин.)

[Цитировать] 

Willy787 писал(а):
Что есть, то есть.
Мухаха! Да я никаких притензий и не выдвигал, вообще-то... Ну да, чего нету, того нету...
Спокойствие и только спокойствие, не нада никуда спешить...
Все будет в ажуре...
[Профиль]  [ЛС] 

Willy

VIP (Заслуженный)

Стаж: 11 лет 2 месяца

Сообщений: 6103

Willy · 23-Июл-08 11:16 (спустя 15 мин.)

[Цитировать] 

u_caged писал(а):
Все будет в ажуре...
В общем, думайте сами, решайте сами. Торрент на отдаче постоянно.
[Профиль]  [ЛС] 

u_caged

Стаж: 10 лет 10 месяцев

Сообщений: 411

u_caged · 23-Июл-08 11:29 (спустя 13 мин.)

[Цитировать] 

Willy787 писал(а):
В общем, думайте сами, решайте сами.
А чо думать-то? Нинада думать! Я вот забираю это все, какой-то чел из Питера (у него порт открыт) мне отдает, правда очень медленно, но все равно. 60% уже ко мну приехали, остались какие-то жалкие 40%. Ну и номально, я никуда не тороплюсь...
Willy787 писал(а):
Пробовали их и так, и эдак настраивать.
Кстате, если выход в нет из локалки и нету публичного IP (за NAT если сидим), то как не настраивай, а открытых портов не видать никогда. Если нужен открытый порт (а для эффективного файлообмену он нужен), то тогда нужно покупать у провайдера публичный IP, и мировой файлообмен наконец-то примет в свои ряды еще одного активного полноценного участника... Угу, по-моему, в этом мире все так устроено...
[Профиль]  [ЛС] 

Willy

VIP (Заслуженный)

Стаж: 11 лет 2 месяца

Сообщений: 6103

Willy · 23-Июл-08 11:31 (спустя 2 мин.)

[Цитировать] 

u_caged
Похоже, что я к первой категории отношусь, хоть и не из локалки. Но раньше не было проблемы с отдачей и закачкой (хотя раньше я и не знал о портах и т.п. )
[Профиль]  [ЛС] 

u_caged

Стаж: 10 лет 10 месяцев

Сообщений: 411

u_caged · 23-Июл-08 11:37 (спустя 5 мин.)

[Цитировать] 

Во! Какой-то чел пришел с хорошим каналом качать!
Это хорошо, может даже сегодня все заберу...
[Профиль]  [ЛС] 

Willy

VIP (Заслуженный)

Стаж: 11 лет 2 месяца

Сообщений: 6103

Willy · 29-Июл-08 17:06 (спустя 6 дней)

[Цитировать] 

Luchano
Понравилось?
[Профиль]  [ЛС] 

Willy

VIP (Заслуженный)

Стаж: 11 лет 2 месяца

Сообщений: 6103

Willy · 23-Авг-08 10:47 (спустя 24 дня)

[Цитировать] 

Uncle Remus писал(а):
Отличная работа
Старался
[Профиль]  [ЛС] 

stary4ort

Стаж: 10 лет 4 месяца

Сообщений: 45

stary4ort · 05-Сен-08 22:36 (спустя 13 дней)

[Цитировать] 

молодец Willy787! Зачот! Ну, щас послуушаем
[Профиль]  [ЛС] 

vkorobeckij

Стаж: 11 лет 1 месяц

Сообщений: 37

vkorobeckij · 24-Сен-08 17:21 (спустя 18 дней)

[Цитировать] 

Willy787
Спасибо огромнейшее , уважаемый. Наконец то соберу недостающие альбомы
[Профиль]  [ЛС] 

vkorobeckij

Стаж: 11 лет 1 месяц

Сообщений: 37

vkorobeckij · 28-Сен-08 23:15 (спустя 4 дня)

[Цитировать] 

Уважаемые пользователи! У меня возникли проблемы при расжатии следующих альбомов: Neesh; Upside down; Time in place; Odds or evens. Собственно говоря альбомы cue splitterом расжались, а дальше получившиеся ape файлы не хотят записываться Nero на диск , и конвертироваться тоже не хотят, хотя у меня установлен mega plugin codec packs на все случаи жизни. Пробовал и переименовывать трэки, но всё равно ничего не выходит. Подскажите пожалуйста что мне делать
[Профиль]  [ЛС] 

UPOROFFF

Top Seed 03* 160r

Стаж: 10 лет 5 месяцев

Сообщений: 623

UPOROFFF · 29-Сен-08 09:07 (спустя 9 часов)

[Цитировать] 

vkorobeckij писал(а):
Уважаемые пользователи! У меня возникли проблемы при расжатии следующих альбомов: Neesh; Upside down; Time in place; Odds or evens. Собственно говоря альбомы cue splitterом расжались, а дальше получившиеся ape файлы не хотят записываться Nero на диск , и конвертироваться тоже не хотят, хотя у меня установлен mega plugin codec packs на все случаи жизни. Пробовал и переименовывать трэки, но всё равно ничего не выходит. Подскажите пожалуйста что мне делать
У меня тоже не получилось записать на диск ape. файлы, пришлось пережать их в wav. в jet.audio и все записалось.
[Профиль]  [ЛС] 

Willy

VIP (Заслуженный)

Стаж: 11 лет 2 месяца

Сообщений: 6103

Willy · 29-Сен-08 10:16 (спустя 1 час 8 мин.)

[Цитировать] 

vkorobeckij
Увы, в этих вопросах я не силён. Подсказать что-то, к сожалению, не могу.
[Профиль]  [ЛС] 

zaz36

Стаж: 10 лет 1 месяц

Сообщений: 263


zaz36 · 22-Авг-09 10:18 (спустя 10 месяцев)

[Цитировать] 

Скачал на пробу 2006. ААААтличный альбомчик. Буду все забирать. Большое спасибо.
[Профиль]  [ЛС] 

Darkman

Top Seed 05* 640r

Стаж: 10 лет 4 месяца

Сообщений: 10224

Darkman · 27-Ноя-09 23:11 (спустя 3 месяца 5 дней)

[Цитировать] 

Как не качает?
Полно же сидов...
Я вот только решил скачать один из альбомов тут в дискографии .. - поставил на заакачку... и оно сразу .. мгновенно .. летит!!
[Профиль]  [ЛС] 

Willy

VIP (Заслуженный)

Стаж: 11 лет 2 месяца

Сообщений: 6103

Willy · 27-Ноя-09 23:38 (спустя 27 мин.)

[Цитировать] 

Darkman писал(а):
Я вот только решил скачать один из альбомов тут в дискографии
А чего только один? Они все хороши
[Профиль]  [ЛС] 

Darkman

Top Seed 05* 640r

Стаж: 10 лет 4 месяца

Сообщений: 10224

Darkman · 28-Ноя-09 00:08 (спустя 29 мин.)

[Цитировать] 

Некоторые уже есть.. - некоторые пока не xочу
[Профиль]  [ЛС] 

Xau9m Omap

Стаж: 9 лет 4 месяца

Сообщений: 13

Xau9m Omap · 30-Дек-09 11:55 (спустя 1 месяц 2 дня)

[Цитировать] 

willy огромное тебе спасибо))больше половины инфы которой я от сюда брал, отдавал ты))так что от меня тебе огромный респект
[Профиль]  [ЛС] 

Xill

Стаж: 10 лет 7 месяцев

Сообщений: 6


Xill · 03-Фев-10 23:29 (спустя 1 месяц 4 дня)

[Цитировать] 

6-го февраля в Московском Международном Доме Музыки Майк Штерн выступит в рамках фестиваля «ТРИУМФ ДЖАЗА» со своим бэндом, в который войдут Dave Weckl (барабаны), Tom Kennedy (бас), а также на саксофоне им подыграет наш соотечественник Игорь Бутман. Всем ценителям - добро пожаловать!
[Профиль]  [ЛС] 

(Y)игрек

Хранитель

Стаж: 9 лет 6 месяцев

Сообщений: 1379

(Y)игрек · 28-Ноя-10 22:54 (спустя 9 месяцев)

[Цитировать] 

Заменил рипы на корректные:
Mike Stern - Between The Lines (1996) {Atlantic 7567-82835-2}
Mike Stern - Time In Place (1988) {Atlantic 781 840-2}
Mike Stern - Is What It Is (1994) [flac] - нашёл на what.cd
Mike Stern - Odds Or Evens (1991)
Mike Stern - 1997 - Give and Take [FLAC]
Добавил американское издание Mike Stern - Big Neighborhood.(2009)
[Профиль]  [ЛС] 

deepofrain

VIP (Заслуженный)

Стаж: 11 лет 6 месяцев

Сообщений: 4891

deepofrain · 29-Ноя-10 13:58 (спустя 15 часов, ред. 29-Ноя-10 13:58)

[Цитировать] 

igreksoft1
Mike Stern - Who Let the Cats Out artwork.rar
Mike Stern - 1997 - Give and Take artwork.rar

надумаете заменить апе на флак, и имиджи на треки, пишите в личку
[Профиль]  [ЛС] 

Филин1

Стаж: 8 лет 3 месяца

Сообщений: 9

Филин1 · 11-Янв-11 22:28 (спустя 1 месяц 12 дней, ред. 11-Янв-11 22:28)

[Цитировать] 

Майк гений!!! Я был недавно на его концерте в Новосибирске. Это было блистательно. Я после него уже месяц творческого подъёма в себе наблюдаю. НА мой взгляд он один из лучших гитаристов мира!!! Автору огромный респект за раздачу, как бы там ни было!!!
Раздаётся шикарно!!! При загрузке в 48% я уже раздал 1ГБ)) Так что найсово!!!
[Профиль]  [ЛС] 

(Y)игрек

Хранитель

Стаж: 9 лет 6 месяцев

Сообщений: 1379

(Y)игрек · 11-Янв-11 22:32 (спустя 4 мин.)

[Цитировать] 

Филин1, та ради Бога.
Слушайте на здоровье. Сам бы в живую послушал.
[Профиль]  [ЛС] 
 
Ответить
Loading...
Error