[DTSCD][QU] Henry Mancini & Doc Severinson - Brass, Ivory & Strings - 1973 (Jazz)

Страницы:  1

Ответить
Автор
Сообщение

Alone-007

Стаж: 8 лет 8 месяцев

Сообщений: 7


Alone-007 · 14-Мар-10 16:08 (8 лет 6 месяцев назад, ред. 31-Мар-10 01:16)

Henry Mancini & Doc Severinson - Brass, Ivory & Strings
Жанр: Jazz
Год выпуска диска: 1973
Производитель диска: USA
Аудио кодек: DTS
Audio: DTS 2.0 16/44
Тип рипа: image+.cue
Продолжительность: 32:59
Трэклист:
1. Theme For Doc
2. Ben
3. Help Me Make It Through The Night
4. 'Round Midnight
5. Without You
6. Make It With You
7. Lover Man (Oh Where Can You Be?)
8. Wave
9. Love Theme For Laura
10. I Can't Get Started
EAC
Exact Audio Copy V0.99 prebeta 5 from 4. May 2009
Отчёт EAC об извлечении, выполненном 14. марта 2010, 16:00
Unknown Artist / Unknown Title
Дисковод: AlViDrv BDDVDROM Adapter: 3 ID: 0
Режим чтения : Скоростной
Коррекция смещения при чтении : 0
Способность читать области Lead-in и Lead-out : Нет
Заполнение пропущенных сэмплов тишиной : Да
Удаление блоков с тишиной в начале и конце : Нет
При вычислениях CRC использовались нулевые сэмплы : Нет
Интерфейс : Встроенный Win32-интерфейс для Win NT/2000
Выходной формат : Внутренние WAV-операции
Формат сэмплов : 44.100 Гц; 16 бит; стерео
TOC извлечённого CD
Трек | Старт | Длительность | Начальный сектор | Конечный сектор
---------------------------------------------------------------------
1 | 0:00.00 | 3:10.68 | 0 | 14317
2 | 3:10.68 | 2:57.56 | 14318 | 27648
3 | 6:08.49 | 4:03.42 | 27649 | 45915
4 | 10:12.16 | 2:52.51 | 45916 | 58866
5 | 13:04.67 | 3:14.31 | 58867 | 73447
6 | 16:19.23 | 3:29.20 | 73448 | 89142
7 | 19:48.43 | 3:40.37 | 89143 | 105679
8 | 23:29.05 | 3:06.63 | 105680 | 119692
9 | 26:35.68 | 3:00.38 | 119693 | 133230
10 | 29:36.31 | 3:23.42 | 133231 | 148497
Характеристики диапазона извлечения и сообщения об ошибках
Выбранный диапазон
Имя файла D:\Раздачи rutracker.org\Henry Mancini & Doc Severinson - Brass Ivory And Strings\Henry Mancini & Doc Severinson - Brass Ivory And Strings.wav
Пиковый уровень 25.0 %
CRC теста AB697409
CRC копии AB697409
Копирование завершено
Ошибок не произошло
Конец отчёта
Диск полностью подготовлен для записи на болванку. Проверено лично мной. Всем приятного прослушивания!

Все о Многоканальной музыке(DVD-Audio, DTS-CD) на Rutracker.org
Все мои раздачи
Download
Для скачивания .torrent файлов необходима регистрация
Сайт не распространяет и не хранит электронные версии произведений, а лишь предоставляет доступ к создаваемому пользователями каталогу ссылок на торрент-файлы, которые содержат только списки хеш-сумм
[Профиль]  [ЛС] 

newstas

Стаж: 10 лет 5 месяцев

Сообщений: 643


newstas · 21-Мар-10 03:46 (спустя 6 дней, ред. 21-Мар-10 11:18)

[Цитировать] 

Это трансфер с Q8
Могу помочь с раздачей
[Профиль]  [ЛС] 

enty

Стаж: 9 лет 8 месяцев

Сообщений: 11


enty · 15-Дек-13 17:35 (спустя 3 года 8 месяцев)

[Цитировать] 

Подправьте cue
REM DISCID 8907BB0A
REM COMMENT "ExactAudioCopy v0.99pb5"
REM DATE 1973
PERFORMER "Henry Manchini & Doc Severincen"
TITLE "Brass, Ivory & Strings"
FILE "Henry Mancini & Doc Severinson - Brass Ivory And Strings.wav" WAVE
TRACK 01 AUDIO
TITLE "Theme For Doc"
PERFORMER "Henry Manchini & Doc Severincen"
INDEX 01 00:00:00
TRACK 02 AUDIO
TITLE "Ben"
PERFORMER "Henry Manchini & Doc Severincen"
INDEX 01 03:10:68
TRACK 03 AUDIO
TITLE "Help Me Make It Through The Night"
PERFORMER "Henry Manchini & Doc Severincen"
INDEX 01 06:08:49
TRACK 04 AUDIO
TITLE "'Round Midnight"
PERFORMER "Henry Manchini & Doc Severincen"
INDEX 01 10:12:16
TRACK 05 AUDIO
TITLE "Without You"
PERFORMER "Henry Manchini & Doc Severincen"
INDEX 01 13:04:67
TRACK 06 AUDIO
TITLE "Make It With You"
PERFORMER "Henry Manchini & Doc Severincen"
INDEX 01 16:19:23
TRACK 07 AUDIO
TITLE "Lover Man"
PERFORMER "Henry Manchini & Doc Severincen"
INDEX 01 19:48:43
TRACK 08 AUDIO
TITLE "Wave"
PERFORMER "Henry Manchini & Doc Severincen"
INDEX 01 23:29:05
TRACK 09 AUDIO
TITLE "Love Theme For Laura"
PERFORMER "Henry Manchini & Doc Severincen"
INDEX 01 26:35:68
TRACK 10 AUDIO
TITLE "I Can't Get Started"
PERFORMER "Henry Manchini & Doc Severincen"
INDEX 01 29:36:31
[Профиль]  [ЛС] 

radioprokop

Стаж: 9 лет 1 месяц

Сообщений: 119

radioprokop · 24-Мар-16 17:22 (спустя 2 года 3 месяца, ред. 27-Мар-16 09:51)

[Цитировать] 

Всем доброго времени!
Благодарю за замечательную раздачу!!!
[Профиль]  [ЛС] 
 
Ответить
Loading...
Error