(Funky jazz, fusion) The Dave Pike Set - Got The Feelin' - 1969/2007, FLAC (tracks) lossless

Страницы:  1

Ответить
Автор
Сообщение

moxnopopka

Колония прокаженных

Стаж: 11 лет

Сообщений: 1755

moxnopopka · 30-Мар-11 13:47 (7 лет 6 месяцев назад, ред. 30-Мар-11 13:54)

The Dave Pike Set / Got The Feelin'
Жанр: Funky jazz, fusion
Страна-производитель диска: US
Год издания диска: 1969/2007
Издатель (лейбл): Disques Wagram
Номер по каталогу: WGR001
Страна: US
Аудио кодек: FLAC (*.flac)
Тип рипа: tracks
Битрейт аудио: lossless
Продолжительность: 30m
Источник (релизер): wata
Наличие сканов в содержимом раздачи: нет
Треклист:
1 Got The Feelin' 2:45
Written By - J. Brown
2 Spooky 2:20
Written By - Sharpe-Middlebrooks-Barrier-cobb.
3 Shady Street 2:40
Written By - Joop Scholten
4 You Got It Made 2:15
Written By - Porter-Hayes
5 Brown's Hometown 2:40
Written By - Joop Scholten
6 Do You Know The Way To San Jose 3:00
Written By - Bacharach-David
7 El-Die-Bie! 3:15
Written By - Joob Scholten
8 After A Moment's Reflection 2:30
Written By - Rob Franken
9 No Sweat 2:15
Written By - Joob Scholten
10 Bacon Fat 2:30
Written By - Dave Pike
11 Middle Earth Herd 2:15
Written By - Dave Pike, Raoul Dohmen
12 Which Direction 2:15
Written By - Joop Scholten
Лог создания рипа
Exact Audio Copy V0.99 prebeta 4 from 23. January 2008
EAC extraction logfile from 5. August 2008, 20:54
The Dave Pike Set / Got The Feelin'
Used drive : PLEXTOR DVDR PX-716A Adapter: 4 ID: 2
Read mode : Secure
Utilize accurate stream : Yes
Defeat audio cache : Yes
Make use of C2 pointers : Yes
Read offset correction : 30
Overread into Lead-In and Lead-Out : No
Fill up missing offset samples with silence : Yes
Delete leading and trailing silent blocks : Yes
Null samples used in CRC calculations : No
Used interface : Native Win32 interface for Win NT & 2000
Gap handling : Not detected, thus appended to previous track
Used output format : User Defined Encoder
Selected bitrate : 768 kBit/s
Quality : High
Add ID3 tag : No
Command line compressor : C:\Program Files\Exact Audio Copy\FLAC\FLAC.EXE
Additional command line options : -6 -V -T "ARTIST=%a" -T "TITLE=%t" -T "ALBUM=%g" -T "DATE=%y" -T "TRACKNUMBER=%n" -T "GENRE=%m" -T "COMMENT=%e" %s -o %d
TOC of the extracted CD
Track | Start | Length | Start sector | End sector
---------------------------------------------------------
1 | 0:00.00 | 2:27.36 | 0 | 11060
2 | 2:27.36 | 2:30.44 | 11061 | 22354
3 | 4:58.05 | 2:47.21 | 22355 | 34900
4 | 7:45.26 | 2:05.53 | 34901 | 44328
5 | 9:51.04 | 2:47.18 | 44329 | 56871
6 | 12:38.22 | 2:24.47 | 56872 | 67718
7 | 15:02.69 | 3:13.07 | 67719 | 82200
8 | 18:16.01 | 2:35.12 | 82201 | 93837
9 | 20:51.13 | 2:14.08 | 93838 | 103895
10 | 23:05.21 | 2:25.33 | 103896 | 114803
11 | 25:30.54 | 2:25.03 | 114804 | 125681
12 | 27:55.57 | 2:13.59 | 125682 | 135715
Track 1
Filename C:\Documents and Settings\Intel\My Documents\My Music\01. The Dave Pike Set - Got The Feelin'.wav
Peak level 99.9 %
Track quality 100.0 %
Copy CRC C71F902C
Copy OK
Track 2
Filename C:\Documents and Settings\Intel\My Documents\My Music\02. The Dave Pike Set - Spooky.wav
Peak level 99.9 %
Track quality 100.0 %
Copy CRC E21FDA3D
Copy OK
Track 3
Filename C:\Documents and Settings\Intel\My Documents\My Music\03. The Dave Pike Set - Shady Street.wav
Peak level 99.9 %
Track quality 100.0 %
Copy CRC 8F29A6DA
Copy OK
Track 4
Filename C:\Documents and Settings\Intel\My Documents\My Music\04. The Dave Pike Set - You Got It Made.wav
Peak level 100.0 %
Track quality 100.0 %
Copy CRC ADB33BA8
Copy OK
Track 5
Filename C:\Documents and Settings\Intel\My Documents\My Music\05. The Dave Pike Set - Brown's Hometown.wav
Peak level 100.0 %
Track quality 100.0 %
Copy CRC 862820FF
Copy OK
Track 6
Filename C:\Documents and Settings\Intel\My Documents\My Music\06. The Dave Pike Set - Do You Know The Way To San Jose.wav
Peak level 100.0 %
Track quality 100.0 %
Copy CRC A7B127DD
Copy OK
Track 7
Filename C:\Documents and Settings\Intel\My Documents\My Music\07. The Dave Pike Set - El-Die-Bie!.wav
Peak level 100.0 %
Track quality 100.0 %
Copy CRC 2EBB42D6
Copy OK
Track 8
Filename C:\Documents and Settings\Intel\My Documents\My Music\08. The Dave Pike Set - After A Moment's Reflection.wav
Peak level 99.9 %
Track quality 100.0 %
Copy CRC C67783E3
Copy OK
Track 9
Filename C:\Documents and Settings\Intel\My Documents\My Music\09. The Dave Pike Set - No Sweat.wav
Peak level 99.9 %
Track quality 100.0 %
Copy CRC 7DF23E15
Copy OK
Track 10
Filename C:\Documents and Settings\Intel\My Documents\My Music\10. The Dave Pike Set - Bacon Fat.wav
Peak level 99.9 %
Track quality 100.0 %
Copy CRC 0279B9C3
Copy OK
Track 11
Filename C:\Documents and Settings\Intel\My Documents\My Music\11. The Dave Pike Set - Middle Earth Herd.wav
Peak level 100.0 %
Track quality 99.8 %
Copy CRC 02A7AF3E
Copy OK
Track 12
Filename C:\Documents and Settings\Intel\My Documents\My Music\12. The Dave Pike Set - Which Direction.wav
Peak level 99.9 %
Track quality 100.0 %
Copy CRC 2DCB534B
Copy OK
No errors occurred
End of status report
Bass - Ruud Jacobs
Drums - Louis De By*
Guitar - Joop Scholten
Organ - Rob Franken
Producer - Dave Pike
Vibraphone - Dave Pike
Download
Для скачивания .torrent файлов необходима регистрация
Сайт не распространяет и не хранит электронные версии произведений, а лишь предоставляет доступ к создаваемому пользователями каталогу ссылок на торрент-файлы, которые содержат только списки хеш-сумм
[Профиль]  [ЛС] 

deepofrain

VIP (Заслуженный)

Стаж: 11 лет 4 месяца

Сообщений: 4889

deepofrain · 30-Мар-11 15:01 (спустя 1 час 13 мин., ред. 30-Мар-11 15:01)

[Цитировать] 

1. Тип рипа: tracks
2. Make use of C2 pointers : Yes
сомнительно #
[Профиль]  [ЛС] 

moxnopopka

Колония прокаженных

Стаж: 11 лет

Сообщений: 1755

moxnopopka · 30-Мар-11 18:56 (спустя 3 часа)

[Цитировать] 

deepofrain писал(а):
1. Тип рипа: tracks
2. Make use of C2 pointers : Yes
сомнительно #
да, так и есть. рип не мой.
[Профиль]  [ЛС] 
 
Ответить
Loading...
Error