(Jazz-Rock/Early Fusion) Joe Farrell - Upon This Rock - 2011 (Original. 1974), FLAC (tracks+.cue), lossless

Страницы:  1

Ответить
Автор
Сообщение

funky_cat

Стаж: 9 лет 6 месяцев

Сообщений: 191

funky_cat · 11-Авг-11 13:26 (7 лет 2 месяца назад)

Joe Farrell / Upon This Rock
Жанр: Jazz-Rock/Early Fusion
Страна-производитель диска: USA
Год издания диска: 2011 (Orig. 1974)
Издатель (лейбл): Wounded Bird
Номер по каталогу: WOU 642
Страна: USA
Аудиокодек: FLAC (*.flac)
Тип рипа: tracks+.cue
Битрейт аудио: lossless
Продолжительность: 36:58
Источник (релизер): funky_cat
Наличие сканов в содержимом раздачи: да
Треклист:
1 Weathervane 08:03
2 I Won't Be Back 10:08
3 Upon This Rock 11:57
4 Seven Seas 06:49
Лог создания рипа
X Lossless Decoder version 20110703 (135.1)
XLD extraction logfile from 2011-08-11 13:49:27 +0400
Joe Farrell / Upon This Rock
Used drive : HL-DT-ST DVDRW GS23N (revision SB00)
Ripper mode : CDParanoia III 10.2
Disable audio cache : OK for the drive with a cache less than 2750KiB
Make use of C2 pointers : NO
Read offset correction : 667
Max retry count : 10
Gap status : Analyzed, Appended
TOC of the extracted CD
Track | Start | Length | Start sector | End sector
---------------------------------------------------------
1 | 00:00:00 | 08:03:00 | 0 | 36224
2 | 08:03:00 | 10:08:30 | 36225 | 81854
3 | 18:11:30 | 11:57:45 | 81855 | 135674
4 | 30:09:00 | 06:49:00 | 135675 | 166349
AccurateRip Summary
Disc not found in AccurateRip DB.
All Tracks
Album gain : -10.08 dB
Peak : 1.000000
Statistics
Read error : 0
Skipped (treated as error) : 0
Edge jitter error (maybe fixed) : 0
Atom jitter error (maybe fixed) : 0
Drift error (maybe fixed) : 0
Dropped bytes error (maybe fixed) : 0
Duplicated bytes error (maybe fixed) : 0
Track 01
Filename : /Users/olegbelov/Downloads/Joe Farrell - Upon This Rock (1974)/01 - Weathervane.flac
Pre-gap length : 00:02:00
Track gain : -9.89 dB
Peak : 0.997009
CRC32 hash (test run) : AC57A27A
CRC32 hash : AC57A27A
CRC32 hash (skip zero) : DC70CDFC
AccurateRip signature : 82A2CBBD
->Track not present in AccurateRip database.
Statistics
Read error : 0
Skipped (treated as error) : 0
Edge jitter error (maybe fixed) : 0
Atom jitter error (maybe fixed) : 0
Drift error (maybe fixed) : 0
Dropped bytes error (maybe fixed) : 0
Duplicated bytes error (maybe fixed) : 0
Inconsistency in error sectors : 0
Track 02
Filename : /Users/olegbelov/Downloads/Joe Farrell - Upon This Rock (1974)/02 - I Won't Be Back.flac
Track gain : -7.82 dB
Peak : 1.000000
CRC32 hash (test run) : F208BDF1
CRC32 hash : F208BDF1
CRC32 hash (skip zero) : 6B4C14BB
AccurateRip signature : 003CD426
->Track not present in AccurateRip database.
Statistics
Read error : 0
Skipped (treated as error) : 0
Edge jitter error (maybe fixed) : 0
Atom jitter error (maybe fixed) : 0
Drift error (maybe fixed) : 0
Dropped bytes error (maybe fixed) : 0
Duplicated bytes error (maybe fixed) : 0
Inconsistency in error sectors : 0
Track 03
Filename : /Users/olegbelov/Downloads/Joe Farrell - Upon This Rock (1974)/03 - Upon This Rock.flac
Track gain : -10.71 dB
Peak : 0.997131
CRC32 hash (test run) : 5CB0D187
CRC32 hash : 5CB0D187
CRC32 hash (skip zero) : 9FBBE272
AccurateRip signature : 25AF0CF6
->Track not present in AccurateRip database.
Statistics
Read error : 0
Skipped (treated as error) : 0
Edge jitter error (maybe fixed) : 0
Atom jitter error (maybe fixed) : 0
Drift error (maybe fixed) : 0
Dropped bytes error (maybe fixed) : 0
Duplicated bytes error (maybe fixed) : 0
Inconsistency in error sectors : 0
Track 04
Filename : /Users/olegbelov/Downloads/Joe Farrell - Upon This Rock (1974)/04 - Seven Seas.flac
Track gain : -9.75 dB
Peak : 1.000000
CRC32 hash (test run) : 7146BA86
CRC32 hash : 7146BA86
CRC32 hash (skip zero) : FCAACE74
AccurateRip signature : DD1F3E6C
->Track not present in AccurateRip database.
Statistics
Read error : 0
Skipped (treated as error) : 0
Edge jitter error (maybe fixed) : 0
Atom jitter error (maybe fixed) : 0
Drift error (maybe fixed) : 0
Dropped bytes error (maybe fixed) : 0
Duplicated bytes error (maybe fixed) : 0
Inconsistency in error sectors : 0
No errors occurred
End of status report
Содержание индексной карты (.CUE)
TITLE "Upon This Rock"
PERFORMER "Joe Farrell"
REM GENRE "Jazz-Rock"
REM DATE "1974"
REM DISCNUMBER 1
REM TOTALDISCS 1
REM DISCID 2B08AA04
REM REPLAYGAIN_ALBUM_GAIN -10.08 dB
REM REPLAYGAIN_ALBUM_PEAK 1.000000
FILE "01 - Weathervane.flac" WAVE
TRACK 01 AUDIO
TITLE "Weathervane"
REM REPLAYGAIN_TRACK_GAIN -9.89 dB
REM REPLAYGAIN_TRACK_PEAK 0.997009
INDEX 01 00:00:00
FILE "02 - I Won't Be Back.flac" WAVE
TRACK 02 AUDIO
TITLE "I Won't Be Back"
REM REPLAYGAIN_TRACK_GAIN -7.82 dB
REM REPLAYGAIN_TRACK_PEAK 1.000000
INDEX 01 00:00:00
FILE "03 - Upon This Rock.flac" WAVE
TRACK 03 AUDIO
TITLE "Upon This Rock"
REM REPLAYGAIN_TRACK_GAIN -10.71 dB
REM REPLAYGAIN_TRACK_PEAK 0.997131
INDEX 01 00:00:00
FILE "04 - Seven Seas.flac" WAVE
TRACK 04 AUDIO
TITLE "Seven Seas"
REM REPLAYGAIN_TRACK_GAIN -9.75 dB
REM REPLAYGAIN_TRACK_PEAK 1.000000
INDEX 01 00:00:00
Состав
Joe Farrell - tenor & soprano sax, flute
Joe Beck - guitar
Herb Bushler - bass
Jim Madison - drums
Herbie Hancock - piano on track 2
Steve Gadd - drums on track 2
Don Alias - congas on track 2
Download
Для скачивания .torrent файлов необходима регистрация
Сайт не распространяет и не хранит электронные версии произведений, а лишь предоставляет доступ к создаваемому пользователями каталогу ссылок на торрент-файлы, которые содержат только списки хеш-сумм
[Профиль]  [ЛС] 
 
Ответить
Loading...
Error