Апокалипсис: Вторая Мировая война. Крупнейшие десантные операции (5-я серия из 6) / Apocalypse: World War II. The Great Landings (Изабель Кларк) [2009, Военная история, Документальный, Хроника, HDTV 1080i]

Страницы:  1

Ответить
Автор
Сообщение

dean10

Top Seed 06* 1280r

Стаж: 7 лет 11 месяцев

Сообщений: 5053

dean10 · 30-Сен-11 16:09 (6 лет 2 месяца назад, ред. 07-Дек-11 22:14)

Апокалипсис: Вторая Мировая война << Крупнейшие десантные операции >> (5-я серия из 6)/ Apocalypse: The Second World War. The Great Landings
Год выпуска: 2009
Страна: США, Великобритания
Жанр: Военная история, Документальный, Хроника
Продолжительность: 00:46:29
Перевод: Профессиональный (одноголосый)
Русские субтитры: нет
Режиссер: Изабель Кларк, Даниэль Костелл
Описание: Этот уникальный документальный сериал предлагает новый взгляд на историю Второй мировой войны. Редкие архивные кино материалы из разных стран воссоздают не только события в жизни государственных лидеров того времени, но и трагические судьбы обыкновенных солдат и гражданского населения.
5-я серия. Крупнейшие десантные операции
Серия посвящена кампаниям, сыгравшим важную роль в окончании войны, включая высадку войск союзников в Нормандии и высадку десанта США на Сайпан.
Качество: HDTV
Формат: TS
Видео кодек: H.264
Аудио кодек: AC3
Видео: 1920x1080, 16:9, 25 fps, MPEG4 Video (H264), ~ 9 928 kbps
Аудио: Russian: 48 kHz; Dolby AC3 2ch; 448 kbps
MI
General
ID : 1 (0x1)
Complete name : C:05. Крупнейшие десантные операции.ts
Format : MPEG-TS
File size : 3.65 GiB
Duration : 47mn 54s
Overall bit rate : 10.9 Mbps
Video
ID : 1400 (0x578)
Menu ID : 1 (0x1)
Format : AVC
Format/Info : Advanced Video Codec
Format profile : [email protected]
Format settings, CABAC : Yes
Format settings, ReFrames : 4 frames
Codec ID : 27
Duration : 47mn 54s
Bit rate : 9 928 Kbps
Width : 1 920 pixels
Height : 1 080 pixels
Display aspect ratio : 16:9
Frame rate : 25.000 fps
Standard : Component
Color space : YUV
Chroma subsampling : 4:2:0
Bit depth : 8 bits
Scan type : Interlaced
Scan order : Top Field First
Bits/(Pixel*Frame) : 0.192
Stream size : 3.32 GiB (91%)
Color primaries : BT.709-5, BT.1361, IEC 61966-2-4, SMPTE RP177
Transfer characteristics : BT.709-5, BT.1361
Matrix coefficients : BT.709-5, BT.1361, IEC 61966-2-4 709, SMPTE RP177
Audio
ID : 1420 (0x58C)
Menu ID : 1 (0x1)
Format : AC-3
Format/Info : Audio Coding 3
Mode extension : CM (complete main)
Codec ID : 6
Duration : 47mn 54s
Bit rate mode : Constant
Bit rate : 448 Kbps
Channel(s) : 6 channels
Channel positions : Front: L C R, Side: L R, LFE
Sampling rate : 48.0 KHz
Bit depth : 16 bits
Compression mode : Lossy
Stream size : 154 MiB (4%)
Language : Russian
Скриншоты
Download
Для скачивания .torrent файлов необходима регистрация
Сайт не распространяет и не хранит электронные версии произведений, а лишь предоставляет доступ к создаваемому пользователями каталогу ссылок на торрент-файлы, которые содержат только списки хеш-сумм
[Профиль]  [ЛС] 
 
Ответить
Loading...
Error