Monty Alexander Trio - XIV Fesival de Jazz de San Javier [2011, Jazz, TVRip]

Страницы:  1

Ответить
Автор
Сообщение

kr.al

Top Bonus 03* 1TB

Стаж: 9 лет 10 месяцев

Сообщений: 199

kr.al · 04-Окт-11 12:45 (6 лет 8 месяцев назад, ред. 07-Окт-11 12:23)

[Цитировать] 

Monty Alexander Trio - XIV Fesival de Jazz de San Javier Жанр: Jazz
Продолжительность: 01:14:40
Год выпуска: 2011 г.
Треклист:
01 Funji Mama
02 Come fly with me
03 Renewal
04 Running away
05 No woman, no cry
06 Hope
07 Love notes
08 Sweet Georgia Brown
Доп. информация:
Monty Alexander - Piano
Hassan Shakur - Bass
Obed Calvaire - Drums
Источник: скачано из сети
Качество: TVRip
Контейнер: MP4
Видео кодек: H.264
Аудио кодек: AC3
Видео: AVC , 720x416 , 1500 Кбит/сек , 29,675 кадров/сек 0.169
Аудио: AAC , 192 Кбит/сек , 44 , 2ch
Скриншоты
MediaInfo
Общее
Полное имя : C:\M0nty\Monty Alexander Trio - Fesival de Jazz San Javier.mp4
Формат : MPEG-4
Профиль формата : Base Media / Version 2
Идентификатор кодека : mp42
Размер файла : 906 Мбайт
Продолжительность : 1 ч. 14 м.
Режим общего битрейта : Переменный
Общий поток : 1697 Кбит/сек
Дата кодирования : UTC 2011-10-04 02:14:47
Дата пометки : UTC 2011-10-04 04:32:18
Программа кодирования : HandBrake 0.9.5 2011010300
Видео
Идентификатор : 1
Формат : AVC
Формат/Информация : Advanced Video Codec
Профиль формата : [email protected]
Параметр CABAC формата : Да
Параметр ReFrames формата : 4 кадра
Идентификатор кодека : avc1
Идентификатор кодека/Информация : Advanced Video Coding
Продолжительность : 1 ч. 14 м.
Вид битрейта : Переменный
Битрейт : 1500 Кбит/сек
Ширина : 720 пикселей
Высота : 416 пикселей
Соотношение сторон : 16:9
Режим частоты кадров : Переменный
Частота кадров : 29,675 кадров/сек
Минимальная частота кадров : 2,000 кадра/сек
Максимальная частота кадров : 30,000 кадров/сек
Цветовое пространство : YUV
Субдискретизация насыщенности : 4:2:0
Битовая глубина : 8 бит
Тип развёртки : Прогрессивная
Бит/(Пиксели*Кадры) : 0.169
Размер потока : 801 Мбайт (88%)
Библиотека кодирования : x264 core 112
Настройки программы : cabac=1 / ref=3 / deblock=1:0:0 / analyse=0x3:0x113 / me=hex / subme=7 / psy=1 / psy_rd=1.00:0.00 / mixed_ref=1 / me_range=16 / chroma_me=1 / trellis=1 / 8x8dct=1 / cqm=0 / deadzone=21,11 / fast_pskip=1 / chroma_qp_offset=-2 / threads=3 / sliced_threads=0 / nr=0 / decimate=1 / interlaced=0 / constrained_intra=0 / bframes=3 / b_pyramid=2 / b_adapt=2 / b_bias=0 / direct=1 / weightb=1 / open_gop=0 / weightp=2 / keyint=300 / keyint_min=29 / scenecut=40 / intra_refresh=0 / rc_lookahead=50 / rc=2pass / mbtree=1 / bitrate=1500 / ratetol=1.0 / qcomp=0.60 / qpmin=3 / qpmax=51 / qpstep=4 / cplxblur=20.0 / qblur=0.5 / ip_ratio=1.40 / aq=1:1.00
Дата кодирования : UTC 2011-10-04 02:14:47
Дата пометки : UTC 2011-10-04 04:32:18
Основные цвета : BT.601-6 525, BT.1358 525, BT.1700 NTSC, SMPTE 170M
Характеристики трансфера : BT.709-5, BT.1361
Коэффициенты матрицы : BT.601-6 525, BT.1358 525, BT.1700 NTSC, SMPTE 170M
Аудио
Идентификатор : 2
Формат : AAC
Формат/Информация : Advanced Audio Codec
Профиль формата : LC
Идентификатор кодека : 40
Продолжительность : 1 ч. 14 м.
Вид битрейта : Переменный
Битрейт : 192 Кбит/сек
Максимальный битрейт : 309 Кбит/сек
Каналы : 2 канала
Расположение каналов : Front: L R
Частота : 44,1 КГц
Метод сжатия : С потерями
Размер потока : 103 Мбайт (11%)
Дата кодирования : UTC 2011-10-04 02:14:47
Дата пометки : UTC 2011-10-04 04:32:17
[Профиль]  [ЛС] 

Scorpman

VIP (Заслуженный)

Стаж: 10 лет 9 месяцев

Сообщений: 3226

Scorpman · 07-Окт-11 09:06 (спустя 2 дня 20 часов)

[Цитировать] 

kr.al писал(а):
Треклист: Отсутствует
Посмотрите тут Monty Alexander Trio - XIV Festival Internacional de Jazz San Javier [2011 г., Post-Bop/ Piano Jazz, SATRip] , подходит?
[Профиль]  [ЛС] 

bot · 31-Дек-17 23:30 (спустя 6 лет 2 месяца)

Тема была перенесена из форума Джаз и Блюз (Видео) в форум Архив
A$taroth
 
 
Ответить
Loading...
Error