Monty Alexander Trio - XIV Festival Internacional de Jazz San Javier [2011, Post-Bop/ Piano Jazz, SATRip]

Страницы:  1

Ответить
Автор
Сообщение

(Y)игрек

Хранитель

Стаж: 9 лет 1 месяц

Сообщений: 1379

(Y)игрек · 04-Окт-11 18:13 (6 лет 9 месяцев назад, ред. 04-Окт-11 19:23)

Monty Alexander Trio
2th July 2011 - XIV Festival Internacional de Jazz San Javier

Страна: Jamaica
Жанр: Post-Bop/ Piano Jazz
Продолжительность: 1:14:40
Год выпуска: 2011 г.
Лейбл: RTVE-2
Описание:
Artists: Monty Alexander Trio
Venue: Auditorio Parque Almansa, San Javier, Murcia, Spain
Date: 2 July, 2011
Треклист:
01 Funji Mama
02 Come fly with me
03 Renewal
04 Running away
05 No woman, no cry
06 Hope
07 Love notes
08 Sweet Georgia Brown

Доп. информация:
Monty Alexander (piano)
Hassan Shakur (bass)
Obed Calvaire (drums)

Разбивка на главы по трекам: есть
Качество : SATRip
Формат: DVD video
Видео кодек: MPEG2
Аудио кодек: AC3
Видео: MPEG-2, 720x576 (PAL, 16:9), 8000 kbit/s
Аудио: Dolby AC3, 2.0, 48 kHz, 192 kbit/s
DVDinfo
Формат                           : MPEG-PS
Размер файла : 1024 Мбайт
Продолжительность : 20 м.
Общий поток : 6969 Кбит/сек
Библиотека кодирования : Created by Nero
Видео
Идентификатор : 224 (0xE0)
Формат : MPEG Video
Версия формата : Version 2
Профиль формата : [email protected]
Параметр BVOP формата : Да
Параметр матрицы формата : Выборочная
Параметр GOP формата : M=3, N=15
Продолжительность : 20 м.
Вид битрейта : Переменный
Битрейт : 6638 Кбит/сек
Максимальный битрейт : 9641 Кбит/сек
Ширина : 720 пикселей
Высота : 576 пикселей
Соотношение сторон : 16:9
Частота кадров : 25,000 кадров/сек
Стандарт вещания : PAL
Цветовое пространство : YUV
Субдискретизация насыщенности : 4:2:0
Битовая глубина : 8 бит
Тип развёртки : Прогрессивная
Порядок развёртки : Нижнее поле первое
Метод сжатия : С потерями
Бит/(Пиксели*Кадры) : 0.640
Размер потока : 975 Мбайт (95%)
Библиотека кодирования : Created by Nero
Аудио
Идентификатор : 189 (0xBD)-128 (0x80)
Формат : AC-3
Формат/Информация : Audio Coding 3
Расширение режима : CM (complete main)
Режим смешивания : DVD-Video
Продолжительность : 20 м.
Вид битрейта : Постоянный
Битрейт : 192 Кбит/сек
Каналы : 2 канала
Расположение каналов : Front: L R
Частота : 48,0 КГц
Битовая глубина : 16 бит
Метод сжатия : С потерями
Задержка видео : 16 мс.
Размер потока : 28,2 Мбайт (3%)
Скриншоты меню
Скриншоты
Download
Для скачивания .torrent файлов необходима регистрация
Сайт не распространяет и не хранит электронные версии произведений, а лишь предоставляет доступ к создаваемому пользователями каталогу ссылок на торрент-файлы, которые содержат только списки хеш-сумм
[Профиль]  [ЛС] 

jikia

Стаж: 8 лет 10 месяцев

Сообщений: 50

jikia · 05-Окт-11 21:06 (спустя 1 день 2 часа)

[Цитировать] 

Качество никуда не годится...Полосы идут,пр движении...Жаль,концерт хороший...
[Профиль]  [ЛС] 

(Y)игрек

Хранитель

Стаж: 9 лет 1 месяц

Сообщений: 1379

(Y)игрек · 06-Окт-11 11:43 (спустя 14 часов)

[Цитировать] 

А вот и обложка DVD
cover
[Профиль]  [ЛС] 

quartet

Стаж: 5 лет 9 месяцев

Сообщений: 10


quartet · 01-Июн-17 20:57 (спустя 5 лет 7 месяцев)

[Цитировать] 

ау....люди......концертик некто раздать не хочет.......
[Профиль]  [ЛС] 
 
Ответить
Loading...
Error