Чебурашка и Крокодил Гена (Крокодил Гена; Чебурашка; Шапокляк; Чебурашка идет в школу; Варежка) (Роман Качанов) [1967-1983 СССР, мультфильм, короткометражка, семейный, BDRip 720p] Original Rus

Страницы:  1

Ответить
Автор
Сообщение

karasoft

Стаж: 9 лет 9 месяцев

Сообщений: 97

karasoft · 06-Ноя-11 16:49 (6 лет 7 месяцев назад, ред. 13-Ноя-11 21:41)

Чебурашка и Крокодил Гена
Сборник мультфильмов
Страна: СССР
Жанр: мультфильм, короткометражка, семейный
Продолжительность: 01:16:37
Год выпуска: 1967-1983
Режиссёр: Роман Качанов
Роли озвучивали: Василий Ливанов, Клара Румянова, В. Раутбарт, Владимир Кенигсон, Т. Дмитриева, Владимир Ферапонтов, И. Мазинг, Юрий Андреев, Георгий Бурков
Описание: Добрый крокодил Гена работал в зоопарке... крокодилом, а по вечерам очень тосковал от одиночества, пока не дал объявление о том, что ищет друзей. И друзья появились - девочка с собачкой и Чебурашка - неизвестное науке создание, но зато доброе и милое. И вскоре начались у них удивительные приключения, о которых поведал в своей сказке замечательный детский писатель Эдуард Успенский. Также в этом сборнике вы найдете еще один нежный и трогательный мультфильм "Варежка", созданный по сценарию Жанны Витензон. Детская мечта, фантазия и реальная действительность благодаря таланту мультипликаторов органично переплелись в художественном произведении.
В сборник вошли мультфильмы:
1. Крокодил Гена (1969)
Описание: Крокодил Гена работает в зоопарке — крокодилом. Каждый день вечером он возвращается домой в свою одинокую квартиру. Наконец ему надоедает играть самому с собой в шахматы и Гена решает завести себе друзей. На объявления расклеенные по городу откликаются звери и люди. Первой приходит девочка Галя с бездомным щенком, а вслед за ней Чебурашка…
2. Чебурашка (1972)
Описание: У крокодила Гены день рождения. Его поздравляет Чебурашка и дарит ему подарок. Дальше друзья занимаются тем, что пытаются построить детскую площадку и помогают пионерам собирать металлолом.
3. Шапокляк (1974)
Описание: Крокодил Гена и Чебурашка отправляются на морской отдых на поезде. Шапокляк крадёт их билеты, и друзей высаживают на первой же станции. Дальше друзья совместно борются с туристами-браконьерами и за экологическую чистоту лесов Подмосковья.
4. Чебурашка идёт в школу (1983)
Описание: Чебурашка не встретил Крокодила Гену в аэропорту. Оказывается, Чебурашка не владеет грамотой и не смог прочитать телеграмму Гены. Выход один — нужно идти в школу, тем более что завтра как раз 1 сентября. Школа же закрыта на ремонт, который никак не могут закончить.
5. Варежка (1967)
Описание: Девочка очень мечтает завести себе собаку, но строгая и занятая мама не разрешает ей этого. Тогда девочка начинает играть со своей вязаной варежкой, представляя, будто это щенок. Девочка так сильно хочет иметь собаку, что варежка в её мечтах превращается в настоящего щенка, сохраняя при этом «вязаную» фактуру и узор из трёх чёрных шашечек на спине.
Обрадованная девочка ведёт своего нового друга на выставку собак, на которой четвероногие участники участвуют в соревновании. Собачка-«варежка» первой успевает отыскать палку и устремляется к финишу, но на полосе препятствий цепляется петелькой за гвоздь и в итоге призёром становится другой пёс, а вязаный щенок теряет свою форму и снова превращается в варежку. Видя горе девочки от потери друга, занятая мама оставляет книгу и сама берёт у соседей щенка для своей дочери.

Семпл: http://multi-up.com/590667
Внимание!

Качество: BDRip 720p
Формат: MKV
Видео: MPEG-4 AVC, 970x720, 25 fps, 5 Mbps
Аудио: AC3, 48 kHz, 6 ch, 448 kbps
Подробные технические данные
Крокодил Гена
General
Unique ID : 223955843247536355547442306503096440692 (0xA87C5393BD96F8269A582A99E1749774)
Format : Matroska
File size : 727 MiB
Duration : 19mn 32s
Overall bit rate : 5 205 Kbps
Encoded date : UTC 2011-11-13 18:28:58
Writing application : mkvmerge v4.8.0 ('I Got The...') сборка от May 24 2011 03:12:58
Writing library : libebml v1.2.0 + libmatroska v1.1.0
Video #1
ID : 1
Format : AVC
Format/Info : Advanced Video Codec
Format profile : [email protected]
Format settings, CABAC : Yes
Format settings, ReFrames : 8 frames
Format settings, GOP : M=1, N=28
Codec ID : V_MPEG4/ISO/AVC
Duration : 19mn 32s
Bit rate : 4 653 Kbps
Nominal bit rate : 4 999 Kbps
Width : 970 pixels
Height : 720 pixels
Display aspect ratio : 4:3
Frame rate : 25.000 fps
Color space : YUV
Chroma subsampling : 4:2:0
Bit depth : 8 bits
Scan type : Progressive
Bits/(Pixel*Frame) : 0.266
Stream size : 650 MiB (89%)
Writing library : x264 core 119 r2106 07efeb4
Encoding settings : cabac=1 / ref=8 / deblock=1:-1:-1 / analyse=0x3:0x133 / me=umh / subme=9 / psy=1 / psy_rd=0.80:0.15 / mixed_ref=1 / me_range=32 / chroma_me=1 / trellis=2 / 8x8dct=1 / cqm=0 / deadzone=21,11 / fast_pskip=0 / chroma_qp_offset=-3 / threads=6 / sliced_threads=0 / nr=0 / decimate=0 / interlaced=0 / bluray_compat=0 / constrained_intra=0 / bframes=6 / b_pyramid=2 / b_adapt=2 / b_bias=0 / direct=1 / weightb=1 / open_gop=0 / weightp=2 / keyint=250 / keyint_min=23 / scenecut=40 / intra_refresh=0 / rc_lookahead=60 / rc=2pass / mbtree=1 / bitrate=4999 / ratetol=1.0 / qcomp=0.75 / qpmin=10 / qpmax=51 / qpstep=4 / cplxblur=20.0 / qblur=0.5 / ip_ratio=1.40 / aq=1:0.80
Language : English
Audio #2
ID : 2
Format : AC-3
Format/Info : Audio Coding 3
Mode extension : CM (complete main)
Codec ID : A_AC3
Duration : 19mn 32s
Bit rate mode : Constant
Bit rate : 448 Kbps
Channel(s) : 6 channels
Channel positions : Front: L C R, Side: L R, LFE
Sampling rate : 48.0 KHz
Bit depth : 16 bits
Compression mode : Lossy
Stream size : 62.6 MiB (9%)
Language : Russian
Чебурашка
General
Unique ID : 218216875760481957635746156196673284280 (0xA42B0AA259C3670D9F6DE071FBD6E8B8)
Format : Matroska
File size : 721 MiB
Duration : 18mn 56s
Overall bit rate : 5 323 Kbps
Encoded date : UTC 2011-11-13 18:29:12
Writing application : mkvmerge v4.8.0 ('I Got The...') сборка от May 24 2011 03:12:58
Writing library : libebml v1.2.0 + libmatroska v1.1.0
Video #1
ID : 1
Format : AVC
Format/Info : Advanced Video Codec
Format profile : [email protected]
Format settings, CABAC : Yes
Format settings, ReFrames : 8 frames
Codec ID : V_MPEG4/ISO/AVC
Duration : 18mn 56s
Bit rate : 4 769 Kbps
Width : 970 pixels
Height : 720 pixels
Display aspect ratio : 4:3
Frame rate : 25.000 fps
Color space : YUV
Chroma subsampling : 4:2:0
Bit depth : 8 bits
Scan type : Progressive
Bits/(Pixel*Frame) : 0.273
Stream size : 646 MiB (90%)
Language : English
Audio #2
ID : 2
Format : AC-3
Format/Info : Audio Coding 3
Mode extension : CM (complete main)
Codec ID : A_AC3
Duration : 18mn 56s
Bit rate mode : Constant
Bit rate : 448 Kbps
Channel(s) : 6 channels
Channel positions : Front: L C R, Side: L R, LFE
Sampling rate : 48.0 KHz
Bit depth : 16 bits
Compression mode : Lossy
Stream size : 60.7 MiB (8%)
Language : Russian
Шапокляк
General
Unique ID : 229316960149113023678877322006518701523 (0xAC84D70C408D8C2694E04CBAE4661DD3)
Format : Matroska
File size : 812 MiB
Duration : 18mn 56s
Overall bit rate : 5 992 Kbps
Encoded date : UTC 2011-11-13 18:29:30
Writing application : mkvmerge v4.8.0 ('I Got The...') сборка от May 24 2011 03:12:58
Writing library : libebml v1.2.0 + libmatroska v1.1.0
Video #1
ID : 1
Format : AVC
Format/Info : Advanced Video Codec
Format profile : [email protected]
Format settings, CABAC : Yes
Format settings, ReFrames : 8 frames
Codec ID : V_MPEG4/ISO/AVC
Duration : 18mn 56s
Bit rate : 5 425 Kbps
Width : 970 pixels
Height : 720 pixels
Display aspect ratio : 4:3
Frame rate : 25.000 fps
Color space : YUV
Chroma subsampling : 4:2:0
Bit depth : 8 bits
Scan type : Progressive
Bits/(Pixel*Frame) : 0.311
Stream size : 735 MiB (91%)
Language : English
Audio #2
ID : 2
Format : AC-3
Format/Info : Audio Coding 3
Mode extension : CM (complete main)
Codec ID : A_AC3
Duration : 18mn 56s
Bit rate mode : Constant
Bit rate : 448 Kbps
Channel(s) : 6 channels
Channel positions : Front: L C R, Side: L R, LFE
Sampling rate : 48.0 KHz
Bit depth : 16 bits
Compression mode : Lossy
Stream size : 60.7 MiB (7%)
Language : Russian
Чебурашка идет в школу
General
Unique ID : 171528898707680463963472713324374949701 (0x810B43A4E5CD5D01B53C0C5CC4827F45)
Format : Matroska
File size : 409 MiB
Duration : 9mn 19s
Overall bit rate : 6 138 Kbps
Encoded date : UTC 2011-11-13 18:29:49
Writing application : mkvmerge v4.8.0 ('I Got The...') сборка от May 24 2011 03:12:58
Writing library : libebml v1.2.0 + libmatroska v1.1.0
Video #1
ID : 1
Format : AVC
Format/Info : Advanced Video Codec
Format profile : [email protected]
Format settings, CABAC : Yes
Format settings, ReFrames : 8 frames
Format settings, GOP : M=5, N=25
Codec ID : V_MPEG4/ISO/AVC
Duration : 9mn 19s
Bit rate : 5 568 Kbps
Width : 970 pixels
Height : 720 pixels
Display aspect ratio : 4:3
Frame rate : 25.000 fps
Color space : YUV
Chroma subsampling : 4:2:0
Bit depth : 8 bits
Scan type : Progressive
Bits/(Pixel*Frame) : 0.319
Stream size : 371 MiB (91%)
Language : English
Audio #2
ID : 2
Format : AC-3
Format/Info : Audio Coding 3
Mode extension : CM (complete main)
Codec ID : A_AC3
Duration : 9mn 19s
Bit rate mode : Constant
Bit rate : 448 Kbps
Channel(s) : 6 channels
Channel positions : Front: L C R, Side: L R, LFE
Sampling rate : 48.0 KHz
Bit depth : 16 bits
Compression mode : Lossy
Stream size : 29.9 MiB (7%)
Language : Russian
Варежка
General
Unique ID : 218469195165055869622371235803243836271 (0xA45BA2F0F915DDC4A140D2DC4D59736F)
Format : Matroska
File size : 316 MiB
Duration : 9mn 52s
Overall bit rate : 4 478 Kbps
Encoded date : UTC 2011-11-13 18:30:03
Writing application : mkvmerge v4.8.0 ('I Got The...') сборка от May 24 2011 03:12:58
Writing library : libebml v1.2.0 + libmatroska v1.1.0
Video #1
ID : 1
Format : AVC
Format/Info : Advanced Video Codec
Format profile : [email protected]
Format settings, CABAC : Yes
Format settings, ReFrames : 8 frames
Codec ID : V_MPEG4/ISO/AVC
Duration : 9mn 52s
Bit rate : 3 941 Kbps
Width : 970 pixels
Height : 720 pixels
Display aspect ratio : 4:3
Frame rate : 25.000 fps
Color space : YUV
Chroma subsampling : 4:2:0
Bit depth : 8 bits
Scan type : Progressive
Bits/(Pixel*Frame) : 0.226
Stream size : 278 MiB (88%)
Language : English
Audio #2
ID : 2
Format : AC-3
Format/Info : Audio Coding 3
Mode extension : CM (complete main)
Codec ID : A_AC3
Duration : 9mn 52s
Bit rate mode : Constant
Bit rate : 448 Kbps
Channel(s) : 6 channels
Channel positions : Front: L C R, Side: L R, LFE
Sampling rate : 48.0 KHz
Bit depth : 16 bits
Compression mode : Lossy
Stream size : 31.6 MiB (10%)
Language : Russian
Скриншоты
Крокодил Гена
Чебурашка
Шапокляк
Чебурашка идет в школу
Варежка
Download
Для скачивания .torrent файлов необходима регистрация
Сайт не распространяет и не хранит электронные версии произведений, а лишь предоставляет доступ к создаваемому пользователями каталогу ссылок на торрент-файлы, которые содержат только списки хеш-сумм
[Профиль]  [ЛС] 

vancouver26

VIP (Заслуженный)

Стаж: 10 лет 7 месяцев

Сообщений: 1025

vancouver26 · 06-Ноя-11 18:21 (спустя 1 час 31 мин., ред. 06-Ноя-11 18:21)

[Цитировать] 

karasoft писал(а):
В файле присутствуют главы, переход по сериям
Это где-то было указано?
Кому-то не нужен мульт "Варежка, а он вынужден будет его скачивать.
Не находите, что если серии изначально были сами по себе, то и в рипе логичнее сделать отдельные серии.
в раздаче БД есть описание, по каким точкам надо было m2ts файл резать, что бы получить на выходе каждую серию отдельно.
[Профиль]  [ЛС] 

vancouver26

VIP (Заслуженный)

Стаж: 10 лет 7 месяцев

Сообщений: 1025

vancouver26 · 06-Ноя-11 19:02 (спустя 40 мин.)

[Цитировать] 

karasoft писал(а):
Если бы я не выложил этот файл, его не было бы еще пол года здесь на трекере
позвольте с этим не согласиться. примеров полно.
[Профиль]  [ЛС] 

rust.am62

Стаж: 7 лет

Сообщений: 66

rust.am62 · 06-Ноя-11 21:06 (спустя 2 часа 3 мин.)

[Цитировать] 

karasoft за труд!!! Детишки мои будут в восторге.........
[Профиль]  [ЛС] 

SergeyVolf

Стаж: 8 лет 1 месяц

Сообщений: 306


SergeyVolf · 10-Ноя-11 04:17 (спустя 3 дня)

[Цитировать] 

Ребята, да это ж обычный апскейл! Куда модераторы смотрят?!
[Профиль]  [ЛС] 

slabalex

Стаж: 9 лет 6 месяцев

Сообщений: 71

slabalex · 11-Ноя-11 22:34 (спустя 1 день 18 часов)

[Цитировать] 

не раздача, а развод. изображение - апскейл, файл не поделен, в общем- подстава
[Профиль]  [ЛС] 

Efiop66

Стаж: 8 лет 8 месяцев

Сообщений: 10


Efiop66 · 11-Ноя-11 22:42 (спустя 8 мин.)

[Цитировать] 

не раздача, а развод. изображение - апскейл, файл не поделен, в общем- подстава
Это точно. За такие вещи в "приличной компании морду бьют".
Модератор - к Вам обращение?!
[Профиль]  [ЛС] 

vancouver26

VIP (Заслуженный)

Стаж: 10 лет 7 месяцев

Сообщений: 1025

vancouver26 · 12-Ноя-11 08:59 (спустя 10 часов, ред. 12-Ноя-11 08:59)

[Цитировать] 

Efiop66
slabalex
SergeyVolf
качество картинки - к производителю исходника, Lizard
Вы выше смотрите, там мой пост есть.
Ну и господа крикуны, если у раздачи по сию пору статус "не проверено", это о чем-то должно вам сказать?
Попрошу впредь не кричать, про апскейл, это, к сожалению, не вина релизера, это вопрос к производителю BD.


Сообщения из этой темы были выделены в отдельный топик Выделено из: Чебурашка и Крокодил Гена (Крокодил Гена; Чебурашка; Шапокляк; Чебурашка идет в... [3807849]
vancouver26
[Профиль]  [ЛС] 

xfiles

RG Мультфильмы

Стаж: 10 лет 7 месяцев

Сообщений: 41327

xfiles · 13-Ноя-11 22:05 (спустя 1 день 13 часов, ред. 13-Ноя-11 22:05)

[Цитировать] 

karasoft
Объясните пожалуйста, почему в спойлерах 5 одинаковых MediaInfo - с одинаковым битрейтом и одинаковой продолжительностью...
Еще интересный момент:
Цитата:
Muxing mode : Header stripping
Проблемы с воспроизведением контейнера MKV, собранного версиями mkvmerge 4.1.0 и выше
Судя по скриншотам, на всех мультфильмах - недокроп по правому краю. -> # сомнительно
[Профиль]  [ЛС] 

Mieville

Стаж: 8 лет 3 месяца

Сообщений: 2


Mieville · 17-Ноя-11 20:17 (спустя 3 дня)

[Цитировать] 

Скажите, пожалуйста, как включить английскую звуковую дорожку?
[Профиль]  [ЛС] 

xfiles

RG Мультфильмы

Стаж: 10 лет 7 месяцев

Сообщений: 41327

xfiles · 17-Ноя-11 20:41 (спустя 23 мин.)

[Цитировать] 

Mieville писал(а):
Скажите, пожалуйста, как включить английскую звуковую дорожку?
1) Заказать английский дубляж.
2) ............
[Профиль]  [ЛС] 

deceased07

Стаж: 8 лет 1 месяц

Сообщений: 38

deceased07 · 07-Дек-11 08:46 (спустя 19 дней)

[Цитировать] 

karasoft
добре дело сотворил Уважаемый
[Профиль]  [ЛС] 

surway

Стаж: 9 лет 9 месяцев

Сообщений: 1


surway · 02-Фев-12 17:19 (спустя 1 месяц 26 дней)

[Цитировать] 

Спасибо! Мультфильм любимый с детства.
[Профиль]  [ЛС] 

barmaleykin1982

Стаж: 7 лет 10 месяцев

Сообщений: 3


barmaleykin1982 · 03-Фев-12 22:52 (спустя 1 день 5 часов)

[Цитировать] 

Спасибо! У меня вопрос почему нет песни Чебурашки? Где он поёт: "Теперь я вместе с Геной, он необыкновенный" и т.д. Откуда эта песня?
[Профиль]  [ЛС] 

Spider_

Стаж: 12 лет 11 месяцев

Сообщений: 5

Spider_ · 26-Мар-12 22:45 (спустя 1 месяц 22 дня)

[Цитировать] 

barmaleykin1982 писал(а):
Спасибо! У меня вопрос почему нет песни Чебурашки? Где он поёт: "Теперь я вместе с Геной, он необыкновенный" и т.д. Откуда эта песня?
Насколько я знаю, данная песня была на пластинке с аудио спектаклем. В мультфильме её не было.
[Профиль]  [ЛС] 

megasuperpuperlexa

Стаж: 7 лет 3 месяца

Сообщений: 145


megasuperpuperlexa · 06-Ноя-12 15:04 (спустя 7 месяцев)

[Цитировать] 

говорят, японцы сняли кукольный мульт (НЕ анимэ) про чебурашку, даже пересняли старое плюс добавили новое. Кто нибудь видел в природе?
[Профиль]  [ЛС] 

Vilson1971

Стаж: 6 лет 2 месяца

Сообщений: 160

Vilson1971 · 27-Ноя-13 10:22 (спустя 1 год)

[Цитировать] 

Японцы купили чебурашку и теперь чебурашка - японец. посмотреть бы на него.
[Профиль]  [ЛС] 

Drug117

Стаж: 8 лет

Сообщений: 197


Drug117 · 12-Дек-13 15:19 (спустя 15 дней)

[Цитировать] 

megasuperpuperlexa писал(а):
56171393говорят, японцы сняли кукольный мульт (НЕ анимэ) про чебурашку, даже пересняли старое плюс добавили новое. Кто нибудь видел в природе?
Присоединяюсь к вопросу. Тоже слышал, и даже видел по ТВ сюжет. Но где сам этот мультик, или хотя бы как он называется - не знаю. Вроде это 2010 год.
[Профиль]  [ЛС] 

Ллиэн

Стаж: 9 лет 7 месяцев

Сообщений: 14

Ллиэн · 03-Мар-17 21:49 (спустя 3 года 2 месяца)

[Цитировать] 

Мне кажется, или в м/ф "Варежка" раньше не было голосов детей на заднем фоне и смеха девочки? Немного режет слух, по моему...
[Профиль]  [ЛС] 

orlovich1971

Стаж: 4 года 6 месяцев

Сообщений: 1261

orlovich1971 · 26-Мар-17 10:08 (спустя 22 дня)

[Цитировать] 

Мультфильмы детства,да и вообще всей жизни.Огромное спасибо!
[Профиль]  [ЛС] 
 
Ответить
Loading...
Error