[TR24][OF] Bob Marley & the Wailers - Legend - 1984/2012 [24bit/192kHz] (Reggae)

Страницы:  1

Ответить
Автор
Сообщение

babaev.v.p

Стаж: 8 лет 3 месяца

Сообщений: 1503


babaev.v.p · 26-Апр-12 14:22 (6 лет 4 месяца назад, ред. 28-Апр-12 01:49)

Bob Marley & the Wailers - Legend
Жанр: Reggae
Год записи: 1984
Год издания: 2012
Издатель (лейбл): Island Records
Аудиокодек: FLAC 24bit 192kHz
Тип рипа: tracks
Продолжительность: 72:04
Треклист:
01. Is This Love (3:50)
02. No Woman No Cry (Live) (7:08)
03. Could You Be Loved (3:57)
04. Three Little Birds (3:00)
05. Buffalo Soldier (4:17)
06. Get Up Stand Up (3:17)*
07. Stir It Up (5:30)
08. Easy Skanking (2:57)
09. One Love / People Get Ready (2:52)
10. I Shot the Sheriff (4:40)*
11. Waiting in Vain (4:16)
12. Redemption Song (3:47)
13. Satisfy My Soul (4:31)
14. Exodus (7:39)
15. Jamming (3:31)
16. Punky Reggae Party (6:52)
*96кГц
Источник: https://www.hdtracks.com/index.php?file=catalogdetail&valbum_code=HX00600753388402
96кГц
Please note that track 6 (Get Up, Stand Up) and track 10 (I Shot the Sheriff) are in 96kHz/24bit. These are bonus tracks that we wanted to make available to our customers, but for which this is the highest resolution available.
Об альбоме
Legend is the definitive multi-platinum collection of greatest hits from Reggae pioneer Bob Marley. The global superstar, one of Rolling Stone’s 100 greatest artists of all time is joined by his extraordinary band, The Wailers. Marley led the Reggae charge with his rich political lyrics and moving beats, forever revolutionizing the music scene and setting the precedence for all musicians to follow. This compilation is one of Billboard’s longest charting albums of all time and was included on Rolling Stone’s 500 greatest albums of all time. Included are the monster hits, “No Woman, No Cry,” “I Shot the Sheriff,” “Get Up, Stand Up,” “Redemption Song,” “Waiting in Vain” and more! The bestselling Reggae album of all time is an essential addition to any music lover’s collection and is now available with pristine sonic clarity.
Reviews:
5 stars out of 5 - "...The definitive hits collection, reggae's all-time best seller." - Q Magazine
"Legend is essential for anyone who appreciates reggae music." - Carmen Varner, Daily Titan
Thanks elysofly
Download
Для скачивания .torrent файлов необходима регистрация
Сайт не распространяет и не хранит электронные версии произведений, а лишь предоставляет доступ к создаваемому пользователями каталогу ссылок на торрент-файлы, которые содержат только списки хеш-сумм
[Профиль]  [ЛС] 

anahoret773

Стаж: 9 лет 8 месяцев

Сообщений: 1887


anahoret773 · 26-Апр-12 18:41 (спустя 4 часа)

[Цитировать] 

скрытый текст
клаванера ботаетспасибо!Зарелиз
:
[Профиль]  [ЛС] 

nptoz

Top Seed 05* 640r

Стаж: 8 лет 8 месяцев

Сообщений: 4671

nptoz · 12-Май-12 15:57 (спустя 15 дней)

[Цитировать] 

Спасибо!!!
.cue
REM GENRE "Reggae"
REM DATE "1984"
REM COMMENT "2012, Island Records, 24-192. Track 6 & track 10 are in 24-96"
PERFORMER "Bob Marley & The Wailers"
TITLE "Legend. The Best Of Bob Marley And The Wailers"
FILE "1-Is This Love.flac" WAVE
TRACK 01 AUDIO
TITLE "Is This Love"
INDEX 01 00:00:00
FILE "2-No Woman No Cry 1975 Live At.flac" WAVE
TRACK 02 AUDIO
TITLE "No Woman No Cry"
INDEX 01 00:00:00
FILE "3-Could You Be Loved.flac" WAVE
TRACK 03 AUDIO
TITLE "Could You Be Loved"
INDEX 01 00:00:00
FILE "4-Three Little Birds.flac" WAVE
TRACK 04 AUDIO
TITLE "Three Little Birds"
INDEX 01 00:00:00
FILE "5-Buffalo Soldier.flac" WAVE
TRACK 05 AUDIO
TITLE "Buffalo Soldier"
INDEX 01 00:00:00
FILE "6-Get Up Stand Up.flac" WAVE
TRACK 06 AUDIO
TITLE "Get Up Stand Up"
INDEX 01 00:00:00
FILE "7-Stir It Up Original Album Ve.flac" WAVE
TRACK 07 AUDIO
TITLE "Stir It Up"
INDEX 01 00:00:00
FILE "8-Easy Skanking.flac" WAVE
TRACK 08 AUDIO
TITLE "Easy Skanking"
INDEX 01 00:00:00
FILE "9-One Love People Get Ready.flac" WAVE
TRACK 09 AUDIO
TITLE "One Love / People Get Ready"
INDEX 01 00:00:00
FILE "10-I Shot The Sheriff.flac" WAVE
TRACK 10 AUDIO
TITLE "I Shot The Sheriff"
INDEX 01 00:00:00
FILE "11-Waiting In Vain.flac" WAVE
TRACK 11 AUDIO
TITLE "Waiting In Vain"
INDEX 01 00:00:00
FILE "12-Redemption Song.flac" WAVE
TRACK 12 AUDIO
TITLE "Redemption Song"
INDEX 01 00:00:00
FILE "13-Satisfy My Soul.flac" WAVE
TRACK 13 AUDIO
TITLE "Satisfy My Soul"
INDEX 01 00:00:00
FILE "14-Exodus.flac" WAVE
TRACK 14 AUDIO
TITLE "Exodus"
INDEX 01 00:00:00
FILE "15-Jamming.flac" WAVE
TRACK 15 AUDIO
TITLE "Jamming"
INDEX 01 00:00:00
FILE "16-Punky Reggae Party.flac" WAVE
TRACK 16 AUDIO
TITLE "Punky Reggae Party"
INDEX 01 00:00:00
[Профиль]  [ЛС] 

PorkyPecko

Стаж: 6 лет 9 месяцев

Сообщений: 78


PorkyPecko · 13-Сен-12 16:48 (спустя 4 месяца 1 день, ред. 13-Сен-12 16:48)

[Цитировать] 

Цитата:
These are bonus tracks that we wanted to make available to our customers, but for which this is the highest resolution available.
Странный формат release, непонятно откуда надергали, nevermind, thanx!
[Профиль]  [ЛС] 

Zephyr

Top Seed 03* 160r

Стаж: 10 лет 3 месяца

Сообщений: 592

Zephyr · 02-Фев-13 20:44 (спустя 4 месяца 19 дней)

[Цитировать] 

Спасибо, звучит отлично, один из самых лутших вариантов от Hd Tracks.
[Профиль]  [ЛС] 

maxi_c_v8

Стаж: 7 лет 9 месяцев

Сообщений: 36

maxi_c_v8 · 15-Июл-13 23:33 (спустя 5 месяцев 13 дней)

[Цитировать] 

foobar2000 1.1.15 / Dynamic Range Meter 1.1.1
log date: 2013-07-15 17:30:32
--------------------------------------------------------------------------------
Analyzed: The Wailers / Legend (Remastered)
--------------------------------------------------------------------------------
DR Peak RMS Duration Track
--------------------------------------------------------------------------------
DR13 -4.42 dB -18.87 dB 3:18 06-Get Up, Stand Up
DR13 -2.53 dB -17.56 dB 4:42 10-I Shot The Sheriff
--------------------------------------------------------------------------------
Number of tracks: 2
Official DR value: DR13
Samplerate: 96000 Hz
Channels: 2
Bits per sample: 24
Bitrate: 2815 kbps
Codec: FLAC
================================================================================
--------------------------------------------------------------------------------
Analyzed: Bob Marley & The Wailers / Legend (Remastered)
--------------------------------------------------------------------------------
DR Peak RMS Duration Track
--------------------------------------------------------------------------------
DR13 -2.33 dB -17.64 dB 3:52 01-Is This Love
DR14 -0.65 dB -17.22 dB 7:10 02-No Woman, No Cry (1975 - Live At The Lyceum, London)
DR14 -1.11 dB -16.53 dB 3:57 03-Could You Be Loved
DR14 -0.98 dB -16.53 dB 3:01 04-Three Little Birds
DR13 -1.13 dB -15.83 dB 4:18 05-Buffalo Soldier
DR13 -1.48 dB -16.11 dB 5:31 07-Stir It Up (Original Album Version)
DR13 -1.39 dB -16.53 dB 2:55 08-Easy Skanking
DR14 -3.19 dB -19.03 dB 2:52 09-One Love / People Get Ready
DR15 -0.53 dB -16.82 dB 4:12 11-Waiting In Vain
DR13 -2.90 dB -19.66 dB 3:47 12-Redemption Song
DR16 -1.73 dB -20.54 dB 4:32 13-Satisfy My Soul
DR14 -1.03 dB -17.30 dB 7:41 14-Exodus
DR14 -0.96 dB -16.12 dB 3:32 15-Jamming
DR14 -0.75 dB -15.73 dB 6:53 16-Punky Reggae Party
--------------------------------------------------------------------------------
Number of tracks: 14
Official DR value: DR14
Samplerate: 192000 Hz
Channels: 2
Bits per sample: 24
Bitrate: 5237 kbps
Codec: FLAC
================================================================================
[Профиль]  [ЛС] 

babaev.v.p

Стаж: 8 лет 3 месяца

Сообщений: 1503


babaev.v.p · 22-Сен-13 14:53 (спустя 2 месяца 6 дней)

[Цитировать] 

Mokr
Вы о чём?! 53 сида!
[Профиль]  [ЛС] 

Rauf71

Стаж: 8 лет 6 месяцев

Сообщений: 59


Rauf71 · 27-Сен-13 15:13 (спустя 5 дней)

[Цитировать] 

Доброго дня, Володя - я не могу, к своему стыду качать с HDtracks, очень хочется The Silk Road Ensemble with Yo-Yo Ma - A Playlist Without Borders (2013) и Keith Jarrett & Michelle Makarski – Johann Sebastian Bach Six Sonatas for Violin and Piano (2013) - может выложите?! Заранее благодарен
[Профиль]  [ЛС] 

babaev.v.p

Стаж: 8 лет 3 месяца

Сообщений: 1503


babaev.v.p · 27-Сен-13 19:48 (спустя 4 часа)

[Цитировать] 

Rauf71
Вы в другой теме спрашивали, как качать с HDtracks, а здесь уже не можете. Будет желание - поможем.
По запросу - это классика, Вам надо в другой раздел. Я сейчас ею не занимаюсь - нет времени.
[Профиль]  [ЛС] 

Rauf71

Стаж: 8 лет 6 месяцев

Сообщений: 59


Rauf71 · 30-Сен-13 14:33 (спустя 2 дня 18 часов, ред. 30-Сен-13 14:33)

[Цитировать] 

Спасибо - научите - очень надо))
babaev.v.p писал(а):
61044230Спасибо - научите - очень надо))
Спасибо - научите - очень надо))
[Профиль]  [ЛС] 

candidus7

Стаж: 8 лет 5 месяцев

Сообщений: 77

candidus7 · 24-Авг-17 00:21 (спустя 3 года 10 месяцев)

[Цитировать] 

Спасибо Вам за такой подарок, звук превосходный, словно на концерте побывал.
[Профиль]  [ЛС] 

squinkie

Стаж: 6 лет 3 месяца

Сообщений: 115

squinkie · 24-Мар-18 05:40 (спустя 7 месяцев)

[Цитировать] 

Finale, the best of what has been LOST!
[Профиль]  [ЛС] 
 
Ответить
Loading...
Error