(kawaii metal, metal, jpop) BabyMetal - 5 синглов 2 альбома 2011-2016 (Дискография), MP3, 320 kbps

Страницы :  1, 2, 3, 4, 5  След.

Ответить
Автор
Сообщение

Lelouch_CG

Стаж: 9 лет 7 месяцев

Сообщений: 114

Lelouch_CG · 05-Июн-12 10:56 (7 лет назад, ред. 07-Апр-16 00:24)

BabyMetal / 5 синглов 2 альбома
Жанр: kawaii metal, metal, jpop
Страна: Япония
Год издания: 2011-2016
Аудиокодек: MP3
Тип рипа: tracks
Битрейт аудио: 320 kbps
Продолжительность: 3:11:51
Официальный сайт: http://www.babymetal.jp
Треклист:
Doki Doki (2011) Single - 3.45min
1) ド・キ・ド・キ☆モーニング[ Doki Doki☆Morning ]
Babymetal X Kiba of Akiba (2012) Single - 11.52min
1) いいね![ Line! ]
2) 君とアニメが見たい~ Answer for Animation With You
3) [email protected] BBS
Headbangeeeeerrrrr!!!!! (2012) Single - 14.47min
1) ヘドバンギャー!! [Headbangeeeeerrrrr!!!!!]
2) ウ・キ・ウ・キ★ミッドナイト [Uki Uki★Midnight]
3) ヘドバンギャー!! (Air Vocal ver.) [Headbangeeeeerrrrr!!!!!]
4) ウ・キ・ウ・キ★ミッドナイト (Air Vocal ver.) [Uki Uki★Midnight]
Ijime, Dame, Zettai (2013) Single - 32.02min
1) Ijime, Dame, Zettai
2) BABYMETAL DEATH
3) Catch me if you can
4) Ijime, Dame, Zettai [Air Vocal ver.]
5) Ijime, Dame, Zettai [Nemesis ver.]
6) Catch me if you can [Air Vocal ver.]
Megitsune (2013) Single - 19.17min
01)Megitsune
02)Benitsuki -Akatsuki-
03)Megitsune (Air Vocal ver.)
04)Benitsuki -Akatsuki- (Air Vocal ver.)
BabyMetal (2014) Album - 55.47min
01) Babymetal Death
02) Megitsune
03) Gimme Choko!!
04) Ii ne!
05) Benitsuki -Akatsuki-
06) Do・Ki・Do・Ki☆MORNING
07) Onedari Daisakusen
08) 4 no Uta
09) U.ki.U.ki★Midnight
10) Catch Me If You Can
11) Akumu no Rinbukyoku
12) Headbanger!!
13) Ijime, Dame, Zettai
Metal Resistance (2016) Album- 54.24min
01) Road of Resistance
02) KARATE
03) Awadama Fever
04) YAVA!
05) Amore
06) Meta Taro
07) From Dusk Till Dawn
08) GJ!
09) Sis. Anger
10) No Rain, No Rainbow
11) Tales of The Destinies
12) THE ONE (English Version)
Об исполнителе (группе)
Что будет, если милые кавайные девочки захотят рубить метал? Получится что-то вроде этого - местами жестко, местами кавайно... В общем слушаем - наслаждаемся
BabyMetal - выходцы из проекта под названием Sakura Gakuin вот ссылочка на их дискографию
Об альбоме (сборнике)
Сборка из 5-х синглов и 2 альбомов, которые вышли на данный момент
Состав
Suzuka Nakamoto (aka Su-Metal) : Vocal,Dance
Yui Mizuno (aka Yuimetal) : Scream,Dance
Moa Kikuchi (aka Moametal) : Scream,Dance
Немного фоток



7.04.2016 добавил новый альбом, наслаждайтесь
Download
Для скачивания .torrent файлов необходима регистрация
Сайт не распространяет и не хранит электронные версии произведений, а лишь предоставляет доступ к создаваемому пользователями каталогу ссылок на торрент-файлы, которые содержат только списки хеш-сумм
[Профиль]  [ЛС] 

Ren_Strangel

VIP (Заслуженный)

Стаж: 11 лет 8 месяцев

Сообщений: 711

Ren_Strangel · 05-Июн-12 20:56 (спустя 9 часов)

Что это?
Альбом/сингл/мини-альбом/сборник?
Трэклист должен быть нумерованным, название группы в каждой строке дублировать не нужно.
И в названии папке должен быть указан год выхода диска, каждый муз.файл должен также иметь свой номер, соответствующий номеру в трэклисте.
[Профиль]  [ЛС] 

Lelouch_CG

Стаж: 9 лет 7 месяцев

Сообщений: 114

Lelouch_CG · 06-Июн-12 09:52 (спустя 12 часов)

Вроде бы исправил, как Вы сказали. Раскидал всё по папкам и правильно подписал. в названии папки надо указывать что это сингл?
[Профиль]  [ЛС] 

gast.kami

Стаж: 10 лет 2 месяца

Сообщений: 379

gast.kami · 06-Июн-12 18:48 (спустя 8 часов)

Классные. Мне нравятся. Особенно их первый клип.
[Профиль]  [ЛС] 

EnsifeR

Стаж: 9 лет 10 месяцев

Сообщений: 9


EnsifeR · 09-Июн-12 09:03 (спустя 2 дня 14 часов)

сидер, активизируйся уже) я понимаю что 40мб это много, но дораздать надо
[Профиль]  [ЛС] 

Elenoth

Стаж: 11 лет 4 месяца

Сообщений: 46

Elenoth · 10-Июн-12 17:56 (спустя 1 день 8 часов, ред. 10-Июн-12 17:56)

Ordscare писал(а):
дораздайте, блин, 0.01% остался.
Подписываюсь и негодую.
Кстати, есть мнение, что автор раздачи поменял, допустим, тэг в одном файле, который теперь не раздаётся, так отличен от того, что было изначально дано торрент-клиенту. Автор, сделай речек, или пересоздай вообще торрент.
[Профиль]  [ЛС] 

Ren_Strangel

VIP (Заслуженный)

Стаж: 11 лет 8 месяцев

Сообщений: 711

Ren_Strangel · 11-Июн-12 19:01 (спустя 1 день 1 час)

В названии темы укажите, что это 2 сингла.
[Профиль]  [ЛС] 

deathroslavl

Стаж: 7 лет 3 месяца

Сообщений: 18

deathroslavl · 14-Июн-12 16:13 (спустя 2 дня 21 час)

Это брутал детский кал метал !!!!!!!!!!!!!!!!!!!!!!!!!!!!!!!!!!!!!!!!!!!! хахахахахахахахахахахахахахахахахахахахахахахаха !!!!!!!!!!!!!!!!!!!!! куда мир катится ??????????????
[Профиль]  [ЛС] 

Nekona

Стаж: 10 лет 11 месяцев

Сообщений: 205

Nekona · 05-Июл-12 16:17 (спустя 21 день)

Новый сингл вышел у девчушек, кстати.
Есть самизнаетегде.
[Профиль]  [ЛС] 

dejv-rutracker

Стаж: 8 лет 6 месяцев

Сообщений: 7

dejv-rutracker · 05-Июл-12 21:53 (спустя 5 часов)

Минако??? о_О
[Профиль]  [ЛС] 

Lelouch_CG

Стаж: 9 лет 7 месяцев

Сообщений: 114

Lelouch_CG · 05-Июл-12 23:45 (спустя 1 час 51 мин., ред. 05-Июл-12 23:45)

dejv-rutracker
Если ты про аватар, то угадал, её фотка. а что?
Nekona
Спасибо, скоро добавлю
Добавлен новый сингл, наслаждаемся
[Профиль]  [ЛС] 

hoshitsune

Стаж: 9 лет 10 месяцев

Сообщений: 392

hoshitsune · 08-Июл-12 10:46 (спустя 2 дня 11 часов)

а клипы в ультра HD будете выкладывать ?
[Профиль]  [ЛС] 

Lelouch_CG

Стаж: 9 лет 7 месяцев

Сообщений: 114

Lelouch_CG · 08-Июл-12 12:24 (спустя 1 час 38 мин., ред. 08-Июл-12 12:24)

hoshitsune
Ну в ультра HD (1080р) есть только 2 клипа, остальное видео у них в 720. но если надо то могу
[Профиль]  [ЛС] 

hoshitsune

Стаж: 9 лет 10 месяцев

Сообщений: 392

hoshitsune · 08-Июл-12 18:50 (спустя 6 часов, ред. 08-Июл-12 18:50)

Lelouch_CG давайте все что есть
а то я только два видел)
[Профиль]  [ЛС] 

tank789

Стаж: 9 лет 3 месяца

Сообщений: 105

tank789 · 08-Июл-12 23:35 (спустя 4 часа)

Спасибо! Наткнулся на их клип случайно на ютубе
[Профиль]  [ЛС] 

Hibari-san2111

Стаж: 7 лет 9 месяцев

Сообщений: 15

Hibari-san2111 · 21-Июл-12 00:05 (спустя 12 дней)

няшненько ^^
домо аригато :3
[Профиль]  [ЛС] 

despiesed

Стаж: 8 лет 2 месяца

Сообщений: 12

despiesed · 25-Июл-12 21:50 (спустя 4 дня)

напишите плиз в каких местах, это slaming brutal death? О_о уж оч хочется узнать...
[Профиль]  [ЛС] 

ART1984

Top Bonus 07* 100TB

Стаж: 12 лет 1 месяц

Сообщений: 558

ART1984 · 10-Авг-12 01:48 (спустя 15 дней, ред. 10-Авг-12 01:48)

Цитата:
напишите плиз в каких местах, это slaming brutal death? О_о уж оч хочется узнать...
я, конечно, в стилях не очень разбираюсь, но предположу... песня "iine!" время 2:00
Девчушки понравились, и с музыкой такой неплохо получилось. Видеозапись "Iine! live" как шоу тоже классно смотрится ^_^ хотелось бы еще чего нибудь подобного, подскажете?
[Профиль]  [ЛС] 

beasiauerrillamailb

Стаж: 8 лет 4 месяца

Сообщений: 20


beasiauerrillamailb · 12-Авг-12 18:08 (спустя 2 дня 16 часов)

Спасибо!!!
[Профиль]  [ЛС] 

Lelouch_CG

Стаж: 9 лет 7 месяцев

Сообщений: 114

Lelouch_CG · 22-Авг-12 02:59 (спустя 9 дней)

ART1984
я скока не искал, ничего подобного даже нету...
[Профиль]  [ЛС] 

Zick Ryder

Стаж: 9 лет

Сообщений: 316

Zick Ryder · 22-Авг-12 17:01 (спустя 14 часов, ред. 22-Авг-12 19:47)

"kawaii metal" ПрикольнА
В таком возрасте и такие гитарные рифы... что-то не верится. Да и на видео они танцуют и поют. не разу не видел, чтобы они сами играли хоть на чём-нибудь. Хотя, я мог видеть не всё видео. Думою, что это идея взрослых, не иначе. Люди по взрослее играют, они поют. Это моё ИМХО.
[Профиль]  [ЛС] 

Kelly D

Стаж: 7 лет 3 месяца

Сообщений: 11

Kelly D · 23-Авг-12 00:22 (спустя 7 часов)

Lelouch_CG Забавная вещь... Краем уха уловил что-то про клипы.
[Профиль]  [ЛС] 

Lelouch_CG

Стаж: 9 лет 7 месяцев

Сообщений: 114

Lelouch_CG · 27-Авг-12 22:34 (спустя 4 дня, ред. 27-Авг-12 22:34)

Kelly D
Клипы то есть но качество лучше ютубовского не нашел
В норм качестве можно найти только Doki Doki Morning
[Профиль]  [ЛС] 

SvarogFN

Стаж: 11 лет 8 месяцев

Сообщений: 3


SvarogFN · 27-Авг-12 23:48 (спустя 1 час 14 мин.)

Был приятно поражён творчеством. Понятно, что девочки в лучшем случае поют, рифы рубят другие, но сама идея - )))
[Профиль]  [ЛС] 

Zick Ryder

Стаж: 9 лет

Сообщений: 316

Zick Ryder · 28-Авг-12 06:15 (спустя 6 часов)

SvarogFN писал(а):
54906594но сама идея
Да, забавная. Есть ещё один новый стиль, который, скоро услышат люди.
[Профиль]  [ЛС] 

Ауле

Стаж: 9 лет 2 месяца

Сообщений: 622


Ауле · 03-Сен-12 00:47 (спустя 5 дней)

Какой-то дикий адовый треш
[Профиль]  [ЛС] 

Kelly D

Стаж: 7 лет 3 месяца

Сообщений: 11

Kelly D · 06-Сен-12 15:23 (спустя 3 дня, ред. 06-Сен-12 15:23)

Lelouch_CG
Эх. Такие уже есть (Содрал всё, что было )... Думал, может есть ещё лучше, в плане качества, хотя, и на Тубе оно на редкость высокое
[Профиль]  [ЛС] 

gast.kami

Стаж: 10 лет 2 месяца

Сообщений: 379

gast.kami · 05-Окт-12 10:56 (спустя 28 дней, ред. 05-Окт-12 10:58)

У меня есть такие:
скрытый текст
General
Complete name : X:\Music\BABYMETAL\BABYMETAL - ヘドバンギャー!! (12.07.04).AVI
Format : AVI
Format/Info : Audio Video Interleave
File size : 139 MiB
Duration : 4mn 53s
Overall bit rate : 3 971 Kbps
Video
ID : 0
Format : MPEG-4 Visual
Format profile : [email protected]
Format settings, BVOP : No
Format settings, QPel : No
Format settings, GMC : No warppoints
Format settings, Matrix : Default (H.263)
Codec ID : XVID
Codec ID/Hint : XviD
Duration : 4mn 53s
Bit rate : 3 736 Kbps
Width : 1 280 pixels
Height : 720 pixels
Display aspect ratio : 16:9
Frame rate : 30.000 fps
Color space : YUV
Chroma subsampling : 4:2:0
Bit depth : 8 bits
Scan type : Progressive
Compression mode : Lossy
Bits/(Pixel*Frame) : 0.135
Stream size : 131 MiB (94%)
Writing library : ZJMedia MPEG Encoder
Audio
ID : 1
Format : MPEG Audio
Format version : Version 1
Format profile : Layer 3
Mode : Joint stereo
Mode extension : MS Stereo
Codec ID : 55
Codec ID/Hint : MP3
Duration : 4mn 53s
Bit rate mode : Constant
Bit rate : 224 Kbps
Channel(s) : 2 channels
Sampling rate : 44.1 KHz
Compression mode : Lossy
Stream size : 7.83 MiB (6%)
Alignment : Split accross interleaves
Interleave, duration : 998 ms (29.93 video frames)
скрытый текст
General
ID : 16389 (0x4005)
Complete name : X:\Music\BABYMETAL\BABYMETAL - いいね! (1440x1080i H.264 M-ON! HD).ts
Format : MPEG-TS
File size : 335 MiB
Duration : 4mn 9s
Start time : UTC 2012-02-24 00:01:45
End time : UTC 2012-02-24 00:05:50
Overall bit rate mode : Variable
Overall bit rate : 11.2 Mbps
Network name : |№«Сщ!‰HDЉµщУ№
Original network name : Astra 8
Video
ID : 4099 (0x1003)
Menu ID : 33409 (0x8281)
Format : AVC
Format/Info : Advanced Video Codec
Format profile : [email protected]
Format settings, CABAC : Yes
Format settings, ReFrames : 4 frames
Codec ID : 27
Duration : 4mn 9s
Bit rate mode : Variable
Bit rate : 10.5 Mbps
Maximum bit rate : 20.0 Mbps
Width : 1 440 pixels
Height : 1 080 pixels
Display aspect ratio : 16:9
Frame rate : 29.970 fps
Standard : Component
Color space : YUV
Chroma subsampling : 4:2:0
Bit depth : 8 bits
Scan type : Interlaced
Scan order : Top Field First
Bits/(Pixel*Frame) : 0.226
Stream size : 313 MiB (94%)
Color primaries : BT.709-5, BT.1361, IEC 61966-2-4, SMPTE RP177
Transfer characteristics : BT.709-5, BT.1361
Matrix coefficients : BT.709-5, BT.1361, IEC 61966-2-4 709, SMPTE RP177
Audio
ID : 4163 (0x1043)
Menu ID : 33409 (0x8281)
Format : AAC
Format/Info : Advanced Audio Codec
Format version : Version 2
Format profile : LC
Muxing mode : ADTS
Codec ID : 15
Duration : 4mn 9s
Bit rate mode : Variable
Bit rate : 144 Kbps
Minimum bit rate : 122 Kbps
Maximum bit rate : 222 Kbps
Channel(s) : 2 channels
Channel positions : Front: L R
Sampling rate : 48.0 KHz
Compression mode : Lossy
Delay relative to video : -100ms
Stream size : 4.29 MiB (1%)
Menu
ID : 1027 (0x403)
Menu ID : 33409 (0x8281)
Duration : 4mn 9s
List : 4099 (0x1003) (AVC) / 4163 (0x1043) (AAC)
Service name : |ЁаЄу!HD
Service type : digital television
UTC 2012-02-24 00:00:00 : ja:?7Ce|УЗЄЇкГЧ!Zµ­Йк‰!Љ![ / ja:MNK.ОЄ№№б?7Ce|УЗЄЇкГЧrЁаЄу‰!ЉG0lHVAa/>R2p}№лHVAHъ / J|AwF|EvF|ЛFO¤ї|УЗЄЇкГЧ}вэЅОF|О¦БЛ|ЄуЁў‰! / user defined / / 00:20:00
UTC 2012-02-24 00:20:00 : ja:|ЄкЁуїлйёЄNД®ЇлГ‰! / ja:‰<Љ|І№И‰>ЉG5LZ:d‰46 [Љ[email protected]‰/Љ>>B<:;M'M}‰] / ЉЄкЁуїлйёЄ}ИCmL\О?7?M|ўщЖЈ№И}¬7+к9-Іл2;3Z|ИщЇРйЁЖЈъІ№ИўщЖЈ№И}О2;[email protected]дAG4iЛGwл! / user defined / / 00:10:00
UTC 2012-02-24 06:00:00 : ja:K.3Z|УЗЄЇкГЧ!Z‰J-POP Hits!Љ![ / ja:|ТГИ6JK~:\}ЗЄAwк№л / K.3Z|УЗЄЇкГЧHVAH‰!! / [ЉЄуЁўM=DjўщЖЈ№И‰] / Љ?A‰ Љ4pGn!!}Ы« / sports / / 01:00:00
UTC 2012-02-24 07:00:00 : ja:?7Ce|УЗЄЇкГЧ!Zµ­Йк‰!Љ![ / ja:MNK.ОЄ№№б?7Ce|УЗЄЇкГЧrЁаЄу‰!ЉG0lHVAa/>R2p}№лHVAHъ / J|AwF|EvF|ЛFO¤ї|УЗЄЇкГЧ}вэЅОF|О¦БЛ|ЄуЁў‰! / user defined / / 00:20:00
UTC 2012-02-24 07:20:00 : ja:|ЄкЁуїлйёЄNД®ЇлГ‰! / ja:‰<Љ|І№И‰>ЉG5LZ:d‰46 [Љ[email protected]‰/Љ>>B<:;M'M}‰] / ЉЄкЁуїлйёЄ}ИCmL\О?7?M|ўщЖЈ№И}¬7+к9-Іл2;3Z|ИщЇРйЁЖЈъІ№ИўщЖЈ№И}О2;[email protected]дAG4iЛGwл! / user defined / / 00:10:00
UTC 2012-02-24 07:30:00 : ja:‰International Hits! / ja:MN3Z|ТГИ6JNУЗЄЇкГЧrB3!9ЄуЁў! / !~Kh=57nMK!]EZMK‰ 7:30Љ!A‰8:00ЉB> / special events / / 00:30:00
UTC 2012-02-24 08:00:00 : ja:‰SELECT / ja:|ккщ№dй¤Ц}КЙО:G?72;3Z>pJsт|УЗЄЇкГЧ}Иўп»Ж|ЄуЁў!!~=i2sJ|Aw!~Kh=52PMKF|‰-Љ6bMKF|‰ 8:00Љ!A‰8:30Љ!~кФщИ!~2PMK‰-Љ6bMK‰16:00-/Љ2PMK‰-Љ6bMK‰24:30- / user defined / / 00:30:00 /
UTC 2012-02-24 08:30:00 : ja:|ў¤ЙлFC=8!ZA4NO!ў¤Йл![ / ja:|­ещИJ=wN;R,B3!9EP>l! / [email protected]ў¤ЙлNУЗЄЇкГЧ}тїГЧк|ЄуЁў! / / sports / / 00:30:00
UTC 2012-02-24 19:00:00 : ja:‰LIVE DAM PRESENTS LIVEN UP / ja:2-Fl=P?HОы8eGZ7O|ьїмуИэТ¬кО,855$}¤ГС¤Л|КУІщИ}№л2;3Z>pJsHVAHz?M5$|ўщЖЈ№ИrІ№ИK7^}Ёлы|Т¬}ИвьКЙэ[email protected]кАЇµуО‰30ЉJ,! / user defined / / 00:30:00 /
UTC 2012-02-24 19:30:00 : ja:7n4)‰ the telephones / ja:‰2Љ7nПы7n4)‰ the telephonesЉь!:rG/KvЛПэµ¤їЮ|№щСщўкщК}ЗО|й¤Ц}т@.8yµ»э:#э:Gв@*¤Оўл|нГЇРуЙ}ИКГїH`йОL%NOЛGwкЮ№ъ / user defined / / 00:30:00 /
UTC 2012-02-24 20:00:00 : ja:D6!y4Z‰ON! / ja:‰[MC]Љ|°Ўу№эёТзЇ!~‰[Super MЉ«‰ Live] ЉKM}¬9TЇи‰(IЉ!G‰ll Be There)/BOYFRIENDЉ|э‰Hit U/DalЉ!z‰shabetЉэ­к®к№;?2N‰/Sunny HillЉ}э‰CRAZY/TEENTOPЉ!!B> / user defined / / 01:00:00 /
UTC 2012-02-25 10:00:00 : ja:‰M-ON! Љ|«йЄ±БгщИ‰ 50 / ja::G?7|«йЄ±БгщИ‰TOP50Љ}т2N;lF~кО|УЗЄЇкГЧ}ЗїГЧк‰5Љ;~4V|ЄуЁў! / =i2sJ|Aw!~Kh=5EZMK‰ 10:00-14:55 / ЉкФщИJ|Aw!~EZMK‰ 25:00- / sports / / 05:00:00
UTC 2012-02-25 21:00:00 : ja:‰M-ON! MONTHLY ICON L'ArcЉ!A‰enЉ!A‰Ciel / ja:|ЁаЄу‰!Љ}О0l2!·|ўщЖЈ№И}Пы‰L'ArcЉ!A‰enЉ!A‰CielЉь!‰20Љ<~G/т7^Ёї:#вКЄF|K\О2;3Z|·щу}т8#0z·B3±л‰L'ArcЉ!A‰enЉ!A‰CielЉО?7:n|ўлРа}ИH`йО:#ЛGwл! / user defined / / 01:00:00 /
UTC 2012-02-25 22:00:00 : ja:‰Japanesque Rock Cure TV / ja:|ЁаЄу‰!ЉHфЈёеўл[email protected];o!X‰CureЉ!YN6/NOійЬGAw}лэ:#О|¤уЗЈщєфЈёеўл·щуr6E=L}·ї|м®ейщЧн°йа}тЄFO±·Ю№! / user defined / / 00:30:00 /
UTC 2012-02-25 22:30:00 : ja:‰RX-72 Љ!A‰ HISASHI (GLAY) VS ЉLPLZ=_0l‰ Љ!A / ja:‰GLAYЉО|Юу№кщм®ейщЧн°йа‰!! / ЉI}9-$<qL#r;}}ДіИЗвM-L>К‰HISASHIЉ¬LPLZ=_0lИ6&Лэ‰"Љ|вО‰"ЉrЖщЮ}ЛЄFO±№л‰30ЉJ,‰!! / user defined / / 00:30:00
UTC 2012-02-25 23:00:00 : ja:Lu»!MN3Z|«¦уИА¦у / ja:MN3Z|БгщИ‰TOP10ЉNУЗЄЇкГЧrF|K\8l;zKkF~}кЗЄFO±! / / / special events / / 01:00:00
скрытый текст
General
Complete name : X:\Music\BABYMETAL\BABYMETAL - Doki Doki Morning.mp4
Format : MPEG-4
Format profile : Base Media
Codec ID : isom
File size : 94.1 MiB
Duration : 4mn 1s
Overall bit rate : 3 273 Kbps
Encoded date : UTC 2011-10-29 13:46:39
Tagged date : UTC 2011-10-29 13:46:39
Video
ID : 1
Format : AVC
Format/Info : Advanced Video Codec
Format profile : [email protected]
Format settings, CABAC : Yes
Format settings, ReFrames : 4 frames
Codec ID : avc1
Codec ID/Info : Advanced Video Coding
Duration : 4mn 1s
Bit rate : 3 078 Kbps
Maximum bit rate : 11.8 Mbps
Width : 852 pixels
Height : 480 pixels
Display aspect ratio : 16:9
Frame rate mode : Constant
Frame rate : 29.970 fps
Color space : YUV
Chroma subsampling : 4:2:0
Bit depth : 8 bits
Scan type : Progressive
Bits/(Pixel*Frame) : 0.251
Stream size : 88.5 MiB (94%)
Writing library : x264 core 116 r2074 2641b9e
Encoding settings : cabac=1 / ref=3 / deblock=1:0:0 / analyse=0x3:0x113 / me=hex / subme=7 / psy=1 / psy_rd=1.00:0.00 / mixed_ref=1 / me_range=16 / chroma_me=1 / trellis=1 / 8x8dct=1 / cqm=0 / deadzone=21,11 / fast_pskip=1 / chroma_qp_offset=-2 / threads=3 / sliced_threads=0 / nr=0 / decimate=1 / interlaced=0 / bluray_compat=0 / constrained_intra=0 / bframes=3 / b_pyramid=2 / b_adapt=1 / b_bias=0 / direct=1 / weightb=1 / open_gop=0 / weightp=2 / keyint=250 / keyint_min=25 / scenecut=40 / intra_refresh=0 / rc_lookahead=40 / rc=crf / mbtree=1 / crf=19.0 / qcomp=0.60 / qpmin=0 / qpmax=69 / qpstep=4 / ip_ratio=1.40 / aq=1:1.00
Encoded date : UTC 2011-10-29 13:17:12
Tagged date : UTC 2011-10-29 13:46:41
Audio
ID : 2
Format : MPEG Audio
Format version : Version 1
Format profile : Layer 3
Mode : Joint stereo
Mode extension : MS Stereo
Codec ID : 6B
Duration : 4mn 1s
Bit rate mode : Constant
Bit rate : 192 Kbps
Maximum bit rate : 198 Kbps
Channel(s) : 2 channels
Sampling rate : 48.0 KHz
Compression mode : Lossy
Delay relative to video : -3s 337ms
Stream size : 5.52 MiB (6%)
Writing library : LAME3.98r
Encoding settings : -m j -V 4 -q 2 -lowpass 18.6 -b 192
Encoded date : UTC 2011-10-29 13:46:40
Tagged date : UTC 2011-10-29 13:46:41
Только они под правила раздела клипов вроде не подойдут.
[Профиль]  [ЛС] 

CØNSUL

Стаж: 11 лет 9 месяцев

Сообщений: 332

CØNSUL · 12-Ноя-12 16:33 (спустя 1 месяц 7 дней, ред. 12-Ноя-12 16:33)

ZicAsakuro писал(а):
54817267"kawaii metal" ПрикольнА
В таком возрасте и такие гитарные рифы... что-то не верится. Да и на видео они танцуют и поют. не разу не видел, чтобы они сами играли хоть на чём-нибудь...
А там вроде на клипах видно, что дядьки на гитарах рубают.
Но все равно превосходно.
Особенно музыка роскошная....
UPD
В дополнение в шапку
________
BABYMETAL is a sub-unit of Japanese idol group Sakura Gakuin. They are the second sub-unit to debut from the group, following Twinklestars.
Their debut song, "Doki Doki☆Morning", was included on Sakura Gakuin's album Sakura Gakuin 2010 ~message~ in April 2011. They released a PV for "Doki Doki☆Morning" as a DVD single on October 24, 2011.
BABYMETAL mixes J-pop with heavy guitars and drums known from metal, and use metal symbolism such as the metal-horns and headbanging. Their motto is "No Mosh, No Life".
Members:
Suzuka Nakamoto (中元すず香) aka SU-METAL
Moa Kikuchi (菊地最愛) aka MOAMETAL
Yui Mizuno (水野由結) aka YUIMETAL
UPD2
От себя добавлю, что слушал Sakura Gakuin - ну никак не понравилось(
[Профиль]  [ЛС] 

Zick Ryder

Стаж: 9 лет

Сообщений: 316

Zick Ryder · 12-Ноя-12 23:56 (спустя 7 часов)

CØNSUL писал(а):
56283370А там вроде на клипах видно, что дядьки на гитарах рубают.
И в песнях мужские голоса есть.
[Профиль]  [ЛС] 
 
Ответить
Loading...
Error