The Donnas - Desert Moon 2 [2012, Hard rock, rock, pop punk, DVD9 (custom)]

Страницы:  1

Ответить
Автор
Сообщение

CHKA1961

Moderator gray

Стаж: 11 лет 4 месяца

Сообщений: 6900

CHKA1961 · 08-Июл-12 11:17 (6 лет 4 месяца назад, ред. 09-Июл-12 05:29)

The Donnas - Desert Moon 2
Страна: USA
Жанр: Hard rock, rock, pop punk
Продолжительность: 00:52:15+00:40:06+00:16:55
Год выпуска: 2012 г.
Описание:
Наверное самый лучший по содержанию и исполнению концерт The Donnas.
http://www.myspace.com/thedonnas/blog/484997052
THE DM2 LIVE DVD:
Two Sets by The Donnas at Desert Moon 2
Recorded Live at Pappy & Harriet's Pioneertown Palace on September 27, 2008
- Features dedicated sound for video
- Recorded and Mixed by Jay Ruston
- Edited by Gary Durrett for Pearl Productions
- Performance is an awesome mix of professional & fan footage
- Photo Slideshow + Fan Video Extras
- Cover Art will be downloadable at the DVD page
- Ships in a paper sleeve to keep postage costs down
- Dual Layer, Region Free, Runtime 114 Minutes
- Allow 2 weeks for delivery
Треклист:
SET 1:
Bitchin'
Don't Wait Up For Me
Do You Wanna Hit It
Rock 'N' Roll Machine
It Takes One To Know One
40 Boys In 40 Nights
Wasted
Skintight
Revolver
Too Bad About Your Girl
Everybody's Smoking Cheeba
Fall Behind Me
Love You Til It Hurts
Take It Off
SET 2:
Get Rid Of That Girl
Who Invited You
Hyperactive
Gimme My Radio
Out Of My Hands
Checkin It Out
Hook It Up
I Didn't Like You Anyway
Pass It Around
I Wanna Be A Unabomber
Speed Demon
Strutter
Zero
+ Photo Slideshow
+ Fan Video Extras
Доп. информация:
Немного о создании данного релиза
Ешё с появления на оф. сайте объявления о данном DVD регулярно разыскивал его по просторам "мировой паутины". И вот наконец-таки нашёл, пришлось даже зарегистрироваться на англоязычном трекере ради него. Так как официалки там под запретом (как на том же многим знакомом Дайме), то материал был немного "с хитринкой". То есть всё оригинальное, кроме самого авторинга. И авториг этот был криворукий с неточными метками и даже перепутанными между собой двумя частями концерта. Поэтому самостоятельно произвёл реавторинг с помощью DVD-lab PRO 2.
сэмпл
Релиз:
Копипастерам

Уважаемые, имеете желание и возможность далее распространить сие творение по просторам сети? Я совсем не жадный и манией собственности не страдаю. Конечно можно этот релиз заливать и на других трекерах и файлообменниках.
Только будьте любезны уважать чужой труд и соблюдать правила приличия. Пожалуйста указывайте источник. Мой ник указывать не надо. Необходимо в описании добавить наш банер или сослаться на ресурс.
Код:
[b]Релиз:[/b] [img]http://s60.radikal.ru/i168/1103/b2/7817dead5b2b.gif[/img]
ПРЕДУПРЕЖДЕНИЕ
Данная раздача относится к Женскому вкладу в рок музыку! Раздачи на трекере , ни в коей мере не предназначены для удовлетворения ваших личных запросов: если вам не нравится раздача, попробуйте поискать что-либо подходящее вам.
Для тех, кто в танке
Имеете нестандартный набор хромосом или узкий аспект в рок-музыке? Тогда проходите мимо и главное молча, без выпячивания своей нестандартности и узости.
Разбивка на главы по трекам: есть
Качество : DVD9 (custom)
Формат: DVD video
Видео кодек: MPEG2
Аудио кодек: PCM
Видео: NTSC 4:3 (720x480) VBR 5998-6520 (7700) Kbps
Аудио: English (LinearPCM, 2 ch) 1536 Kbps
DVDinfo+MediaInfo
Title: The Donnas - Desert Moon 2
Size: 5.67 Gb ( 5 949 776,00 KBytes ) - DVD-9
Enabled regions: 1, 2, 3, 4, 5, 6, 7, 8
VTS_01 :
Play Length: 00:52:15
Video: NTSC 4:3 (720x480) VBR
Audio:
English, LPCM, Delay = 0 mSec
VTS_02 :
Play Length: 00:40:06
Video: NTSC 4:3 (720x480) VBR
Audio:
English, LPCM, Delay = 0 mSec
VTS_03 :
Play Length: 00:03:43+00:03:58+00:09:14
Video: NTSC 4:3 (720x480) VBR
Audio:
English, LPCM, Delay = 0 mSec
* Menus Information *
VIDEO_TS Menu
Video:
NTSC 4:3 (720x480) VBR
English Language Unit :
Title Menu
VTS_01 Menu
Video:
NTSC 4:3 (720x480) VBR
English Language Unit :
Root Menu
VTS_02 Menu
Video:
NTSC 4:3 (720x480) VBR
English Language Unit :
Root Menu
VTS_03 Menu
Video:
NTSC 4:3 (720x480) VBR
English Language Unit :
Root Menu
Complete name : C:\Documents and Settings\chka\Downloads\The Donnas - Desert Moon 2\VIDEO_TS\VIDEO_TS.BUP
Format : DVD Video
Format profile : Menu
File size : 14.0 KiB
Video
ID : 224 (0xE0)
Format : MPEG Video
Format version : Version 2
Bit rate mode : Variable
Width : 720 pixels
Height : 480 pixels
Display aspect ratio : 4:3
Frame rate : 29.970 fps
Standard : NTSC
Compression mode : Lossy
Text
Format : RLE
Format/Info : Run-length encoding
Bit depth : 2 bits
General
Complete name : C:\Documents and Settings\chka\Downloads\The Donnas - Desert Moon 2\VIDEO_TS\VIDEO_TS.IFO
Format : DVD Video
Format profile : Menu
File size : 14.0 KiB
Video
ID : 224 (0xE0)
Format : MPEG Video
Format version : Version 2
Bit rate mode : Variable
Width : 720 pixels
Height : 480 pixels
Display aspect ratio : 4:3
Frame rate : 29.970 fps
Standard : NTSC
Compression mode : Lossy
Text
Format : RLE
Format/Info : Run-length encoding
Bit depth : 2 bits
General
Complete name : C:\Documents and Settings\chka\Downloads\The Donnas - Desert Moon 2\VIDEO_TS\VIDEO_TS.VOB
Format : MPEG-PS
File size : 52.0 KiB
Duration : 33ms
Overall bit rate : 12.9 Mbps
Video
ID : 224 (0xE0)
Format : MPEG Video
Format version : Version 2
Format profile : [email protected]
Format settings, BVOP : No
Format settings, Matrix : Default
Duration : 33ms
Bit rate mode : Variable
Bit rate : 9 000 Kbps
Width : 720 pixels
Height : 480 pixels
Display aspect ratio : 4:3
Frame rate : 29.970 fps
Standard : NTSC
Color space : YUV
Chroma subsampling : 4:2:0
Bit depth : 8 bits
Scan type : Progressive
Scan order : Top Field First
Compression mode : Lossy
Bits/(Pixel*Frame) : 0.869
Stream size : 36.3 KiB (70%)
Text
ID : 189 (0xBD)-32 (0x20)
Format : RLE
Format/Info : Run-length encoding
Muxing mode : DVD-Video
Menu
General
Complete name : C:\Documents and Settings\chka\Downloads\The Donnas - Desert Moon 2\VIDEO_TS\VTS_01_0.BUP
Format : DVD Video
Format profile : Program
File size : 48.0 KiB
Duration : 52mn 15s
Overall bit rate : 125 bps
Video
ID : 224 (0xE0)
Format : MPEG Video
Format version : Version 2
Duration : 52mn 15s
Bit rate mode : Variable
Width : 720 pixels
Height : 480 pixels
Display aspect ratio : 4:3
Frame rate : 29.970 fps
Standard : NTSC
Compression mode : Lossy
Audio
ID : 0 (0x0)
Format : PCM
Duration : 52mn 15s
Channel(s) : 2 channels
Sampling rate : 48.0 KHz
Language : English
Menu
Duration : 52mn 15s
00:00:00.000 : Chapter 1
00:01:07.000 : Chapter 2
00:03:37.500 : Chapter 3
00:05:47.000 : Chapter 4
00:09:39.500 : Chapter 5
00:13:26.000 : Chapter 6
00:16:45.500 : Chapter 7
00:20:30.000 : Chapter 8
00:23:16.000 : Chapter 9
00:26:57.500 : Chapter 10
00:30:33.000 : Chapter 11
00:34:19.000 : Chapter 12
00:37:27.000 : Chapter 13
00:40:38.000 : Chapter 14
00:44:59.000 : Chapter 15
00:48:44.000 : Chapter 16
List (Audio) : 0
General
Complete name : C:\Documents and Settings\chka\Downloads\The Donnas - Desert Moon 2\VIDEO_TS\VTS_01_0.IFO
Format : DVD Video
Format profile : Program
File size : 48.0 KiB
Duration : 52mn 15s
Overall bit rate : 125 bps
Video
ID : 224 (0xE0)
Format : MPEG Video
Format version : Version 2
Duration : 52mn 15s
Bit rate mode : Variable
Width : 720 pixels
Height : 480 pixels
Display aspect ratio : 4:3
Frame rate : 29.970 fps
Standard : NTSC
Compression mode : Lossy
Audio
ID : 0 (0x0)
Format : PCM
Duration : 52mn 15s
Channel(s) : 2 channels
Sampling rate : 48.0 KHz
Language : English
Menu
Duration : 52mn 15s
00:00:00.000 : Chapter 1
00:01:07.000 : Chapter 2
00:03:37.500 : Chapter 3
00:05:47.000 : Chapter 4
00:09:39.500 : Chapter 5
00:13:26.000 : Chapter 6
00:16:45.500 : Chapter 7
00:20:30.000 : Chapter 8
00:23:16.000 : Chapter 9
00:26:57.500 : Chapter 10
00:30:33.000 : Chapter 11
00:34:19.000 : Chapter 12
00:37:27.000 : Chapter 13
00:40:38.000 : Chapter 14
00:44:59.000 : Chapter 15
00:48:44.000 : Chapter 16
List (Audio) : 0
General
Complete name : C:\Documents and Settings\chka\Downloads\The Donnas - Desert Moon 2\VIDEO_TS\VTS_01_0.VOB
Format : MPEG-PS
File size : 76.0 KiB
Duration : 33ms
Overall bit rate : 18.9 Mbps
Video
ID : 224 (0xE0)
Format : MPEG Video
Format version : Version 2
Format profile : [email protected]
Format settings, BVOP : No
Format settings, Matrix : Default
Duration : 33ms
Bit rate mode : Variable
Bit rate : 9 000 Kbps
Width : 720 pixels
Height : 480 pixels
Display aspect ratio : 4:3
Frame rate : 29.970 fps
Standard : NTSC
Color space : YUV
Chroma subsampling : 4:2:0
Bit depth : 8 bits
Scan type : Progressive
Scan order : Top Field First
Compression mode : Lossy
Bits/(Pixel*Frame) : 0.869
Stream size : 36.3 KiB (48%)
Text
ID : 189 (0xBD)-32 (0x20)
Format : RLE
Format/Info : Run-length encoding
Muxing mode : DVD-Video
Menu
General
Complete name : C:\Documents and Settings\chka\Downloads\The Donnas - Desert Moon 2\VIDEO_TS\VTS_01_1.VOB
Format : MPEG-PS
File size : 1 024 MiB
Duration : 18mn 31s
Overall bit rate : 7 727 Kbps
Video
ID : 224 (0xE0)
Format : MPEG Video
Format version : Version 2
Format profile : [email protected]
Format settings, BVOP : Yes
Format settings, Matrix : Default
Format settings, GOP : M=3, N=15
Duration : 18mn 31s
Bit rate mode : Variable
Bit rate : 6 037 Kbps
Nominal bit rate : 7 700 Kbps
Width : 720 pixels
Height : 480 pixels
Display aspect ratio : 4:3
Frame rate : 29.970 fps
Standard : NTSC
Color space : YUV
Chroma subsampling : 4:2:0
Bit depth : 8 bits
Scan type : Interlaced
Scan order : Bottom Field First
Compression mode : Lossy
Bits/(Pixel*Frame) : 0.583
Stream size : 800 MiB (78%)
Audio
ID : 189 (0xBD)-160 (0xA0)
Format : PCM
Format settings, Endianness : Big
Format settings, Sign : Signed
Muxing mode : DVD-Video
Duration : 18mn 31s
Bit rate mode : Constant
Bit rate : 1 536 Kbps
Channel(s) : 2 channels
Channel positions : Front: L R
Sampling rate : 48.0 KHz
Bit depth : 16 bits
Stream size : 204 MiB (20%)
Menu
General
Complete name : C:\Documents and Settings\chka\Downloads\The Donnas - Desert Moon 2\VIDEO_TS\VTS_01_2.VOB
Format : MPEG-PS
File size : 1 024 MiB
Duration : 18mn 32s
Overall bit rate : 7 724 Kbps
Video
ID : 224 (0xE0)
Format : MPEG Video
Format version : Version 2
Format profile : [email protected]
Format settings, BVOP : Yes
Format settings, Matrix : Default
Format settings, GOP : M=3, N=15
Duration : 18mn 31s
Bit rate mode : Variable
Bit rate : 6 034 Kbps
Nominal bit rate : 7 700 Kbps
Width : 720 pixels
Height : 480 pixels
Display aspect ratio : 4:3
Frame rate : 29.970 fps
Standard : NTSC
Color space : YUV
Chroma subsampling : 4:2:0
Bit depth : 8 bits
Scan type : Interlaced
Scan order : Bottom Field First
Compression mode : Lossy
Bits/(Pixel*Frame) : 0.583
Stream size : 800 MiB (78%)
Audio
ID : 189 (0xBD)-160 (0xA0)
Format : PCM
Format settings, Endianness : Big
Format settings, Sign : Signed
Muxing mode : DVD-Video
Duration : 18mn 32s
Bit rate mode : Constant
Bit rate : 1 536 Kbps
Channel(s) : 2 channels
Channel positions : Front: L R
Sampling rate : 48.0 KHz
Bit depth : 16 bits
Delay relative to video : -683ms
Stream size : 204 MiB (20%)
Menu
General
Complete name : C:\Documents and Settings\chka\Downloads\The Donnas - Desert Moon 2\VIDEO_TS\VTS_01_3.VOB
Format : MPEG-PS
File size : 897 MiB
Duration : 15mn 15s
Overall bit rate : 8 220 Kbps
Video
ID : 224 (0xE0)
Format : MPEG Video
Format version : Version 2
Format profile : [email protected]
Format settings, BVOP : Yes
Format settings, Matrix : Default
Format settings, GOP : M=3, N=15
Duration : 15mn 14s
Bit rate mode : Variable
Bit rate : 6 520 Kbps
Nominal bit rate : 7 700 Kbps
Width : 720 pixels
Height : 480 pixels
Display aspect ratio : 4:3
Frame rate : 29.970 fps
Standard : NTSC
Color space : YUV
Chroma subsampling : 4:2:0
Bit depth : 8 bits
Scan type : Interlaced
Scan order : Bottom Field First
Compression mode : Lossy
Bits/(Pixel*Frame) : 0.629
Stream size : 711 MiB (79%)
Audio
ID : 189 (0xBD)-160 (0xA0)
Format : PCM
Format settings, Endianness : Big
Format settings, Sign : Signed
Muxing mode : DVD-Video
Duration : 15mn 15s
Bit rate mode : Constant
Bit rate : 1 536 Kbps
Channel(s) : 2 channels
Channel positions : Front: L R
Sampling rate : 48.0 KHz
Bit depth : 16 bits
Delay relative to video : -675ms
Stream size : 168 MiB (19%)
Menu
General
Complete name : C:\Documents and Settings\chka\Downloads\The Donnas - Desert Moon 2\VIDEO_TS\VTS_02_0.BUP
Format : DVD Video
Format profile : Program
File size : 40.0 KiB
Duration : 40mn 6s
Overall bit rate : 136 bps
Video
ID : 224 (0xE0)
Format : MPEG Video
Format version : Version 2
Duration : 40mn 6s
Bit rate mode : Variable
Width : 720 pixels
Height : 480 pixels
Display aspect ratio : 4:3
Frame rate : 29.970 fps
Standard : NTSC
Compression mode : Lossy
Audio
ID : 0 (0x0)
Format : PCM
Duration : 40mn 6s
Channel(s) : 2 channels
Sampling rate : 48.0 KHz
Language : English
Menu
Duration : 40mn 6s
00:00:00.000 : Chapter 1
00:02:20.500 : Chapter 2
00:06:26.000 : Chapter 3
00:09:03.000 : Chapter 4
00:10:50.500 : Chapter 5
00:13:52.500 : Chapter 6
00:17:04.500 : Chapter 7
00:19:55.000 : Chapter 8
00:24:07.500 : Chapter 9
00:27:56.000 : Chapter 10
00:29:49.000 : Chapter 11
00:31:57.000 : Chapter 12
00:35:05.000 : Chapter 13
00:38:17.500 : Chapter 14
List (Audio) : 0
General
Complete name : C:\Documents and Settings\chka\Downloads\The Donnas - Desert Moon 2\VIDEO_TS\VTS_02_0.IFO
Format : DVD Video
Format profile : Program
File size : 40.0 KiB
Duration : 40mn 6s
Overall bit rate : 136 bps
Video
ID : 224 (0xE0)
Format : MPEG Video
Format version : Version 2
Duration : 40mn 6s
Bit rate mode : Variable
Width : 720 pixels
Height : 480 pixels
Display aspect ratio : 4:3
Frame rate : 29.970 fps
Standard : NTSC
Compression mode : Lossy
Audio
ID : 0 (0x0)
Format : PCM
Duration : 40mn 6s
Channel(s) : 2 channels
Sampling rate : 48.0 KHz
Language : English
Menu
Duration : 40mn 6s
00:00:00.000 : Chapter 1
00:02:20.500 : Chapter 2
00:06:26.000 : Chapter 3
00:09:03.000 : Chapter 4
00:10:50.500 : Chapter 5
00:13:52.500 : Chapter 6
00:17:04.500 : Chapter 7
00:19:55.000 : Chapter 8
00:24:07.500 : Chapter 9
00:27:56.000 : Chapter 10
00:29:49.000 : Chapter 11
00:31:57.000 : Chapter 12
00:35:05.000 : Chapter 13
00:38:17.500 : Chapter 14
List (Audio) : 0
General
Complete name : C:\Documents and Settings\chka\Downloads\The Donnas - Desert Moon 2\VIDEO_TS\VTS_02_0.VOB
Format : MPEG-PS
File size : 68.0 KiB
Duration : 33ms
Overall bit rate : 16.9 Mbps
Video
ID : 224 (0xE0)
Format : MPEG Video
Format version : Version 2
Format profile : [email protected]
Format settings, BVOP : No
Format settings, Matrix : Default
Duration : 33ms
Bit rate mode : Variable
Bit rate : 9 000 Kbps
Width : 720 pixels
Height : 480 pixels
Display aspect ratio : 4:3
Frame rate : 29.970 fps
Standard : NTSC
Color space : YUV
Chroma subsampling : 4:2:0
Bit depth : 8 bits
Scan type : Progressive
Scan order : Top Field First
Compression mode : Lossy
Bits/(Pixel*Frame) : 0.869
Stream size : 36.3 KiB (53%)
Text
ID : 189 (0xBD)-32 (0x20)
Format : RLE
Format/Info : Run-length encoding
Muxing mode : DVD-Video
Menu
General
Complete name : C:\Documents and Settings\chka\Downloads\The Donnas - Desert Moon 2\VIDEO_TS\VTS_02_1.VOB
Format : MPEG-PS
File size : 1 024 MiB
Duration : 18mn 11s
Overall bit rate : 7 870 Kbps
Video
ID : 224 (0xE0)
Format : MPEG Video
Format version : Version 2
Format profile : [email protected]
Format settings, BVOP : Yes
Format settings, Matrix : Default
Format settings, GOP : M=3, N=15
Duration : 18mn 11s
Bit rate mode : Variable
Bit rate : 6 178 Kbps
Nominal bit rate : 7 700 Kbps
Width : 720 pixels
Height : 480 pixels
Display aspect ratio : 4:3
Frame rate : 29.970 fps
Standard : NTSC
Color space : YUV
Chroma subsampling : 4:2:0
Bit depth : 8 bits
Scan type : Interlaced
Scan order : Bottom Field First
Compression mode : Lossy
Bits/(Pixel*Frame) : 0.596
Stream size : 804 MiB (78%)
Audio
ID : 189 (0xBD)-160 (0xA0)
Format : PCM
Format settings, Endianness : Big
Format settings, Sign : Signed
Muxing mode : DVD-Video
Duration : 18mn 11s
Bit rate mode : Constant
Bit rate : 1 536 Kbps
Channel(s) : 2 channels
Channel positions : Front: L R
Sampling rate : 48.0 KHz
Bit depth : 16 bits
Stream size : 200 MiB (20%)
Menu
General
Complete name : C:\Documents and Settings\chka\Downloads\The Donnas - Desert Moon 2\VIDEO_TS\VTS_02_2.VOB
Format : MPEG-PS
File size : 1 024 MiB
Duration : 18mn 1s
Overall bit rate : 7 939 Kbps
Video
ID : 224 (0xE0)
Format : MPEG Video
Format version : Version 2
Format profile : [email protected]
Format settings, BVOP : Yes
Format settings, Matrix : Default
Format settings, GOP : M=3, N=15
Duration : 18mn 1s
Bit rate mode : Variable
Bit rate : 6 245 Kbps
Nominal bit rate : 7 700 Kbps
Width : 720 pixels
Height : 480 pixels
Display aspect ratio : 4:3
Frame rate : 29.970 fps
Standard : NTSC
Color space : YUV
Chroma subsampling : 4:2:0
Bit depth : 8 bits
Scan type : Interlaced
Scan order : Bottom Field First
Compression mode : Lossy
Bits/(Pixel*Frame) : 0.603
Stream size : 805 MiB (79%)
Audio
ID : 189 (0xBD)-160 (0xA0)
Format : PCM
Format settings, Endianness : Big
Format settings, Sign : Signed
Muxing mode : DVD-Video
Duration : 18mn 1s
Bit rate mode : Constant
Bit rate : 1 536 Kbps
Channel(s) : 2 channels
Channel positions : Front: L R
Sampling rate : 48.0 KHz
Bit depth : 16 bits
Delay relative to video : -430ms
Stream size : 198 MiB (19%)
Menu
General
Complete name : C:\Documents and Settings\chka\Downloads\The Donnas - Desert Moon 2\VIDEO_TS\VTS_02_3.VOB
Format : MPEG-PS
File size : 215 MiB
Duration : 3mn 55s
Overall bit rate : 7 687 Kbps
Video
ID : 224 (0xE0)
Format : MPEG Video
Format version : Version 2
Format profile : [email protected]
Format settings, BVOP : Yes
Format settings, Matrix : Default
Format settings, GOP : M=3, N=15
Duration : 3mn 54s
Bit rate mode : Variable
Bit rate : 5 998 Kbps
Nominal bit rate : 7 700 Kbps
Width : 720 pixels
Height : 480 pixels
Display aspect ratio : 4:3
Frame rate : 29.970 fps
Standard : NTSC
Color space : YUV
Chroma subsampling : 4:2:0
Bit depth : 8 bits
Scan type : Interlaced
Scan order : Bottom Field First
Compression mode : Lossy
Bits/(Pixel*Frame) : 0.579
Stream size : 168 MiB (78%)
Audio
ID : 189 (0xBD)-160 (0xA0)
Format : PCM
Format settings, Endianness : Big
Format settings, Sign : Signed
Muxing mode : DVD-Video
Duration : 3mn 55s
Bit rate mode : Constant
Bit rate : 1 536 Kbps
Channel(s) : 2 channels
Channel positions : Front: L R
Sampling rate : 48.0 KHz
Bit depth : 16 bits
Delay relative to video : -533ms
Stream size : 43.0 MiB (20%)
Menu
General
Complete name : C:\Documents and Settings\chka\Downloads\The Donnas - Desert Moon 2\VIDEO_TS\VTS_03_0.BUP
Format : DVD Video
Format profile : Program
File size : 26.0 KiB
Duration : 3mn 58s
Overall bit rate : 893 bps
Video
ID : 224 (0xE0)
Format : MPEG Video
Format version : Version 2
Duration : 3mn 58s
Bit rate mode : Variable
Width : 720 pixels
Height : 480 pixels
Display aspect ratio : 4:3
Frame rate : 29.970 fps
Standard : NTSC
Compression mode : Lossy
Audio
ID : 0 (0x0)
Format : PCM
Duration : 3mn 58s
Channel(s) : 2 channels
Sampling rate : 48.0 KHz
Language : English
Menu #1
Duration : 3mn 43s
00:00:00.000 : Chapter 1
List (Audio) : 0
Menu #2
Duration : 3mn 58s
00:00:00.000 : Chapter 1
List (Audio) : 0
General
Complete name : C:\Documents and Settings\chka\Downloads\The Donnas - Desert Moon 2\VIDEO_TS\VTS_03_0.IFO
Format : DVD Video
Format profile : Program
File size : 26.0 KiB
Duration : 3mn 58s
Overall bit rate : 893 bps
Video
ID : 224 (0xE0)
Format : MPEG Video
Format version : Version 2
Duration : 3mn 58s
Bit rate mode : Variable
Width : 720 pixels
Height : 480 pixels
Display aspect ratio : 4:3
Frame rate : 29.970 fps
Standard : NTSC
Compression mode : Lossy
Audio
ID : 0 (0x0)
Format : PCM
Duration : 3mn 58s
Channel(s) : 2 channels
Sampling rate : 48.0 KHz
Language : English
Menu #1
Duration : 3mn 43s
00:00:00.000 : Chapter 1
List (Audio) : 0
Menu #2
Duration : 3mn 58s
00:00:00.000 : Chapter 1
List (Audio) : 0
General
Complete name : C:\Documents and Settings\chka\Downloads\The Donnas - Desert Moon 2\VIDEO_TS\VTS_03_0.VOB
Format : MPEG-PS
File size : 34.0 KiB
Duration : 33ms
Overall bit rate : 8 440 Kbps
Video
ID : 224 (0xE0)
Format : MPEG Video
Format version : Version 2
Format profile : [email protected]
Format settings, BVOP : No
Format settings, Matrix : Default
Duration : 33ms
Bit rate mode : Variable
Bit rate : 9 000 Kbps
Width : 720 pixels
Height : 480 pixels
Display aspect ratio : 4:3
Frame rate : 29.970 fps
Standard : NTSC
Color space : YUV
Chroma subsampling : 4:2:0
Bit depth : 8 bits
Scan type : Progressive
Scan order : Top Field First
Compression mode : Lossy
Bits/(Pixel*Frame) : 0.869
Stream size : 36.3 KiB
Text
ID : 189 (0xBD)-32 (0x20)
Format : RLE
Format/Info : Run-length encoding
Muxing mode : DVD-Video
Menu
General
Complete name : C:\Documents and Settings\chka\Downloads\The Donnas - Desert Moon 2\VIDEO_TS\VTS_03_1.VOB
Format : MPEG-PS
File size : 602 MiB
Duration : 9mn 14s
Overall bit rate : 9 103 Kbps
Video
ID : 224 (0xE0)
Format : MPEG Video
Format version : Version 2
Format profile : [email protected]
Format settings, BVOP : Yes
Format settings, Matrix : Default
Duration : 9mn 14s
Bit rate mode : Variable
Bit rate : 7 700 Kbps
Width : 720 pixels
Height : 480 pixels
Display aspect ratio : 4:3
Frame rate : 29.970 fps
Standard : NTSC
Color space : YUV
Chroma subsampling : 4:2:0
Bit depth : 8 bits
Scan type : Interlaced
Scan order : Top Field First
Compression mode : Lossy
Bits/(Pixel*Frame) : 0.743
Stream size : 488 MiB (81%)
Audio
ID : 189 (0xBD)-160 (0xA0)
Format : PCM
Format settings, Endianness : Big
Format settings, Sign : Signed
Muxing mode : DVD-Video
Duration : 9mn 14s
Bit rate mode : Constant
Bit rate : 1 536 Kbps
Channel(s) : 2 channels
Channel positions : Front: L R
Sampling rate : 48.0 KHz
Bit depth : 16 bits
Stream size : 101 MiB (17%)
Скриншоты меню
Скриншоты
Данная раздача предназначена для ознакомления.
Ознакомился сам? Не забудь позаботиться о ближнем - помоги ознакомиться и ему, продолжая сидировать. И будет тебе счастье обнаружить новые интересные релизы в будущем.
Добросовестным сидам - ДА, ДА, ДА! Жадным личерам - НЕТ, НЕТ, НЕТ!
Download
Для скачивания .torrent файлов необходима регистрация
Сайт не распространяет и не хранит электронные версии произведений, а лишь предоставляет доступ к создаваемому пользователями каталогу ссылок на торрент-файлы, которые содержат только списки хеш-сумм
[Профиль]  [ЛС] 

budyjoe

Стаж: 8 лет 7 месяцев

Сообщений: 364

budyjoe · 09-Июл-12 10:33 (спустя 23 часа)

[Цитировать] 

что за ерунда, вторые сутки скачиваю. CHKA1961, какая у вас скорость отдачи?
[Профиль]  [ЛС] 

CHKA1961

Moderator gray

Стаж: 11 лет 4 месяца

Сообщений: 6900

CHKA1961 · 09-Июл-12 12:08 (спустя 1 час 34 мин., ред. 09-Июл-12 12:08)

[Цитировать] 

budyjoe писал(а):
что за ерунда, вторые сутки скачиваю.
08-Июл-12 10:17 - дата и время регистрации.
09-Июл-12 09:33 (спустя 23 часа) - дата, время и разница с предыдушим постом, то есть с самим описанием по времени, Вашего "коментария".
А "ерунда" у Вас в профиле в двух последних графах.
На своих На редких
Сегодня 0 B 0 B
Вчера 0 B 0 B
Всего 3.91 GB 29.89 GB
Цитата:
какая у вас скорость отдачи?
Та, что и все пять лет, включая сегодняшний день - модемная и таковой будет пока мой провайдер не дотянет оптику до моего места жительства. Не нравится - приходите завтра, когда сиды появятся. Или получше описание прочитайте, там есть всё - ссылка на оф.сайт, с неё в их "стол заказов", там же цена и минимальный срок доставки (если вообще возьмутся доставлять).
[Профиль]  [ЛС] 

budyjoe

Стаж: 8 лет 7 месяцев

Сообщений: 364

budyjoe · 09-Июл-12 13:35 (спустя 1 час 27 мин., ред. 09-Июл-12 18:32)

[Цитировать] 

CHKA1961, мне вас жаль.
может, лучше купить флешку и подключиться через спутник? модем - это анахронизм. через спутник скорость по-любому будет выше.
[Профиль]  [ЛС] 

axaNViL

Стаж: 9 лет 2 месяца

Сообщений: 87

axaNViL · 09-Июл-12 20:32 (спустя 6 часов)

[Цитировать] 

budyjoe писал(а):
CHKA1961, мне вас жаль.
О!О!О! Понты... Как это круто!
[Профиль]  [ЛС] 

budyjoe

Стаж: 8 лет 7 месяцев

Сообщений: 364

budyjoe · 10-Июл-12 05:14 (спустя 8 часов)

[Цитировать] 

axaNViL, какого хрена влазишь? лишь бы пофлудить?
[Профиль]  [ЛС] 

paradises&hells

Стаж: 9 лет 4 месяца

Сообщений: 327

paradises&hells · 23-Ноя-12 15:20 (спустя 4 месяца 13 дней, ред. 25-Ноя-12 15:57)

[Цитировать] 

встаньте на раздачу винт крякнул-теперь всё восстанавливаю.За ранее спасибо!!!
требуется реанимация данного релиза-дайте движения
Народ !!!!!!!!! раздача не активна........2-е суток......загружено 32%.Дайте газу !!!!!!!!!!
[Профиль]  [ЛС] 

DC42

Стаж: 8 лет 1 месяц

Сообщений: 2


DC42 · 02-Дек-12 19:01 (спустя 9 дней)

[Цитировать] 

Thank you!!!! Apologies for English language.
[Профиль]  [ЛС] 

Eugene_Iceman

Стаж: 7 лет 6 месяцев

Сообщений: 44

Eugene_Iceman · 27-Фев-14 17:00 (спустя 1 год 2 месяца)

[Цитировать] 

Жесть, всё не перестаю поражаться, как распёрло басистку, она как автобус.
[Профиль]  [ЛС] 

WWHC

Стаж: 7 лет 5 месяцев

Сообщений: 166


WWHC · 28-Апр-14 15:37 (спустя 2 месяца)

[Цитировать] 

Угу. А еще во времена Gold Medal (2004 год) еще "в пределах нормы" была...
[Профиль]  [ЛС] 

Slavic1215

Стаж: 7 лет 5 месяцев

Сообщений: 28


Slavic1215 · 25-Апр-17 16:46 (спустя 2 года 11 месяцев)

[Цитировать] 

Умницы девчонки.!!! Сразу чувствуются истоки рока и рок-н-ролла. Помножить на опыт и драйв и получается очень достойно звучит, казалась бы простая музыка.
CHKA1961 молодец и и СПАСИБО за такие релизы.
[Профиль]  [ЛС] 

Нечипорук

Top Bonus 01* 300GB

Стаж: 9 лет 2 месяца

Сообщений: 2266

Нечипорук · 01-Июн-18 11:57 (спустя 1 год 1 месяц)

[Цитировать] 

Сиды, ау, дайте пожалуйста стянуть самых крутых тёлок.
[Профиль]  [ЛС] 

Нечипорук

Top Bonus 01* 300GB

Стаж: 9 лет 2 месяца

Сообщений: 2266

Нечипорук · 05-Июн-18 01:16 (спустя 3 дня, ред. 05-Июн-18 01:16)

[Цитировать] 

Товарищ сид, скажите, вы раздаёте этот диск или просто его на харде держите? Стоит ли тянуть или нет, в надежде скачать??? 6 дней тяну со скоростью 5 кб/с и мторрент пишет, что ещё столько же тянуть буду.
[Профиль]  [ЛС] 
 
Ответить
Loading...
Error