(Pop) Jack Vidgen - Inspire - 2012, FLAC (tracks+.cue), lossless

Страницы:  1

Ответить
Автор
Сообщение

Merseph

Стаж: 10 лет 1 месяц

Сообщений: 545

Merseph · 14-Июл-12 09:10 (6 лет 4 месяца назад, ред. 04-Дек-12 12:43)

[Цитировать] 

Jack Vidgen - Inspire
Жанр: Pop
Год издания: 2012
Издатель (лейбл): Sony Music
Номер по каталогу: 88691997232
Страна: Australia
Аудиокодек: FLAC (*.flac)
Тип рипа: tracks+.cue
Битрейт аудио: lossless
Продолжительность: 00:46:55
Источник (релизер): what.cd (CrazyBull)
Наличие сканов в содержимом раздачи: нет
Треклист:
01. Man In The Mirror (4:33)
02. What A Wonderful World (3:19)
03. Lean On Me (3:42)
04. Bridge Over Troubled Water (5:14)
05. What The World Needs Now Is Love (3:21)
06. Higher Ground (3:34)
07. I'll Be There (4:19)
08. True Colours (3:23)
09. You're The Inspiration (3:54)
10. Oh Happy Day (3:33)
11. Imagine (4:06)
12. I was Here (3:57)


Лог создания рипа
Exact Audio Copy V1.0 beta 3 from 29. August 2011
EAC extraction logfile from 20. June 2012, 7:17
Jack Vidgen / Inspire
Used drive : hp BD MLT UJ240 Adapter: 0 ID: 1
Read mode : Secure
Utilize accurate stream : Yes
Defeat audio cache : Yes
Make use of C2 pointers : No
Read offset correction : 103
Overread into Lead-In and Lead-Out : No
Fill up missing offset samples with silence : Yes
Delete leading and trailing silent blocks : No
Null samples used in CRC calculations : Yes
Used interface : Native Win32 interface for Win NT & 2000
Gap handling : Appended to previous track
Used output format : User Defined Encoder
Selected bitrate : 1024 kBit/s
Quality : High
Add ID3 tag : No
Command line compressor : C:\Program Files (x86)\Exact Audio Copy\Flac\flac.exe
Additional command line options : -8 -V -T "Artist=%artist%" -T "Title=%title%" -T "Album=%albumtitle%" -T "Date=%year%" -T "Tracknumber=%tracknr%" -T "Genre=%genre%" %source% -o %dest%
TOC of the extracted CD
Track | Start | Length | Start sector | End sector
---------------------------------------------------------
1 | 0:00.00 | 4:33.16 | 0 | 20490
2 | 4:33.16 | 3:18.40 | 20491 | 35380
3 | 7:51.56 | 3:42.28 | 35381 | 52058
4 | 11:34.09 | 5:13.57 | 52059 | 75590
5 | 16:47.66 | 3:20.51 | 75591 | 90641
6 | 20:08.42 | 3:33.48 | 90642 | 106664
7 | 23:42.15 | 4:19.24 | 106665 | 126113
8 | 28:01.39 | 3:23.31 | 126114 | 141369
9 | 31:24.70 | 3:54.07 | 141370 | 158926
10 | 35:19.02 | 3:32.67 | 158927 | 174893
11 | 38:51.69 | 4:06.25 | 174894 | 193368
12 | 42:58.19 | 3:57.05 | 193369 | 211148
Track 1
Filename D:\Jack Vidgen - Inspire - flac\01 - Man In The Mirror.wav
Pre-gap length 0:00:02.00
Peak level 100.0 %
Extraction speed 1.3 X
Track quality 99.9 %
Test CRC B60CBAEB
Copy CRC B60CBAEB
Accurately ripped (confidence 1) [E91C349B] (AR v2)
Copy OK
Track 2
Filename D:\Jack Vidgen - Inspire - flac\02 - What A Wonderful World.wav
Pre-gap length 0:00:01.89
Peak level 100.0 %
Extraction speed 1.4 X
Track quality 99.9 %
Test CRC 0C270321
Copy CRC 0C270321
Accurately ripped (confidence 1) [57579360] (AR v2)
Copy OK
Track 3
Filename D:\Jack Vidgen - Inspire - flac\03 - Lean On Me.wav
Peak level 100.0 %
Extraction speed 1.7 X
Track quality 100.0 %
Test CRC EB3E90FE
Copy CRC EB3E90FE
Accurately ripped (confidence 1) [B6279196] (AR v2)
Copy OK
Track 4
Filename D:\Jack Vidgen - Inspire - flac\04 - Bridge Over Troubled Water.wav
Peak level 100.0 %
Extraction speed 2.0 X
Track quality 100.0 %
Test CRC 66751658
Copy CRC 66751658
Accurately ripped (confidence 1) [497BCE47] (AR v2)
Copy OK
Track 5
Filename D:\Jack Vidgen - Inspire - flac\05 - What The World Needs Now Is Love.wav
Peak level 100.0 %
Extraction speed 2.0 X
Track quality 100.0 %
Test CRC 68177C15
Copy CRC 68177C15
Accurately ripped (confidence 1) [16AC7035] (AR v2)
Copy OK
Track 6
Filename D:\Jack Vidgen - Inspire - flac\06 - Higher Ground.wav
Peak level 100.0 %
Extraction speed 2.1 X
Track quality 100.0 %
Test CRC B0B31BB4
Copy CRC B0B31BB4
Accurately ripped (confidence 1) [6CB10454] (AR v2)
Copy OK
Track 7
Filename D:\Jack Vidgen - Inspire - flac\07 - I'll Be There.wav
Peak level 100.0 %
Extraction speed 2.0 X
Track quality 99.9 %
Test CRC 65CC2179
Copy CRC 65CC2179
Accurately ripped (confidence 1) [6215E280] (AR v2)
Copy OK
Track 8
Filename D:\Jack Vidgen - Inspire - flac\08 - True Colours.wav
Peak level 100.0 %
Extraction speed 2.3 X
Track quality 100.0 %
Test CRC 22AFC3F7
Copy CRC 22AFC3F7
Accurately ripped (confidence 1) [202983F8] (AR v2)
Copy OK
Track 9
Filename D:\Jack Vidgen - Inspire - flac\09 - You're The Inspiration.wav
Peak level 100.0 %
Extraction speed 2.5 X
Track quality 100.0 %
Test CRC B34F6C01
Copy CRC B34F6C01
Accurately ripped (confidence 1) [62B19310] (AR v2)
Copy OK
Track 10
Filename D:\Jack Vidgen - Inspire - flac\10 - Oh Happy Day.wav
Peak level 100.0 %
Extraction speed 2.5 X
Track quality 100.0 %
Test CRC 16727303
Copy CRC 16727303
Accurately ripped (confidence 1) [9D74188F] (AR v2)
Copy OK
Track 11
Filename D:\Jack Vidgen - Inspire - flac\11 - Imagine.wav
Pre-gap length 0:00:02.33
Peak level 100.0 %
Extraction speed 2.3 X
Track quality 99.9 %
Test CRC 14BDB572
Copy CRC 14BDB572
Accurately ripped (confidence 1) [B733CC05] (AR v2)
Copy OK
Track 12
Filename D:\Jack Vidgen - Inspire - flac\12 - I was Here.wav
Peak level 100.0 %
Extraction speed 2.4 X
Track quality 99.9 %
Test CRC DD1DBCF9
Copy CRC DD1DBCF9
Accurately ripped (confidence 1) [39F84C0C] (AR v2)
Copy OK
All tracks accurately ripped
No errors occurred
End of status report
==== Log checksum BA46AD47B3615E547153BEF08697FF0751FBFA22D2FFB6DF608D965222FB794A ====
Содержание индексной карты (.CUE)
REM GENRE Pop
REM DATE 2012
REM DISCID 950AFF0C
REM COMMENT "ExactAudioCopy v1.0b3"
PERFORMER "Jack Vidgen"
TITLE "Inspire"
REM DATE 2012
REM GENRE "Pop"
FILE "01 - Man In The Mirror.flac" WAVE
TRACK 01 AUDIO
PERFORMER "Jack Vidgen"
TITLE "Man In The Mirror"
INDEX 01 00:00:00
TRACK 02 AUDIO
PERFORMER "Jack Vidgen"
TITLE "What A Wonderful World"
INDEX 00 04:31:24
FILE "02 - What A Wonderful World.flac" WAVE
INDEX 01 00:00:00
FILE "03 - Lean On Me.flac" WAVE
TRACK 03 AUDIO
PERFORMER "Jack Vidgen"
TITLE "Lean On Me"
INDEX 01 00:00:00
FILE "04 - Bridge Over Troubled Water.flac" WAVE
TRACK 04 AUDIO
PERFORMER "Jack Vidgen"
TITLE "Bridge Over Troubled Water"
INDEX 01 00:00:00
FILE "05 - What The World Needs Now Is Love.flac" WAVE
TRACK 05 AUDIO
PERFORMER "Jack Vidgen"
TITLE "What The World Needs Now Is Love"
INDEX 01 00:00:00
FILE "06 - Higher Ground.flac" WAVE
TRACK 06 AUDIO
PERFORMER "Jack Vidgen"
TITLE "Higher Ground"
INDEX 01 00:00:00
FILE "07 - I'll Be There.flac" WAVE
TRACK 07 AUDIO
PERFORMER "Jack Vidgen"
TITLE "I'll Be There"
INDEX 01 00:00:00
FILE "08 - True Colours.flac" WAVE
TRACK 08 AUDIO
PERFORMER "Jack Vidgen"
TITLE "True Colours"
INDEX 01 00:00:00
FILE "09 - You're The Inspiration.flac" WAVE
TRACK 09 AUDIO
PERFORMER "Jack Vidgen"
TITLE "You're The Inspiration"
INDEX 01 00:00:00
FILE "10 - Oh Happy Day.flac" WAVE
TRACK 10 AUDIO
PERFORMER "Jack Vidgen"
TITLE "Oh Happy Day"
INDEX 01 00:00:00
TRACK 11 AUDIO
PERFORMER "Jack Vidgen"
TITLE "Imagine"
INDEX 00 03:30:42
FILE "11 - Imagine.flac" WAVE
INDEX 01 00:00:00
FILE "12 - I was Here.flac" WAVE
TRACK 12 AUDIO
PERFORMER "Jack Vidgen"
TITLE "I was Here"
INDEX 01 00:00:00
Лог проверки качества
AUDIOCHECKER v2.0 beta (build 457) - by Dester - [email protected]
~~~~~~~~~~~~~~~~~~~~~~~~~~~~~~~~~~
-=== DO NOT EDIT THIS FILE! ===-
Path: ...\2012 - Inspire
01 -=- 01 - Man In The Mirror.flac -=- CDDA (100%)
02 -=- 02 - What A Wonderful World.flac -=- CDDA (100%)
03 -=- 03 - Lean On Me.flac -=- CDDA (100%)
04 -=- 04 - Bridge Over Troubled Water.flac -=- CDDA (100%)
05 -=- 05 - What The World Needs Now Is Love.flac -=- CDDA (100%)
06 -=- 06 - Higher Ground.flac -=- CDDA (100%)
07 -=- 07 - I'll Be There.flac -=- CDDA (100%)
08 -=- 08 - True Colours.flac -=- CDDA (100%)
09 -=- 09 - You're The Inspiration.flac -=- CDDA (100%)
10 -=- 10 - Oh Happy Day.flac -=- CDDA (100%)
11 -=- 11 - Imagine.flac -=- CDDA (100%)
12 -=- 12 - I was Here.flac -=- CDDA (100%)
Summary 100,00% CDDA
208236228


[Профиль]  [ЛС] 

FunkInSoul

Стаж: 2 года 7 месяцев

Сообщений: 1047

FunkInSoul · 23-Дек-17 23:47 (спустя 5 лет 5 месяцев)

[Цитировать] 

https://www.youtube.com/watch?v=414ObUaFlnI
[Профиль]  [ЛС] 

bot · 16-Окт-18 20:42 (спустя 9 месяцев)

Тема была перенесена из форума Зарубежная поп-музыка (lossless) в форум Архив (Зарубежная поп-музыка)
jaundiced
 

FunkInSoul

Стаж: 2 года 7 месяцев

Сообщений: 1047

FunkInSoul · 16-Окт-18 23:33 (спустя 9 месяцев)

[Цитировать] 

Почему обязательно уничтожать раздачу? Ведь на рутрекере существуют хранители! Почему не отдать на сохранение раздачу им?
[Профиль]  [ЛС] 
 
Ответить
Loading...
Error