Жандармы: Коллекция / Coffret Les gendarmes - L'integrale [1964, 1965, 1968, 1970, 1978, 1982, Франция, комедия, BDRip 720p]

Страницы:  1

Ответить
Автор
Сообщение

Skazhutin

Стаж: 12 лет

Сообщений: 6806

Skazhutin · 03-Ноя-12 02:16 (6 лет 8 месяцев назад)

Жандармы: Коллекция / Coffret Les gendarmes - L'intégraleГод выпуска: 1964, 1965, 1968, 1970, 1978, 1982
Страна: Франция, Италия
Жанр: фантастика, комедия, криминал
Продолжительность: 01:39:13 | 01:41:48 | 01:29:18 | 01:40:21 | 01:31:38 | 01:38:43
Жандарм из Сен-Тропе / Le gendarme de Saint-Tropez (1964)
Жандарм из Сен-Тропе / Le gendarme de Saint-TropezСлоган: «Beguiling BATHING BEAUTIES will give you a load of laughs!»
Год выпуска: 1964
Страна: Италия, Франция
Жанр: комедия, криминал
Продолжительность: 01:39:13
Перевод:
Многоголосый, НТВ+
Многоголосый, РенТВ
Многоголосый, Останкино
Многоголосый, ОРТ
Многоголосый, SomeWax
Одноголосый, Янкелевич Роман
Авторский, Дьяконов Константин

Субтитры: русские, английские, французские
Навигация по главам: есть
Режиссер: Жан Жиро / Jean Girault
Сценарий: Жак Вильфрид / Jacques Vilfrid, Жан Жиро / Jean Girault, Ришар Бальдуччи / Richard Balducci
Продюсер: Жерар Бейту / Gérard Beytout, Рене Пиньер / René Pignières
Оператор: Марк Фоссар / Marc Fossard
Композитор: Раймон Лефевр / Raymond Lefevre
В ролях: Луи де Фюнес (Maréchal des logis-chef Ludovic Cruchot), Женевьев Град (Nicole Cruchot), Мишель Галабрю (Adjudant Jérôme Gerber), Даниэль Коши (Richard), Мадлен Делавэвр (Une estivante / woman on holiday), Мария Паком (Mme Lareine Leroy), Клод Пьеплю (Boisselier), Габриэле Тинти (Gangster chauffeur), Мишель Варнье, Кристиан Марен (Maréchal des Logis Albert Merlot), Жан Лефевр (Maréchal des Logis Lucien Fougasse), Жан-Пьер Бертран (Eddie)
Описание: Получив повышение, в уютный курортный городок Сен-Тропе приезжает бравый жандарм Крюшо с красоткой-дочерью Николь. Добрые, но недотепистые местные жандармы с радостью принимают Крюшо в свой круг. Но их радость быстро проходит: не такой добряк, но еще более придурковатый Крюшо с рвением бросается на защиту закона даже тогда, когда закон в его защите не нуждается.
С приездом в Сен-Тропе жандарма Крюшо «мирная» жизнь городка заканчивается: охота на нудистов, поиски украденной из музея бесценной картины, поимка банды опасных преступников - бестолковому жандарму всегда найдется занятие. Да и за легкомысленной Николь нужен глаз да глаз...
Рейтинг
kinopoisk.ru: 7.907 (6 233)
imdb.com: 7.00 (4 177)
Качество: BDRip (Skazhutin)
Исходник: HDCLUB by AnryV
Формат: MKV
Видеокодек: AVC
Аудиокодек: AC3, FLAC
Видео: 1280x546 (2.344); 7780 Kbps; 24 fps
Аудио: Russian / Dolby Digital Audio / 2.0 / 48 kHz / 192 kbps |Многоголосый, НТВ+|
Аудио: Russian / Dolby Digital Audio / 2.0 / 48 kHz / 192 kbps |Многоголосый, РенТВ|
Аудио: Russian / Dolby Digital Audio / 2.0 / 48 kHz / 192 kbps |Многоголосый, Останкино|
Аудио: Russian / Dolby Digital Audio / 2.0 / 48 kHz / 192 kbps |Многоголосый, ОРТ|
Аудио: Russian / Free Lossless Audio Codec / 2.0 / 48 kHz / 309 kbps / 16 bit |Многоголосый, SomeWax|
Аудио: Russian / Free Lossless Audio Codec / 2.0 / 48 kHz / 309 kbps / 16 bit |Одноголосый, Янкелевич Роман|
Аудио: Russian / Dolby Digital Audio / 2.0 / 48 kHz / 192 kbps |Авторский, Дьяконов Константин|
Аудио: Ukrainian / Dolby Digital Audio / 2.0 / 48 kHz / 192 kbps |Многоголосый|
Аудио: French / Free Lossless Audio Codec / 2.0 / 48 kHz / 270 kbps / 16 bit
Субтитры: Russian, English, French
Знаете ли Вы, что...
  1. После выхода фильма город Сан-Тропе стал невероятно популярен у туристов.
  2. Легенда о появлении фильма: однажды Жан Жиро отдыхал на пляже в Сан-Тропе, во время купания у него украли кинокамеру. Когда Жиро пришёл в жандармерию, то там ему заявили что подобными вещами не занимаются. Тогда Жан Жиро и решил снять фильм, высмеивающий жандармов из Сен-Тропе.
  3. Сцена с Фугассом «Охота за нудистами» позже была использована в фильме «Жандарм на отдыхе».





MI
General
Unique ID : 187095879612177601038587503262261899653 (0x8CC15B0F4384970799E471EBE2F8F185)
Complete name : Le.gendarme.de.Saint-Tropez.1964.720p.BluRay.7xRus.Ukr.Fre.HDCLUB-Skazhutin.mkv
Format : Matroska
Format version : Version 2
File size : 6.82 GiB
Duration : 1h 39mn
Overall bit rate mode : Variable
Overall bit rate : 9 838 Kbps
Movie name : Le gendarme de Saint-Tropez (1964) - Release for HDCLUB by Skazhutin
Encoded date : UTC 2012-10-21 17:04:06
Writing application : mkvmerge v5.8.0 ('No Sleep / Pillow') built on Sep 2 2012 15:37:04
Writing library : libebml v1.2.3 + libmatroska v1.3.0
Attachment : Yes / Yes
Video
ID : 1
Format : AVC
Format/Info : Advanced Video Codec
Format profile : [email protected]
Format settings, CABAC : Yes
Format settings, ReFrames : 11 frames
Codec ID : V_MPEG4/ISO/AVC
Duration : 1h 39mn
Width : 1 280 pixels
Height : 546 pixels
Display aspect ratio : 2.35:1
Frame rate mode : Constant
Frame rate : 24.000 fps
Color space : YUV
Chroma subsampling : 4:2:0
Bit depth : 8 bits
Scan type : Progressive
Title : Release for HDCLUB
Writing library : x264 core 128 r2216kMod 198a7ea
Encoding settings : cabac=1 / ref=11 / deblock=1:-3:-3 / analyse=0x3:0x113 / me=umh / subme=11 / psy=1 / fade_compensate=0.00 / psy_rd=1.00:0.00 / mixed_ref=1 / me_range=48 / chroma_me=1 / trellis=2 / 8x8dct=1 / cqm=0 / deadzone=21,11 / fast_pskip=1 / chroma_qp_offset=-2 / threads=12 / lookahead_threads=2 / sliced_threads=0 / nr=0 / decimate=1 / interlaced=0 / bluray_compat=0 / constrained_intra=0 / bframes=9 / b_pyramid=2 / b_adapt=2 / b_bias=0 / direct=3 / weightb=1 / open_gop=0 / weightp=2 / keyint=250 / keyint_min=24 / scenecut=40 / intra_refresh=0 / rc_lookahead=40 / rc=crf / mbtree=0 / crf=16.0000 / qcomp=0.60 / qpmin=0 / qpmax=69 / qpstep=4 / vbv_maxrate=50000 / vbv_bufsize=62500 / crf_max=0.0 / nal_hrd=none / ip_ratio=1.40 / pb_ratio=1.30 / aq=1:0.80
Language : French
Default : Yes
Forced : No
Matrix coefficients : BT.709
Audio #1
ID : 2
Format : AC-3
Format/Info : Audio Coding 3
Format profile : Dolby Digital
Mode extension : CM (complete main)
Format settings, Endianness : Big
Codec ID : A_AC3
Duration : 1h 39mn
Bit rate mode : Constant
Bit rate : 192 Kbps
Channel(s) : 2 channels
Channel positions : Front: L R
Sampling rate : 48.0 KHz
Bit depth : 16 bits
Compression mode : Lossy
Stream size : 136 MiB (2%)
Title : AC3 2.0 @ 192 kbps - Многоголосый, НТВ+
Language : Russian
Default : Yes
Forced : No
Audio #2
ID : 3
Format : AC-3
Format/Info : Audio Coding 3
Format profile : Dolby Digital
Mode extension : CM (complete main)
Format settings, Endianness : Big
Codec ID : A_AC3
Duration : 1h 39mn
Bit rate mode : Constant
Bit rate : 192 Kbps
Channel(s) : 2 channels
Channel positions : Front: L R
Sampling rate : 48.0 KHz
Bit depth : 16 bits
Compression mode : Lossy
Stream size : 136 MiB (2%)
Title : AC3 2.0 @ 192 kbps - Многоголосый, РенТВ
Language : Russian
Default : No
Forced : No
Audio #3
ID : 4
Format : AC-3
Format/Info : Audio Coding 3
Format profile : Dolby Digital
Mode extension : CM (complete main)
Format settings, Endianness : Big
Codec ID : A_AC3
Duration : 1h 39mn
Bit rate mode : Constant
Bit rate : 192 Kbps
Channel(s) : 2 channels
Channel positions : Front: L R
Sampling rate : 48.0 KHz
Bit depth : 16 bits
Compression mode : Lossy
Stream size : 136 MiB (2%)
Title : AC3 2.0 @ 192 kbps - Многоголосый, Останкино
Language : Russian
Default : No
Forced : No
Audio #4
ID : 5
Format : AC-3
Format/Info : Audio Coding 3
Format profile : Dolby Digital
Mode extension : CM (complete main)
Format settings, Endianness : Big
Codec ID : A_AC3
Duration : 1h 39mn
Bit rate mode : Constant
Bit rate : 192 Kbps
Channel(s) : 2 channels
Channel positions : Front: L R
Sampling rate : 48.0 KHz
Bit depth : 16 bits
Compression mode : Lossy
Stream size : 136 MiB (2%)
Title : AC3 2.0 @ 192 kbps - Многоголосый, ОРТ
Language : Russian
Default : No
Forced : No
Audio #5
ID : 6
Format : FLAC
Format/Info : Free Lossless Audio Codec
Codec ID : A_FLAC
Duration : 1h 39mn
Bit rate mode : Variable
Channel(s) : 2 channels
Sampling rate : 48.0 KHz
Bit depth : 16 bits
Title : FLAC 2.0 @ 309 kbps - Многоголосый, SomeWax
Writing library : libFLAC 1.2.1 (UTC 2007-09-17)
Language : Russian
Default : No
Forced : No
Audio #6
ID : 7
Format : FLAC
Format/Info : Free Lossless Audio Codec
Codec ID : A_FLAC
Duration : 1h 39mn
Bit rate mode : Variable
Channel(s) : 2 channels
Sampling rate : 48.0 KHz
Bit depth : 16 bits
Title : FLAC 2.0 @ 309 kbps - Одноголосый, Р. Янкелевич
Writing library : libFLAC 1.2.1 (UTC 2007-09-17)
Language : Russian
Default : No
Forced : No
Audio #7
ID : 8
Format : AC-3
Format/Info : Audio Coding 3
Format profile : Dolby Digital
Mode extension : CM (complete main)
Format settings, Endianness : Big
Codec ID : A_AC3
Duration : 1h 39mn
Bit rate mode : Constant
Bit rate : 192 Kbps
Channel(s) : 2 channels
Channel positions : Front: L R
Sampling rate : 48.0 KHz
Bit depth : 16 bits
Compression mode : Lossy
Stream size : 136 MiB (2%)
Title : AC3 2.0 @ 192 kbps - Одноголосый, К. Дьяконов
Language : Russian
Default : No
Forced : No
Audio #8
ID : 9
Format : AC-3
Format/Info : Audio Coding 3
Format profile : Dolby Digital
Mode extension : CM (complete main)
Format settings, Endianness : Big
Codec ID : A_AC3
Duration : 1h 39mn
Bit rate mode : Constant
Bit rate : 192 Kbps
Channel(s) : 2 channels
Channel positions : Front: L R
Sampling rate : 48.0 KHz
Bit depth : 16 bits
Compression mode : Lossy
Stream size : 136 MiB (2%)
Title : AC3 2.0 @ 192 kbps - Многоголосый
Language : Ukrainian
Default : No
Forced : No
Audio #9
ID : 10
Format : FLAC
Format/Info : Free Lossless Audio Codec
Codec ID : A_FLAC
Duration : 1h 39mn
Bit rate mode : Variable
Channel(s) : 2 channels
Sampling rate : 48.0 KHz
Bit depth : 16 bits
Title : FLAC 2.0 @ 270 kbps
Writing library : libFLAC 1.2.1 (UTC 2007-09-17)
Language : French
Default : No
Forced : No
Text #1
ID : 11
Format : UTF-8
Codec ID : S_TEXT/UTF8
Codec ID/Info : UTF-8 Plain Text
Language : Russian
Default : No
Forced : No
Text #2
ID : 12
Format : UTF-8
Codec ID : S_TEXT/UTF8
Codec ID/Info : UTF-8 Plain Text
Language : English
Default : No
Forced : No
Text #3
ID : 13
Format : UTF-8
Codec ID : S_TEXT/UTF8
Codec ID/Info : UTF-8 Plain Text
Language : French
Default : No
Forced : No
Text #4
ID : 14
Format : PGS
Muxing mode : zlib
Codec ID : S_HDMV/PGS
Codec ID/Info : The same subtitle format used on BDs/HD-DVDs
Language : French
Default : No
Forced : No
Menu
00:00:00.000 : en:Chapter 1
00:09:05.458 : en:Chapter 2
00:16:55.916 : en:Chapter 3
00:25:09.750 : en:Chapter 4
00:33:30.541 : en:Chapter 5
00:42:18.875 : en:Chapter 6
00:50:18.041 : en:Chapter 7
00:59:56.666 : en:Chapter 8
01:07:00.166 : en:Chapter 9
01:15:11.125 : en:Chapter 10
01:26:04.333 : en:Chapter 11
01:32:35.791 : en:Chapter 12

x264 log
y4m [info]: 1280x546p 1:1 @ 24/1 fps (cfr)
x264 [info]: using SAR=1/1
x264 [info]: using cpu capabilities: MMX2 SSE2Fast SSSE3 FastShuffle SSE4.2 AVX
x264 [info]: profile High, level 4.1
x264 [info]: frame I:889 Avg QP:18.01 size:124276
x264 [info]: frame P:28842 Avg QP:19.26 size: 65080
x264 [info]: frame B:113143 Avg QP:21.33 size: 33603
x264 [info]: consecutive B-frames: 0.9% 0.9% 4.1% 24.2% 19.9% 42.2% 4.6% 1.6% 1.2% 0.4%
x264 [info]: mb I I16..4: 0.8% 87.0% 12.3%
x264 [info]: mb P I16..4: 0.1% 22.8% 1.9% P16..4: 25.1% 33.3% 16.2% 0.0% 0.0% skip: 0.6%
x264 [info]: mb B I16..4: 0.0% 4.7% 0.3% B16..8: 36.3% 26.5% 7.0% direct:14.2% skip:10.9% L0:40.6% L1:36.5% BI:22.9%
x264 [info]: 8x8 transform intra:91.9% inter:64.4%
x264 [info]: direct mvs spatial:100.0% temporal:0.0%
x264 [info]: coded y,uvDC,uvAC intra: 96.3% 88.3% 64.4% inter: 67.9% 53.1% 3.6%
x264 [info]: i16 v,h,dc,p: 50% 13% 7% 31%
x264 [info]: i8 v,h,dc,ddl,ddr,vr,hd,vl,hu: 11% 9% 9% 9% 13% 11% 13% 11% 14%
x264 [info]: i4 v,h,dc,ddl,ddr,vr,hd,vl,hu: 41% 6% 3% 5% 10% 9% 10% 7% 8%
x264 [info]: i8c dc,h,v,p: 40% 26% 19% 15%
x264 [info]: Weighted P-Frames: Y:18.7% UV:9.2%
x264 [info]: ref P L0: 34.5% 14.7% 16.0% 8.0% 6.5% 4.9% 4.5% 2.8% 2.7% 2.4% 2.5% 0.6% 0.0%
x264 [info]: ref B L0: 72.8% 10.6% 5.5% 3.1% 2.3% 2.0% 1.6% 1.1% 0.7% 0.3%
x264 [info]: ref B L1: 93.7% 6.3%
x264 [info]: kb/s:7780.09
Жандарм в Нью-Йорке / Le gendarme à New York (1965)
Жандарм в Нью-Йорке / Le gendarme à New YorkГод выпуска: 1965
Страна: Франция, Италия
Жанр: комедия
Продолжительность: 01:41:48
Перевод:
Многоголосый, НТВ+
Многоголосый, РенТВ
Многоголосый, Останкино
Дублированный
Многоголосый, SomeWax
Многоголосый, ТНТ
Одноголосый, Янкелевич Роман
Авторский, Козлов Сергей
Авторский, Дьяконов Константин

Субтитры: русские, английские, французские
Навигация по главам: есть
Режиссер: Жан Жиро / Jean Girault
Сценарий: Ришар Бальдуччи / Richard Balducci, Жан Жиро / Jean Girault, Жак Вильфрид / Jacques Vilfrid
Продюсер: Жерар Бейту / Gérard Beytout, Рене Пиньер / René Pignières
Оператор: Эдмон Сешан / Edmond Séchan
Композитор: Раймон Лефевр / Raymond Lefevre, Поль Мориа / Paul Mauriat
В ролях: Луи де Фюнес (Maréchal des logis-chef Ludovic Cruchot), Мишель Галабрю (Adjudant Jérôme Gerber), Кристиан Марен (Maréchal des Logis Albert Merlot), Ги Гроссо (Maréchal des Logis Tricard), Мишель Модо (Maréchal des Logis Berlicot), Алан Скотт (Franck), Жан Лефевр (Maréchal des Logis Lucien Fougasse), Женевьев Град (Nicole Cruchot), Марино Мазе (Aldo), Марио Пизу (L'adjudant Renzo), Альбер Ожье (Le présentateur de la publicité), Жан-Пьер Бертран (Le copain de Nicole)
Описание: Дружная бригада французских полицейских отправляется в Нью - Йорк, где им поручено представлять Францию на международном конгрессе полицейских. Крюшо, Мерло, Фугас, Трикар и Берлико во главе с сержантом Жербером пускаются в дальний путь.
Как не уронить чести мундира, если вас ждет страна соблазнов, да и по - английски вы не знаете ни слова? К тому же Крюшо с ужасом обнаруживает, что его дочь Николь, вопреки воле отца, зайцем отправляется в Нью - Йорк на поиски мужчины своей жизни. Если это откроется - его карьере конец...
Рейтинг
kinopoisk.ru: 7.616 (4 288)
imdb.com: 6.10 (2 627)
Качество: BDRip (Skazhutin)
Исходник: HDCLUB by AnryV
Формат: MKV
Видеокодек: AVC
Аудиокодек: AC3, FLAC
Видео: 1280x546 (2.344); 6817 Kbps; 24 fps
Аудио: Russian / Dolby Digital Audio / 2.0 / 48 kHz / 192 kbps |Многоголосый, НТВ+|
Аудио: Russian / Dolby Digital Audio / 2.0 / 48 kHz / 192 kbps |Многоголосый, РенТВ|
Аудио: Russian / Dolby Digital Audio / 2.0 / 48 kHz / 192 kbps |Многоголосый, Останкино|
Аудио: Russian / Dolby Digital Audio / 2.0 / 48 kHz / 192 kbps |Дублированный|
Аудио: Russian / Free Lossless Audio Codec / 2.0 / 48 kHz / 357 kbps / 16 bit |Многоголосый, SomeWax|
Аудио: Russian / Dolby Digital Audio / 2.0 / 48 kHz / 192 kbps |Многоголосый, ТНТ|
Аудио: Russian / Free Lossless Audio Codec / 2.0 / 48 kHz / 361 kbps / 16 bit |Одноголосый, Янкелевич Роман|
Аудио: Russian / Dolby Digital Audio / 2.0 / 48 kHz / 256 kbps |Авторский, Козлов Сергей|
Аудио: Russian / Dolby Digital Audio / 2.0 / 48 kHz / 256 kbps |Авторский, Дьяконов Константин|
Аудио: Ukrainian / Dolby Digital Audio / 2.0 / 48 kHz / 192 kbps |Многоголосый|
Аудио: French / Free Lossless Audio Codec / 2.0 / 48 kHz / 365 kbps / 16 bit
Субтитры: Russian, English, French
Знаете ли Вы, что...
  1. В перерыве между сьёмками Луи Де Фюнес перед публикой любил пародировать американских полицейских, за что от последних ему и был вручён комплект настоящей полицейской формы.
  2. В фильме присутствует ляп: в начале фильма во время путешествия из Сен-Тропе в Нью-Йорк, в аэропорту Парижа группа жандармов садится в черный фургончик с номером 212 3955, а во время поездки нам показывают, что они едут в точно таком же фургончике, но с номером 212 3907.





MI
General
Unique ID : 244824954341781227997821972277367324848 (0xB82F9231A4DDA0EBA2361C056D06C0B0)
Complete name : Le.gendarme.a.New.York.1965.720p.BluRay.9xRus.Ukr.Fre.HDCLUB-Skazhutin.mkv
Format : Matroska
Format version : Version 2
File size : 6.81 GiB
Duration : 1h 41mn
Overall bit rate mode : Variable
Overall bit rate : 9 583 Kbps
Movie name : Le gendarme à New York (1965) - Release for HDCLUB by Skazhutin
Encoded date : UTC 2012-10-25 17:58:25
Writing application : mkvmerge v5.8.0 ('No Sleep / Pillow') built on Sep 2 2012 15:37:04
Writing library : libebml v1.2.3 + libmatroska v1.3.0
Attachment : Yes / Yes
Video
ID : 1
Format : AVC
Format/Info : Advanced Video Codec
Format profile : [email protected]
Format settings, CABAC : Yes
Format settings, ReFrames : 11 frames
Codec ID : V_MPEG4/ISO/AVC
Duration : 1h 41mn
Width : 1 280 pixels
Height : 546 pixels
Display aspect ratio : 2.35:1
Frame rate mode : Constant
Frame rate : 24.000 fps
Color space : YUV
Chroma subsampling : 4:2:0
Bit depth : 8 bits
Scan type : Progressive
Title : Release for HDCLUB
Writing library : x264 core 128 r2216kMod 198a7ea
Encoding settings : cabac=1 / ref=11 / deblock=1:-3:-3 / analyse=0x3:0x113 / me=umh / subme=11 / psy=1 / fade_compensate=0.00 / psy_rd=1.00:0.00 / mixed_ref=1 / me_range=48 / chroma_me=1 / trellis=2 / 8x8dct=1 / cqm=0 / deadzone=21,11 / fast_pskip=1 / chroma_qp_offset=-2 / threads=12 / lookahead_threads=2 / sliced_threads=0 / nr=0 / decimate=1 / interlaced=0 / bluray_compat=0 / constrained_intra=0 / bframes=9 / b_pyramid=2 / b_adapt=2 / b_bias=0 / direct=3 / weightb=1 / open_gop=0 / weightp=2 / keyint=250 / keyint_min=24 / scenecut=40 / intra_refresh=0 / rc_lookahead=40 / rc=crf / mbtree=0 / crf=16.0000 / qcomp=0.60 / qpmin=0 / qpmax=69 / qpstep=4 / vbv_maxrate=50000 / vbv_bufsize=62500 / crf_max=0.0 / nal_hrd=none / ip_ratio=1.40 / pb_ratio=1.30 / aq=1:0.80
Language : French
Default : Yes
Forced : No
Matrix coefficients : BT.709
Audio #1
ID : 2
Format : AC-3
Format/Info : Audio Coding 3
Format profile : Dolby Digital
Mode extension : CM (complete main)
Format settings, Endianness : Big
Codec ID : A_AC3
Duration : 1h 41mn
Bit rate mode : Constant
Bit rate : 192 Kbps
Channel(s) : 2 channels
Channel positions : Front: L R
Sampling rate : 48.0 KHz
Bit depth : 16 bits
Compression mode : Lossy
Stream size : 140 MiB (2%)
Title : AC3 2.0 @ 192 kbps - Многоголосый, НТВ+
Language : Russian
Default : Yes
Forced : No
Audio #2
ID : 3
Format : AC-3
Format/Info : Audio Coding 3
Format profile : Dolby Digital
Mode extension : CM (complete main)
Format settings, Endianness : Big
Codec ID : A_AC3
Duration : 1h 41mn
Bit rate mode : Constant
Bit rate : 192 Kbps
Channel(s) : 2 channels
Channel positions : Front: L R
Sampling rate : 48.0 KHz
Bit depth : 16 bits
Compression mode : Lossy
Stream size : 140 MiB (2%)
Title : AC3 2.0 @ 192 kbps - Многоголосый, РенТВ
Language : Russian
Default : No
Forced : No
Audio #3
ID : 4
Format : AC-3
Format/Info : Audio Coding 3
Format profile : Dolby Digital
Mode extension : CM (complete main)
Format settings, Endianness : Big
Codec ID : A_AC3
Duration : 1h 41mn
Bit rate mode : Constant
Bit rate : 192 Kbps
Channel(s) : 2 channels
Channel positions : Front: L R
Sampling rate : 48.0 KHz
Bit depth : 16 bits
Compression mode : Lossy
Stream size : 140 MiB (2%)
Title : AC3 2.0 @ 192 kbps - Многоголосый, Останкино
Language : Russian
Default : No
Forced : No
Audio #4
ID : 5
Format : AC-3
Format/Info : Audio Coding 3
Format profile : Dolby Digital
Mode extension : CM (complete main)
Format settings, Endianness : Big
Codec ID : A_AC3
Duration : 1h 41mn
Bit rate mode : Constant
Bit rate : 192 Kbps
Channel(s) : 2 channels
Channel positions : Front: L R
Sampling rate : 48.0 KHz
Bit depth : 16 bits
Compression mode : Lossy
Stream size : 140 MiB (2%)
Title : AC3 2.0 @ 192 kbps - Дублированный
Language : Russian
Default : No
Forced : No
Audio #5
ID : 6
Format : FLAC
Format/Info : Free Lossless Audio Codec
Codec ID : A_FLAC
Duration : 1h 41mn
Bit rate mode : Variable
Channel(s) : 2 channels
Sampling rate : 48.0 KHz
Bit depth : 16 bits
Title : FLAC 2.0 @ 357 kbps - Многоголосый, SomeWax
Writing library : libFLAC 1.2.1 (UTC 2007-09-17)
Language : Russian
Default : No
Forced : No
Audio #6
ID : 7
Format : AC-3
Format/Info : Audio Coding 3
Format profile : Dolby Digital
Mode extension : CM (complete main)
Format settings, Endianness : Big
Codec ID : A_AC3
Duration : 1h 41mn
Bit rate mode : Constant
Bit rate : 192 Kbps
Channel(s) : 2 channels
Channel positions : Front: L R
Sampling rate : 48.0 KHz
Bit depth : 16 bits
Compression mode : Lossy
Stream size : 140 MiB (2%)
Title : AC3 2.0 @ 192 kbps - Многоголосый, ТНТ
Language : Russian
Default : No
Forced : No
Audio #7
ID : 8
Format : FLAC
Format/Info : Free Lossless Audio Codec
Codec ID : A_FLAC
Duration : 1h 41mn
Bit rate mode : Variable
Channel(s) : 2 channels
Sampling rate : 48.0 KHz
Bit depth : 16 bits
Title : FLAC 2.0 @ 361 kbps - Одноголосый, Р. Янкелевич
Writing library : libFLAC 1.2.1 (UTC 2007-09-17)
Language : Russian
Default : No
Forced : No
Audio #8
ID : 9
Format : AC-3
Format/Info : Audio Coding 3
Format profile : Dolby Digital
Mode extension : CM (complete main)
Format settings, Endianness : Big
Codec ID : A_AC3
Duration : 1h 41mn
Bit rate mode : Constant
Bit rate : 256 Kbps
Channel(s) : 2 channels
Channel positions : Front: L R
Sampling rate : 48.0 KHz
Bit depth : 16 bits
Compression mode : Lossy
Stream size : 186 MiB (3%)
Title : AC3 2.0 @ 256 kbps - Одноголосый, С. Козлов
Language : Russian
Default : No
Forced : No
Audio #9
ID : 10
Format : AC-3
Format/Info : Audio Coding 3
Format profile : Dolby Digital
Mode extension : CM (complete main)
Format settings, Endianness : Big
Codec ID : A_AC3
Duration : 1h 41mn
Bit rate mode : Constant
Bit rate : 256 Kbps
Channel(s) : 2 channels
Channel positions : Front: L R
Sampling rate : 48.0 KHz
Bit depth : 16 bits
Compression mode : Lossy
Stream size : 186 MiB (3%)
Title : AC3 2.0 @ 256 kbps - Одноголосый, К. Дьяконов
Language : Russian
Default : No
Forced : No
Audio #10
ID : 11
Format : AC-3
Format/Info : Audio Coding 3
Format profile : Dolby Digital
Mode extension : CM (complete main)
Format settings, Endianness : Big
Codec ID : A_AC3
Duration : 1h 41mn
Bit rate mode : Constant
Bit rate : 192 Kbps
Channel(s) : 2 channels
Channel positions : Front: L R
Sampling rate : 48.0 KHz
Bit depth : 16 bits
Compression mode : Lossy
Stream size : 140 MiB (2%)
Title : AC3 2.0 @ 192 kbps - Многоголосый
Language : Ukrainian
Default : No
Forced : No
Audio #11
ID : 12
Format : FLAC
Format/Info : Free Lossless Audio Codec
Codec ID : A_FLAC
Duration : 1h 41mn
Bit rate mode : Variable
Channel(s) : 2 channels
Sampling rate : 48.0 KHz
Bit depth : 16 bits
Title : FLAC 2.0 @ 365 kbps
Writing library : libFLAC 1.2.1 (UTC 2007-09-17)
Language : French
Default : No
Forced : No
Text #1
ID : 13
Format : UTF-8
Codec ID : S_TEXT/UTF8
Codec ID/Info : UTF-8 Plain Text
Language : Russian
Default : No
Forced : No
Text #2
ID : 14
Format : UTF-8
Codec ID : S_TEXT/UTF8
Codec ID/Info : UTF-8 Plain Text
Language : English
Default : No
Forced : No
Text #3
ID : 15
Format : UTF-8
Codec ID : S_TEXT/UTF8
Codec ID/Info : UTF-8 Plain Text
Language : French
Default : No
Forced : No
Text #4
ID : 16
Format : PGS
Muxing mode : zlib
Codec ID : S_HDMV/PGS
Codec ID/Info : The same subtitle format used on BDs/HD-DVDs
Language : French
Default : No
Forced : No
Menu
00:00:00.000 : en:Chapter 1
00:08:30.916 : en:Chapter 2
00:17:17.083 : en:Chapter 3
00:24:51.083 : en:Chapter 4
00:34:03.166 : en:Chapter 5
00:40:10.291 : en:Chapter 6
00:52:06.291 : en:Chapter 7
01:00:44.041 : en:Chapter 8
01:06:47.583 : en:Chapter 9
01:15:35.541 : en:Chapter 10
01:23:16.416 : en:Chapter 11
01:31:39.250 : en:Chapter 12

x264 log
y4m [info]: 1280x546p 1:1 @ 24/1 fps (cfr)
x264 [info]: using SAR=1/1
x264 [info]: using cpu capabilities: MMX2 SSE2Fast SSSE3 FastShuffle SSE4.2 AVX
x264 [info]: profile High, level 4.1
x264 [info]: frame I:939 Avg QP:17.42 size:119880
x264 [info]: frame P:30610 Avg QP:18.78 size: 58919
x264 [info]: frame B:115045 Avg QP:20.75 size: 28590
x264 [info]: consecutive B-frames: 1.0% 1.2% 5.2% 27.5% 20.4% 38.1% 3.8% 1.5% 0.7% 0.5%
x264 [info]: mb I I16..4: 0.7% 86.1% 13.2%
x264 [info]: mb P I16..4: 0.1% 20.0% 1.8% P16..4: 26.2% 34.9% 16.6% 0.0% 0.0% skip: 0.4%
x264 [info]: mb B I16..4: 0.0% 3.2% 0.2% B16..8: 36.7% 26.7% 6.7% direct:12.8% skip:13.6% L0:41.2% L1:37.8% BI:21.0%
x264 [info]: 8x8 transform intra:91.2% inter:63.2%
x264 [info]: direct mvs spatial:99.9% temporal:0.1%
x264 [info]: coded y,uvDC,uvAC intra: 96.5% 88.4% 62.1% inter: 62.7% 47.8% 3.5%
x264 [info]: i16 v,h,dc,p: 46% 14% 5% 35%
x264 [info]: i8 v,h,dc,ddl,ddr,vr,hd,vl,hu: 12% 8% 9% 9% 13% 12% 13% 11% 13%
x264 [info]: i4 v,h,dc,ddl,ddr,vr,hd,vl,hu: 36% 6% 3% 6% 11% 11% 11% 8% 8%
x264 [info]: i8c dc,h,v,p: 38% 26% 22% 14%
x264 [info]: Weighted P-Frames: Y:13.4% UV:4.6%
x264 [info]: ref P L0: 34.9% 14.9% 16.9% 7.5% 6.3% 4.7% 4.4% 2.7% 2.6% 2.3% 2.4% 0.5% 0.0%
x264 [info]: ref B L0: 72.8% 10.8% 5.5% 3.1% 2.3% 1.9% 1.6% 1.1% 0.7% 0.4%
x264 [info]: ref B L1: 93.9% 6.1%
x264 [info]: kb/s:6817.39
Жандарм женится / Le gendarme se marie (1968)
Жандарм женится / Le gendarme se marieГод выпуска: 1968
Страна: Франция, Италия
Жанр: комедия
Продолжительность: 01:29:18
Перевод:
Многоголосый, НТВ+
Многоголосый, РенТВ
Многоголосый, Останкино
Многоголосый, ОРТ
Многоголосый, SomeWax
Дублированный
Авторский, Козлов Сергей
Авторский, Дьяконов Константин

Субтитры: русские, английские, французские
Навигация по главам: есть
Режиссер: Жан Жиро / Jean Girault
Сценарий: Ришар Бальдуччи / Richard Balducci, Жан Жиро / Jean Girault, Жак Вильфрид / Jacques Vilfrid
Продюсер: Жерар Бейту / Gérard Beytout, Рене Пиньер / René Pignières
Оператор: Марсель Гриньон / Marcel Grignon
Композитор: Раймон Лефевр / Raymond Lefevre
В ролях: Луи де Фюнес (Maréchal des Logis-chef Ludovic Cruchot), Жан Лефевр (Maréchal des Logis Lucien Fougasse), Женевьев Град (Nicole Cruchot), Кристиан Марен (Maréchal des Logis Albert Merlot), Ив Венсан (Le colonel), Ги Гроссо (Maréchal des Logis Berlicot), Мишель Модо (Maréchal des Logis Tricard), Маурицио Бонулья (L'ami de Nicole / Nicole's Fiance), Марио Давид (Le malfrat), Клоди Жансак (Josépha Cruchot), Мишель Галабрю (Adjudant Jérôme Gerber), Николь Вервиль (Mme Gerber)
Описание: Пробил долгожданный «Час Икс». На календаре у старшины жандармов первое июля, а это значит, что во Франции настало время всеобщих отпусков.
Толпы обезумевших от жажды развлечений туристов ринулись к морю, и наши старые знакомые - блюстители порядка из курортного Сен-Тропе - должны во что бы то ни стало, любой ценой сдержать бурный натиск отдыхающих.
И вот, за отчаянно-быструю езду по горным дорогам Крюшо арестовывает очаровательную Жозефу, которая оказывается вдовой полковника жандармерии.
Описание: Дружная бригада французских полицейских отправляется в Нью - Йорк, где им поручено представлять Францию на международном конгрессе полицейских. Крюшо, Мерло, Фугас, Трикар и Берлико во главе с сержантом Жербером пускаются в дальний путь.
Как не уронить чести мундира, если вас ждет страна соблазнов, да и по - английски вы не знаете ни слова? К тому же Крюшо с ужасом обнаруживает, что его дочь Николь, вопреки воле отца, зайцем отправляется в Нью - Йорк на поиски мужчины своей жизни. Если это откроется - его карьере конец...
Рейтинг
kinopoisk.ru: 7.702 (4 750)
imdb.com: 6.50 (2 554)
Качество: BDRip (Skazhutin)
Исходник: HDCLUB by AnryV
Формат: MKV
Видеокодек: AVC
Аудиокодек: AC3, FLAC
Видео: 1280x546 (2.344); 9561 Kbps; 24 fps
Аудио: Russian / Dolby Digital Audio / 2.0 / 48 kHz / 192 kbps |Многоголосый, НТВ+|
Аудио: Russian / Dolby Digital Audio / 2.0 / 48 kHz / 192 kbps |Многоголосый, РенТВ|
Аудио: Russian / Dolby Digital Audio / 2.0 / 48 kHz / 192 kbps |Многоголосый, Останкино|
Аудио: Russian / Dolby Digital Audio / 2.0 / 48 kHz / 192 kbps |Многоголосый, ОРТ|
Аудио: Russian / Free Lossless Audio Codec / 2.0 / 48 kHz / 346 kbps / 16 bit |Многоголосый, SomeWax|
Аудио: Russian / Dolby Digital Audio / 2.0 / 48 kHz / 192 kbps |Дублированный|
Аудио: Russian / Dolby Digital Audio / 2.0 / 48 kHz / 192 kbps |Авторский, Козлов Сергей|
Аудио: Russian / Dolby Digital Audio / 2.0 / 48 kHz / 192 kbps |Авторский, Дьяконов Константин|
Аудио: Ukrainian / Dolby Digital Audio / 2.0 / 48 kHz / 192 kbps |Многоголосый|
Аудио: French / Free Lossless Audio Codec / 2.0 / 48 kHz / 346 kbps / 16 bit
Субтитры: Russian, English, French
Знаете ли Вы, что...
  1. Фильм занимает 38-е место по посещаемости среди зарубежных лент в советском кинопрокате.





MI
General
Unique ID : 221824605488156064859880149388192265684 (0xA6E1DD715EF2A366A01C5A00810635D4)
Complete name : Le.gendarme.se.marie.1968.720p.BluRay.8xRus.Ukr.Fre.HDCLUB-Skazhutin.mkv
Format : Matroska
Format version : Version 2
File size : 7.37 GiB
Duration : 1h 29mn
Overall bit rate mode : Variable
Overall bit rate : 11.8 Mbps
Movie name : Le gendarme se marie (1968) - Release for HDCLUB by Skazhutin
Encoded date : UTC 2012-10-25 18:39:55
Writing application : mkvmerge v5.8.0 ('No Sleep / Pillow') built on Sep 2 2012 15:37:04
Writing library : libebml v1.2.3 + libmatroska v1.3.0
Attachment : Yes / Yes
Video
ID : 1
Format : AVC
Format/Info : Advanced Video Codec
Format profile : [email protected]
Format settings, CABAC : Yes
Format settings, ReFrames : 5 frames
Codec ID : V_MPEG4/ISO/AVC
Duration : 1h 29mn
Width : 1 280 pixels
Height : 546 pixels
Display aspect ratio : 2.35:1
Frame rate mode : Constant
Frame rate : 24.000 fps
Color space : YUV
Chroma subsampling : 4:2:0
Bit depth : 8 bits
Scan type : Progressive
Title : Release for HDCLUB
Writing library : x264 core 128 r2216kMod 198a7ea
Encoding settings : cabac=1 / ref=5 / deblock=1:-3:-3 / analyse=0x3:0x113 / me=umh / subme=11 / psy=1 / fade_compensate=0.00 / psy_rd=1.00:0.00 / mixed_ref=1 / me_range=48 / chroma_me=1 / trellis=2 / 8x8dct=1 / cqm=0 / deadzone=21,11 / fast_pskip=1 / chroma_qp_offset=-2 / threads=12 / lookahead_threads=2 / sliced_threads=0 / nr=0 / decimate=1 / interlaced=0 / bluray_compat=0 / constrained_intra=0 / bframes=16 / b_pyramid=2 / b_adapt=2 / b_bias=0 / direct=3 / weightb=1 / open_gop=0 / weightp=2 / keyint=250 / keyint_min=24 / scenecut=40 / intra_refresh=0 / rc_lookahead=240 / rc=crf / mbtree=1 / crf=22.2000 / qcomp=0.90 / qpmin=0 / qpmax=69 / qpstep=4 / vbv_maxrate=50000 / vbv_bufsize=62500 / crf_max=0.0 / nal_hrd=none / ip_ratio=1.10 / aq=1:0.50
Language : French
Default : Yes
Forced : No
Matrix coefficients : BT.709
Audio #1
ID : 2
Format : AC-3
Format/Info : Audio Coding 3
Format profile : Dolby Digital
Mode extension : CM (complete main)
Format settings, Endianness : Big
Codec ID : A_AC3
Duration : 1h 29mn
Bit rate mode : Constant
Bit rate : 192 Kbps
Channel(s) : 2 channels
Channel positions : Front: L R
Sampling rate : 48.0 KHz
Bit depth : 16 bits
Compression mode : Lossy
Stream size : 123 MiB (2%)
Title : AC3 2.0 @ 192 kbps - Многоголосый, НТВ+
Language : Russian
Default : Yes
Forced : No
Audio #2
ID : 3
Format : AC-3
Format/Info : Audio Coding 3
Format profile : Dolby Digital
Mode extension : CM (complete main)
Format settings, Endianness : Big
Codec ID : A_AC3
Duration : 1h 29mn
Bit rate mode : Constant
Bit rate : 192 Kbps
Channel(s) : 2 channels
Channel positions : Front: L R
Sampling rate : 48.0 KHz
Bit depth : 16 bits
Compression mode : Lossy
Stream size : 123 MiB (2%)
Title : AC3 2.0 @ 192 kbps - Многоголосый, РенТВ
Language : Russian
Default : No
Forced : No
Audio #3
ID : 4
Format : AC-3
Format/Info : Audio Coding 3
Format profile : Dolby Digital
Mode extension : CM (complete main)
Format settings, Endianness : Big
Codec ID : A_AC3
Duration : 1h 29mn
Bit rate mode : Constant
Bit rate : 192 Kbps
Channel(s) : 2 channels
Channel positions : Front: L R
Sampling rate : 48.0 KHz
Bit depth : 16 bits
Compression mode : Lossy
Stream size : 123 MiB (2%)
Title : AC3 2.0 @ 192 kbps - Многоголосый, Останкино
Language : Russian
Default : No
Forced : No
Audio #4
ID : 5
Format : AC-3
Format/Info : Audio Coding 3
Format profile : Dolby Digital
Mode extension : CM (complete main)
Format settings, Endianness : Big
Codec ID : A_AC3
Duration : 1h 29mn
Bit rate mode : Constant
Bit rate : 192 Kbps
Channel(s) : 2 channels
Channel positions : Front: L R
Sampling rate : 48.0 KHz
Bit depth : 16 bits
Compression mode : Lossy
Stream size : 123 MiB (2%)
Title : AC3 2.0 @ 192 kbps - Многоголосый, ОРТ
Language : Russian
Default : No
Forced : No
Audio #5
ID : 6
Format : FLAC
Format/Info : Free Lossless Audio Codec
Codec ID : A_FLAC
Duration : 1h 29mn
Bit rate mode : Variable
Channel(s) : 2 channels
Sampling rate : 48.0 KHz
Bit depth : 16 bits
Title : FLAC 2.0 @ 346 kbps - Многоголосый, SomeWax
Writing library : libFLAC 1.2.1 (UTC 2007-09-17)
Language : Russian
Default : No
Forced : No
Audio #6
ID : 7
Format : AC-3
Format/Info : Audio Coding 3
Format profile : Dolby Digital
Mode extension : CM (complete main)
Format settings, Endianness : Big
Codec ID : A_AC3
Duration : 1h 29mn
Bit rate mode : Constant
Bit rate : 192 Kbps
Channel(s) : 2 channels
Channel positions : Front: L R
Sampling rate : 48.0 KHz
Bit depth : 16 bits
Compression mode : Lossy
Stream size : 123 MiB (2%)
Title : AC3 2.0 @ 192 kbps - Дублированный
Language : Russian
Default : No
Forced : No
Audio #7
ID : 8
Format : AC-3
Format/Info : Audio Coding 3
Format profile : Dolby Digital
Mode extension : CM (complete main)
Format settings, Endianness : Big
Codec ID : A_AC3
Duration : 1h 29mn
Bit rate mode : Constant
Bit rate : 192 Kbps
Channel(s) : 2 channels
Channel positions : Front: L R
Sampling rate : 48.0 KHz
Bit depth : 16 bits
Compression mode : Lossy
Stream size : 123 MiB (2%)
Title : AC3 2.0 @ 192 kbps - Одноголосый, С. Козлов
Language : Russian
Default : No
Forced : No
Audio #8
ID : 9
Format : AC-3
Format/Info : Audio Coding 3
Format profile : Dolby Digital
Mode extension : CM (complete main)
Format settings, Endianness : Big
Codec ID : A_AC3
Duration : 1h 29mn
Bit rate mode : Constant
Bit rate : 192 Kbps
Channel(s) : 2 channels
Channel positions : Front: L R
Sampling rate : 48.0 KHz
Bit depth : 16 bits
Compression mode : Lossy
Stream size : 123 MiB (2%)
Title : AC3 2.0 @ 192 kbps - Одноголосый, К. Дьяконов
Language : Russian
Default : No
Forced : No
Audio #9
ID : 10
Format : AC-3
Format/Info : Audio Coding 3
Format profile : Dolby Digital
Mode extension : CM (complete main)
Format settings, Endianness : Big
Codec ID : A_AC3
Duration : 1h 29mn
Bit rate mode : Constant
Bit rate : 192 Kbps
Channel(s) : 2 channels
Channel positions : Front: L R
Sampling rate : 48.0 KHz
Bit depth : 16 bits
Compression mode : Lossy
Stream size : 123 MiB (2%)
Title : AC3 2.0 @ 192 kbps - Многоголосый
Language : Ukrainian
Default : No
Forced : No
Audio #10
ID : 11
Format : FLAC
Format/Info : Free Lossless Audio Codec
Codec ID : A_FLAC
Duration : 1h 29mn
Bit rate mode : Variable
Channel(s) : 2 channels
Sampling rate : 48.0 KHz
Bit depth : 16 bits
Title : FLAC 2.0 @ 346 kbps
Writing library : libFLAC 1.2.1 (UTC 2007-09-17)
Language : French
Default : No
Forced : No
Text #1
ID : 12
Format : UTF-8
Codec ID : S_TEXT/UTF8
Codec ID/Info : UTF-8 Plain Text
Language : Russian
Default : No
Forced : No
Text #2
ID : 13
Format : UTF-8
Codec ID : S_TEXT/UTF8
Codec ID/Info : UTF-8 Plain Text
Language : English
Default : No
Forced : No
Text #3
ID : 14
Format : UTF-8
Codec ID : S_TEXT/UTF8
Codec ID/Info : UTF-8 Plain Text
Language : French
Default : No
Forced : No
Text #4
ID : 15
Format : PGS
Muxing mode : zlib
Codec ID : S_HDMV/PGS
Codec ID/Info : The same subtitle format used on BDs/HD-DVDs
Language : French
Default : No
Forced : No
Menu
00:00:00.000 : en:Chapter 1
00:08:47.000 : en:Chapter 2
00:20:16.875 : en:Chapter 3
00:24:52.875 : en:Chapter 4
00:34:28.375 : en:Chapter 5
00:42:13.125 : en:Chapter 6
00:50:15.541 : en:Chapter 7
00:58:03.875 : en:Chapter 8
01:06:03.000 : en:Chapter 9
01:15:34.041 : en:Chapter 10
01:20:01.291 : en:Chapter 11
01:24:57.541 : en:Chapter 12

x264 log
y4m [info]: 1280x546p 1:1 @ 24/1 fps (cfr)
x264 [info]: using SAR=1/1
x264 [info]: using cpu capabilities: MMX2 SSE2Fast SSSE3 FastShuffle SSE4.2 AVX
x264 [info]: profile High, level 4.1
x264 [info]: frame I:820 Avg QP:22.45 size:110712
x264 [info]: frame P:24845 Avg QP:23.48 size: 62351
x264 [info]: frame B:102944 Avg QP:24.19 size: 46286
x264 [info]: consecutive B-frames: 1.0% 0.8% 3.4% 18.7% 15.2% 50.5% 5.0% 1.3% 2.6% 0.3% 0.5% 0.3% 0.1% 0.1% 0.1% 0.0% 0.1%
x264 [info]: mb I I16..4: 1.3% 87.9% 10.8%
x264 [info]: mb P I16..4: 0.2% 17.8% 1.7% P16..4: 25.8% 37.7% 15.5% 0.0% 0.0% skip: 1.4%
x264 [info]: mb B I16..4: 0.0% 7.5% 0.4% B16..8: 41.0% 23.1% 7.3% direct:14.4% skip: 6.2% L0:40.8% L1:39.5% BI:19.7%
x264 [info]: 8x8 transform intra:92.9% inter:63.5%
x264 [info]: direct mvs spatial:100.0% temporal:0.0%
x264 [info]: coded y,uvDC,uvAC intra: 96.9% 71.1% 27.6% inter: 78.6% 37.4% 1.5%
x264 [info]: i16 v,h,dc,p: 44% 26% 9% 21%
x264 [info]: i8 v,h,dc,ddl,ddr,vr,hd,vl,hu: 10% 7% 9% 10% 14% 13% 13% 11% 12%
x264 [info]: i4 v,h,dc,ddl,ddr,vr,hd,vl,hu: 38% 5% 4% 6% 11% 10% 10% 8% 8%
x264 [info]: i8c dc,h,v,p: 33% 30% 20% 17%
x264 [info]: Weighted P-Frames: Y:15.1% UV:1.9%
x264 [info]: ref P L0: 39.6% 13.9% 21.2% 12.5% 10.7% 2.1% 0.0%
x264 [info]: ref B L0: 75.9% 16.5% 5.9% 1.8%
x264 [info]: ref B L1: 92.0% 8.0%
x264 [info]: kb/s:9561.61
Жандарм на отдыхе / Le gendarme en balade (1970)
Жандарм на отдыхе / Le gendarme en baladeГод выпуска: 1970
Страна: Италия, Франция
Жанр: комедия
Продолжительность: 01:40:21
Перевод:
Многоголосый, НТВ+
Многоголосый, РенТВ
Многоголосый, Останкино
Многоголосый, ОРТ
Многоголосый, SomeWax
Авторский, Дьяконов Константин

Субтитры: русские, английские, французские
Навигация по главам: есть
Режиссер: Жан Жиро / Jean Girault
Сценарий: Ришар Бальдуччи / Richard Balducci, Жан Жиро / Jean Girault, Жак Вильфрид / Jacques Vilfrid
Продюсер: Рене Пиньер / René Pignières, Жерар Бейту / Gérard Beytout
Оператор: Пьер Монтазель / Pierre Montazel
Композитор: Раймон Лефевр / Raymond Lefevre
В ролях: Луи де Фюнес (Maréchal des logis-chef Ludovic Cruchot), Мишель Галабрю (Adjudant Jérôme Gerber), Жан Лефевр (Maréchal des Logis Lucien Fougasse), Ги Гроссо (Maréchal des Logis Tricard), Мишель Модо (Maréchal des Logis Berlicot), Николь Вервиль (Mme Gerber), Франс Румилли (La m re supérieure), Ив Венсан (Le colonel de gendarmerie examinateur), Кристиан Марен (Maréchal des Logis Albert Merlot), Клоди Жансак (Josépha Cruchot), Сара Франкетти (Soeur Marie-Bénédicte), Уго Фангареджи (Un hippie)
Описание: Всему приходит конец. Начальство сочло наших героев слишком старыми и отправило их на заслуженный отдых. Это трагический момент в жизни такого мужественного офицера как сержант Крюшо.
Запершись в роскошном замке своей жены, он предается унынию. Приезд бывшего начальника Жербера выводит его из спячки. Они собирают своих подчиненных, надевают любимую жандармскую форму и отправляются навстречу новым подвигам.
Рейтинг
kinopoisk.ru: 7.643 (4 955)
imdb.com: 6.10 (2 157)
Качество: BDRip (Skazhutin)
Исходник: HDCLUB by AnryV
Формат: MKV
Видеокодек: AVC
Аудиокодек: AC3, FLAC
Видео: 1280x540 (2.370); 9415 Kbps; 24 fps
Аудио: Russian / Dolby Digital Audio / 2.0 / 48 kHz / 192 kbps |Многоголосый, НТВ+|
Аудио: Russian / Dolby Digital Audio / 2.0 / 48 kHz / 192 kbps |Многоголосый, РенТВ|
Аудио: Russian / Dolby Digital Audio / 2.0 / 48 kHz / 192 kbps |Многоголосый, Останкино|
Аудио: Russian / Dolby Digital Audio / 2.0 / 48 kHz / 192 kbps |Многоголосый, ОРТ|
Аудио: Russian / Free Lossless Audio Codec / 2.0 / 48 kHz / 334 kbps / 16 bit |Многоголосый, SomeWax|
Аудио: Russian / Dolby Digital Audio / 2.0 / 48 kHz / 192 kbps |Авторский, Дьяконов Константин|
Аудио: Ukrainian / Dolby Digital Audio / 2.0 / 48 kHz / 192 kbps |Многоголосый|
Аудио: French / Free Lossless Audio Codec / 2.0 / 48 kHz / 333 kbps / 16 bit
Субтитры: Russian, English, French
Знаете ли Вы, что...
  1. В пансионате Фугас и Крюшо играют в петанк - популярную французскую игру.





MI
General
Unique ID : 171754209733590213476423999096171807183 (0x8136A855DAF8574BB596BE0B877841CF)
Complete name : Le.gendarme.en.balade.1970.720p.BluRay.6xRus.Ukr.Fre.HDCLUB-Skazhutin.mkv
Format : Matroska
Format version : Version 2
File size : 7.89 GiB
Duration : 1h 40mn
Overall bit rate mode : Variable
Overall bit rate : 11.3 Mbps
Movie name : Le gendarme en balade (1970) - Release for HDCLUB by Skazhutin
Encoded date : UTC 2012-10-26 07:01:34
Writing application : mkvmerge v5.8.0 ('No Sleep / Pillow') built on Sep 2 2012 15:37:04
Writing library : libebml v1.2.3 + libmatroska v1.3.0
Attachment : Yes / Yes
Video
ID : 1
Format : AVC
Format/Info : Advanced Video Codec
Format profile : [email protected]
Format settings, CABAC : Yes
Format settings, ReFrames : 5 frames
Codec ID : V_MPEG4/ISO/AVC
Duration : 1h 40mn
Width : 1 280 pixels
Height : 540 pixels
Display aspect ratio : 2.40:1
Frame rate mode : Constant
Frame rate : 24.000 fps
Color space : YUV
Chroma subsampling : 4:2:0
Bit depth : 8 bits
Scan type : Progressive
Title : Release for HDCLUB
Writing library : x264 core 128 r2216kMod 198a7ea
Encoding settings : cabac=1 / ref=5 / deblock=1:-3:-3 / analyse=0x3:0x113 / me=umh / subme=11 / psy=1 / fade_compensate=0.00 / psy_rd=1.00:0.00 / mixed_ref=1 / me_range=48 / chroma_me=1 / trellis=2 / 8x8dct=1 / cqm=0 / deadzone=21,11 / fast_pskip=1 / chroma_qp_offset=-2 / threads=12 / lookahead_threads=2 / sliced_threads=0 / nr=0 / decimate=1 / interlaced=0 / bluray_compat=0 / constrained_intra=0 / bframes=16 / b_pyramid=2 / b_adapt=2 / b_bias=0 / direct=3 / weightb=1 / open_gop=0 / weightp=2 / keyint=250 / keyint_min=24 / scenecut=40 / intra_refresh=0 / rc_lookahead=240 / rc=crf / mbtree=1 / crf=20.2000 / qcomp=0.90 / qpmin=0 / qpmax=69 / qpstep=4 / vbv_maxrate=50000 / vbv_bufsize=62500 / crf_max=0.0 / nal_hrd=none / ip_ratio=1.10 / aq=1:0.50
Language : French
Default : Yes
Forced : No
Matrix coefficients : BT.709
Audio #1
ID : 2
Format : AC-3
Format/Info : Audio Coding 3
Format profile : Dolby Digital
Mode extension : CM (complete main)
Format settings, Endianness : Big
Codec ID : A_AC3
Duration : 1h 40mn
Bit rate mode : Constant
Bit rate : 192 Kbps
Channel(s) : 2 channels
Channel positions : Front: L R
Sampling rate : 48.0 KHz
Bit depth : 16 bits
Compression mode : Lossy
Stream size : 138 MiB (2%)
Title : AC3 2.0 @ 192 kbps - Многоголосый, НТВ+
Language : Russian
Default : Yes
Forced : No
Audio #2
ID : 3
Format : AC-3
Format/Info : Audio Coding 3
Format profile : Dolby Digital
Mode extension : CM (complete main)
Format settings, Endianness : Big
Codec ID : A_AC3
Duration : 1h 40mn
Bit rate mode : Constant
Bit rate : 192 Kbps
Channel(s) : 2 channels
Channel positions : Front: L R
Sampling rate : 48.0 KHz
Bit depth : 16 bits
Compression mode : Lossy
Stream size : 138 MiB (2%)
Title : AC3 2.0 @ 192 kbps - Многоголосый, РенТВ
Language : Russian
Default : No
Forced : No
Audio #3
ID : 4
Format : AC-3
Format/Info : Audio Coding 3
Format profile : Dolby Digital
Mode extension : CM (complete main)
Format settings, Endianness : Big
Codec ID : A_AC3
Duration : 1h 40mn
Bit rate mode : Constant
Bit rate : 192 Kbps
Channel(s) : 2 channels
Channel positions : Front: L R
Sampling rate : 48.0 KHz
Bit depth : 16 bits
Compression mode : Lossy
Stream size : 138 MiB (2%)
Title : AC3 2.0 @ 192 kbps - Многоголосый, Останкино
Language : Russian
Default : No
Forced : No
Audio #4
ID : 5
Format : AC-3
Format/Info : Audio Coding 3
Format profile : Dolby Digital
Mode extension : CM (complete main)
Format settings, Endianness : Big
Codec ID : A_AC3
Duration : 1h 40mn
Bit rate mode : Constant
Bit rate : 192 Kbps
Channel(s) : 2 channels
Channel positions : Front: L R
Sampling rate : 48.0 KHz
Bit depth : 16 bits
Compression mode : Lossy
Stream size : 138 MiB (2%)
Title : AC3 2.0 @ 192 kbps - Многоголосый, ОРТ
Language : Russian
Default : No
Forced : No
Audio #5
ID : 6
Format : FLAC
Format/Info : Free Lossless Audio Codec
Codec ID : A_FLAC
Duration : 1h 40mn
Bit rate mode : Variable
Channel(s) : 2 channels
Sampling rate : 48.0 KHz
Bit depth : 16 bits
Title : FLAC 2.0 @ 334 kbps - Многоголосый, SomeWax
Writing library : libFLAC 1.2.1 (UTC 2007-09-17)
Language : Russian
Default : No
Forced : No
Audio #6
ID : 7
Format : AC-3
Format/Info : Audio Coding 3
Format profile : Dolby Digital
Mode extension : CM (complete main)
Format settings, Endianness : Big
Codec ID : A_AC3
Duration : 1h 40mn
Bit rate mode : Constant
Bit rate : 192 Kbps
Channel(s) : 2 channels
Channel positions : Front: L R
Sampling rate : 48.0 KHz
Bit depth : 16 bits
Compression mode : Lossy
Stream size : 138 MiB (2%)
Title : AC3 2.0 @ 192 kbps - Одноголосый, К. Дьяконов
Language : Russian
Default : No
Forced : No
Audio #7
ID : 8
Format : AC-3
Format/Info : Audio Coding 3
Format profile : Dolby Digital
Mode extension : CM (complete main)
Format settings, Endianness : Big
Codec ID : A_AC3
Duration : 1h 40mn
Bit rate mode : Constant
Bit rate : 192 Kbps
Channel(s) : 2 channels
Channel positions : Front: L R
Sampling rate : 48.0 KHz
Bit depth : 16 bits
Compression mode : Lossy
Stream size : 138 MiB (2%)
Title : AC3 2.0 @ 192 kbps - Многоголосый
Language : Ukrainian
Default : No
Forced : No
Audio #8
ID : 9
Format : FLAC
Format/Info : Free Lossless Audio Codec
Codec ID : A_FLAC
Duration : 1h 40mn
Bit rate mode : Variable
Channel(s) : 2 channels
Sampling rate : 48.0 KHz
Bit depth : 16 bits
Title : FLAC 2.0 @ 333 kbps
Writing library : libFLAC 1.2.1 (UTC 2007-09-17)
Language : French
Default : No
Forced : No
Text #1
ID : 10
Format : UTF-8
Codec ID : S_TEXT/UTF8
Codec ID/Info : UTF-8 Plain Text
Language : Russian
Default : No
Forced : No
Text #2
ID : 11
Format : UTF-8
Codec ID : S_TEXT/UTF8
Codec ID/Info : UTF-8 Plain Text
Language : English
Default : No
Forced : No
Text #3
ID : 12
Format : UTF-8
Codec ID : S_TEXT/UTF8
Codec ID/Info : UTF-8 Plain Text
Language : French
Default : No
Forced : No
Text #4
ID : 13
Format : PGS
Muxing mode : zlib
Codec ID : S_HDMV/PGS
Codec ID/Info : The same subtitle format used on BDs/HD-DVDs
Language : French
Default : No
Forced : No
Menu
00:00:00.000 : en:Chapter 1
00:08:16.041 : en:Chapter 2
00:18:33.083 : en:Chapter 3
00:25:04.625 : en:Chapter 4
00:34:39.791 : en:Chapter 5
00:44:11.250 : en:Chapter 6
00:47:57.083 : en:Chapter 7
00:58:07.791 : en:Chapter 8
01:07:58.625 : en:Chapter 9
01:16:43.250 : en:Chapter 10
01:26:33.333 : en:Chapter 11
01:36:35.791 : en:Chapter 12

x264 log
y4m [info]: 1280x540p 1:1 @ 24/1 fps (cfr)
x264 [info]: using SAR=1/1
x264 [info]: using cpu capabilities: MMX2 SSE2Fast SSSE3 FastShuffle SSE4.2 AVX
x264 [info]: profile High, level 4.1
x264 [info]: frame I:1019 Avg QP:20.44 size:124102
x264 [info]: frame P:30532 Avg QP:21.39 size: 68421
x264 [info]: frame B:112955 Avg QP:22.30 size: 43125
x264 [info]: consecutive B-frames: 1.3% 1.6% 5.7% 26.5% 18.4% 40.5% 3.3% 0.9% 1.0% 0.2% 0.1% 0.2% 0.1% 0.0% 0.1% 0.0% 0.0%
x264 [info]: mb I I16..4: 1.0% 86.5% 12.5%
x264 [info]: mb P I16..4: 0.2% 16.6% 1.7% P16..4: 26.8% 37.1% 16.6% 0.0% 0.0% skip: 0.9%
x264 [info]: mb B I16..4: 0.0% 4.5% 0.2% B16..8: 38.3% 25.7% 6.9% direct:16.5% skip: 7.7% L0:35.4% L1:36.2% BI:28.3%
x264 [info]: 8x8 transform intra:91.4% inter:61.8%
x264 [info]: direct mvs spatial:100.0% temporal:0.0%
x264 [info]: coded y,uvDC,uvAC intra: 98.3% 90.5% 58.2% inter: 76.5% 49.9% 4.5%
x264 [info]: i16 v,h,dc,p: 58% 18% 7% 16%
x264 [info]: i8 v,h,dc,ddl,ddr,vr,hd,vl,hu: 9% 9% 6% 10% 14% 13% 14% 12% 13%
x264 [info]: i4 v,h,dc,ddl,ddr,vr,hd,vl,hu: 10% 8% 3% 8% 16% 14% 16% 11% 13%
x264 [info]: i8c dc,h,v,p: 38% 24% 19% 20%
x264 [info]: Weighted P-Frames: Y:10.6% UV:3.3%
x264 [info]: ref P L0: 42.9% 16.5% 20.3% 9.8% 9.0% 1.4% 0.0%
x264 [info]: ref B L0: 82.6% 12.5% 3.7% 1.3%
x264 [info]: ref B L1: 94.6% 5.4%
x264 [info]: kb/s:9415.88
Жандарм и инопланетяне / Le gendarme et les extra-terrestres (1979)
Жандарм и инопланетяне / Le gendarme et les extra-terrestresГод выпуска: 1979
Страна: Франция
Жанр: комедия, криминал, фантастика
Продолжительность: 01:31:38
Перевод:
Многоголосый, Twister/Тивионика
Многоголосый, РенТВ
Многоголосый, Останкино
Многоголосый, ОРТ
Авторский, Дьяконов Константин
Дублированный
Авторский, Козлов Сергей

Субтитры: русские, английские, французские
Навигация по главам: есть
Режиссер: Жан Жиро / Jean Girault
Сценарий: Жак Вильфрид / Jacques Vilfrid, Ришар Бальдуччи / Richard Balducci, Жерар Бейту / Gérard Beytout, Луи де Фюнес / Louis de Funès, Жан Жиро / Jean Girault
Продюсер: Жерар Бейту / Gérard Beytout
Оператор: Марсель Гриньон / Marcel Grignon, Дидье Таро / Didier Tarot
В ролях: Луи де Фюнес (Maréchal des Logis-chef Ludovic Cruchot), Мишель Галабрю (Adjudant Jérôme Gerber), Морис Риш (Maréchal des Logis Beaupied), Жан-Пьер Рамбаль (Maréchal des Logis Taupin), Ги Гроссо (Maréchal des Logis Tricard), Мишель Модо (Maréchal des Logis Berlicot), Франс Румилли (Soeur Clotilde), Жан-Роже Коссимон (L'évêque), Марио Давид (Le voleur du bidon d'huile), Жак Франсуа (Le colonel), Мария Мобан (Joséfa Cruchot), Мадлен Делавэвр (Soeur képi Gerber)
Описание: Все земные враги уже побеждены бесстрашным отрядом жандармов и их сержантом Крюшо. Осталось помериться силами с пришельцами. И они действительно высаживаются в окрестностях Сен-Тропеза. Коварные существа не выступают в своем истинном злобном обличье.
Они принимают вид самих жандармов, отличаясь от людей только тем, что пьют масло и ржавеют от воды... Это приводит к бесчисленным комическим ситуациям и неизвестно, что бы случилось с землей, если бы не доходящее до идиотизма мужество сержанта Крюшо.
Рейтинг
kinopoisk.ru: 7.584 (6 420)
imdb.com: 5.90 (2 891)
Качество: BDRip (Skazhutin)
Исходник: HDCLUB by AnryV
Формат: MKV
Видеокодек: AVC
Аудиокодек: AC3, FLAC
Видео: 1204x720 (1.672); 10131 Kbps; 24 fps
Аудио: Russian / Dolby Digital Audio / 2.0 / 48 kHz / 192 kbps |Многоголосый, Twister/Тивионика|
Аудио: Russian / Dolby Digital Audio / 2.0 / 48 kHz / 192 kbps |Многоголосый, РенТВ|
Аудио: Russian / Dolby Digital Audio / 2.0 / 48 kHz / 192 kbps |Многоголосый, Останкино|
Аудио: Russian / Dolby Digital Audio / 2.0 / 48 kHz / 192 kbps |Многоголосый, ОРТ|
Аудио: Russian / Dolby Digital Audio / 2.0 / 48 kHz / 192 kbps |Авторский, Дьяконов Константин|
Аудио: Russian / Dolby Digital Audio / 2.0 / 48 kHz / 192 kbps |Дублированный|
Аудио: Russian / Dolby Digital Audio / 2.0 / 48 kHz / 192 kbps |Авторский, Козлов Сергей|
Аудио: Ukrainian / Dolby Digital Audio / 2.0 / 48 kHz / 192 kbps |Многоголосый|
Аудио: French / Free Lossless Audio Codec / 2.0 / 48 kHz / 357 kbps / 16 bit
Субтитры: Russian, English, French
Знаете ли Вы, что...
  1. Основная сюжетная линия фильма пародирует американский фильм «Вторжение похитителей тел» 1954 г.
  2. Занимает 82-е место по посещаемости среди зарубежных фильмов в советском кинопрокате.





MI
General
Unique ID : 236891251413576782721694243018048528161 (0xB237987076FFB9E8B99590E883F7DF21)
Complete name : Le.gendarme.et.les.extra-terrestres.1979.720p.BluRay.7xRus.Ukr.Fre.HDCLUB-Skazhutin.mkv
Format : Matroska
Format version : Version 2
File size : 7.71 GiB
Duration : 1h 31mn
Overall bit rate mode : Variable
Overall bit rate : 12.0 Mbps
Movie name : Le gendarme et les extra-terrestres (1979) - Release for HDCLUB by Skazhutin
Encoded date : UTC 2012-10-31 19:30:13
Writing application : mkvmerge v5.8.0 ('No Sleep / Pillow') built on Sep 2 2012 15:37:04
Writing library : libebml v1.2.3 + libmatroska v1.3.0
Attachment : Yes / Yes
Video
ID : 1
Format : AVC
Format/Info : Advanced Video Codec
Format profile : [email protected]
Format settings, CABAC : Yes
Format settings, ReFrames : 9 frames
Codec ID : V_MPEG4/ISO/AVC
Duration : 1h 31mn
Width : 1 204 pixels
Height : 720 pixels
Display aspect ratio : 1.672
Frame rate mode : Constant
Frame rate : 24.000 fps
Color space : YUV
Chroma subsampling : 4:2:0
Bit depth : 8 bits
Scan type : Progressive
Title : Release for HDCLUB
Writing library : x264 core 128 r2216kMod 198a7ea
Encoding settings : cabac=1 / ref=9 / deblock=1:-3:-3 / analyse=0x3:0x113 / me=umh / subme=11 / psy=1 / fade_compensate=0.00 / psy_rd=1.00:0.00 / mixed_ref=1 / me_range=48 / chroma_me=1 / trellis=2 / 8x8dct=1 / cqm=0 / deadzone=6,6 / fast_pskip=1 / chroma_qp_offset=-2 / threads=12 / lookahead_threads=2 / sliced_threads=0 / nr=0 / decimate=1 / interlaced=0 / bluray_compat=0 / constrained_intra=0 / bframes=16 / b_pyramid=2 / b_adapt=2 / b_bias=0 / direct=3 / weightb=1 / open_gop=0 / weightp=2 / keyint=250 / keyint_min=24 / scenecut=40 / intra_refresh=0 / rc_lookahead=240 / rc=crf / mbtree=1 / crf=20.5000 / qcomp=0.90 / qpmin=0 / qpmax=69 / qpstep=4 / vbv_maxrate=50000 / vbv_bufsize=62500 / crf_max=0.0 / nal_hrd=none / ip_ratio=1.10 / aq=1:0.50
Language : English
Default : Yes
Forced : No
Matrix coefficients : BT.709
Audio #1
ID : 2
Format : AC-3
Format/Info : Audio Coding 3
Format profile : Dolby Digital
Mode extension : CM (complete main)
Format settings, Endianness : Big
Codec ID : A_AC3
Duration : 1h 31mn
Bit rate mode : Constant
Bit rate : 192 Kbps
Channel(s) : 2 channels
Channel positions : Front: L R
Sampling rate : 48.0 KHz
Bit depth : 16 bits
Compression mode : Lossy
Stream size : 126 MiB (2%)
Title : AC3 2.0 @ 192 kbps - Многоголосый, Twister/Тивионика
Language : Russian
Default : Yes
Forced : No
Audio #2
ID : 3
Format : AC-3
Format/Info : Audio Coding 3
Format profile : Dolby Digital
Mode extension : CM (complete main)
Format settings, Endianness : Big
Codec ID : A_AC3
Duration : 1h 31mn
Bit rate mode : Constant
Bit rate : 192 Kbps
Channel(s) : 2 channels
Channel positions : Front: L R
Sampling rate : 48.0 KHz
Bit depth : 16 bits
Compression mode : Lossy
Stream size : 126 MiB (2%)
Title : AC3 2.0 @ 192 kbps - Многоголосый, РенТВ
Language : Russian
Default : No
Forced : No
Audio #3
ID : 4
Format : AC-3
Format/Info : Audio Coding 3
Format profile : Dolby Digital
Mode extension : CM (complete main)
Format settings, Endianness : Big
Codec ID : A_AC3
Duration : 1h 31mn
Bit rate mode : Constant
Bit rate : 192 Kbps
Channel(s) : 2 channels
Channel positions : Front: L R
Sampling rate : 48.0 KHz
Bit depth : 16 bits
Compression mode : Lossy
Stream size : 126 MiB (2%)
Title : AC3 2.0 @ 192 kbps - Многоголосый, Останкино
Language : Russian
Default : No
Forced : No
Audio #4
ID : 5
Format : AC-3
Format/Info : Audio Coding 3
Format profile : Dolby Digital
Mode extension : CM (complete main)
Format settings, Endianness : Big
Codec ID : A_AC3
Duration : 1h 31mn
Bit rate mode : Constant
Bit rate : 192 Kbps
Channel(s) : 2 channels
Channel positions : Front: L R
Sampling rate : 48.0 KHz
Bit depth : 16 bits
Compression mode : Lossy
Stream size : 126 MiB (2%)
Title : AC3 2.0 @ 192 kbps - Многоголосый, ОРТ
Language : Russian
Default : No
Forced : No
Audio #5
ID : 6
Format : AC-3
Format/Info : Audio Coding 3
Format profile : Dolby Digital
Mode extension : CM (complete main)
Format settings, Endianness : Big
Codec ID : A_AC3
Duration : 1h 31mn
Bit rate mode : Constant
Bit rate : 192 Kbps
Channel(s) : 2 channels
Channel positions : Front: L R
Sampling rate : 48.0 KHz
Bit depth : 16 bits
Compression mode : Lossy
Stream size : 126 MiB (2%)
Title : AC3 2.0 @ 192 kbps - Одноголосый, К. Дьяконов
Language : Russian
Default : No
Forced : No
Audio #6
ID : 7
Format : AC-3
Format/Info : Audio Coding 3
Format profile : Dolby Digital
Mode extension : CM (complete main)
Format settings, Endianness : Big
Codec ID : A_AC3
Duration : 1h 31mn
Bit rate mode : Constant
Bit rate : 192 Kbps
Channel(s) : 2 channels
Channel positions : Front: L R
Sampling rate : 48.0 KHz
Bit depth : 16 bits
Compression mode : Lossy
Stream size : 126 MiB (2%)
Title : AC3 2.0 @ 192 kbps - Дублированный
Language : Russian
Default : No
Forced : No
Audio #7
ID : 8
Format : AC-3
Format/Info : Audio Coding 3
Format profile : Dolby Digital
Mode extension : CM (complete main)
Format settings, Endianness : Big
Codec ID : A_AC3
Duration : 1h 31mn
Bit rate mode : Constant
Bit rate : 192 Kbps
Channel(s) : 2 channels
Channel positions : Front: L R
Sampling rate : 48.0 KHz
Bit depth : 16 bits
Compression mode : Lossy
Stream size : 126 MiB (2%)
Title : AC3 2.0 @ 192 kbps - Одноголосый, С. Козлов
Language : Russian
Default : No
Forced : No
Audio #8
ID : 9
Format : AC-3
Format/Info : Audio Coding 3
Format profile : Dolby Digital
Mode extension : CM (complete main)
Format settings, Endianness : Big
Codec ID : A_AC3
Duration : 1h 31mn
Bit rate mode : Constant
Bit rate : 192 Kbps
Channel(s) : 2 channels
Channel positions : Front: L R
Sampling rate : 48.0 KHz
Bit depth : 16 bits
Compression mode : Lossy
Stream size : 126 MiB (2%)
Title : AC3 2.0 @ 192 kbps - Многоголосый
Language : Ukrainian
Default : No
Forced : No
Audio #9
ID : 10
Format : FLAC
Format/Info : Free Lossless Audio Codec
Codec ID : A_FLAC
Duration : 1h 31mn
Bit rate mode : Variable
Channel(s) : 2 channels
Sampling rate : 48.0 KHz
Bit depth : 16 bits
Title : FLAC 2.0 @ 357 kbps
Writing library : libFLAC 1.2.1 (UTC 2007-09-17)
Language : French
Default : No
Forced : No
Text #1
ID : 11
Format : UTF-8
Codec ID : S_TEXT/UTF8
Codec ID/Info : UTF-8 Plain Text
Language : Russian
Default : No
Forced : No
Text #2
ID : 12
Format : UTF-8
Codec ID : S_TEXT/UTF8
Codec ID/Info : UTF-8 Plain Text
Language : English
Default : No
Forced : No
Text #3
ID : 13
Format : UTF-8
Codec ID : S_TEXT/UTF8
Codec ID/Info : UTF-8 Plain Text
Language : French
Default : No
Forced : No
Text #4
ID : 14
Format : PGS
Muxing mode : zlib
Codec ID : S_HDMV/PGS
Codec ID/Info : The same subtitle format used on BDs/HD-DVDs
Language : French
Default : No
Forced : No
Menu
00:00:00.000 : en:Chapter 1
00:08:17.792 : en:Chapter 2
00:16:47.750 : en:Chapter 3
00:24:34.583 : en:Chapter 4
00:32:16.042 : en:Chapter 5
00:39:35.083 : en:Chapter 6
00:44:23.375 : en:Chapter 7
00:50:34.667 : en:Chapter 8
00:59:43.833 : en:Chapter 9
01:07:45.375 : en:Chapter 10
01:15:13.708 : en:Chapter 11
01:21:01.000 : en:Chapter 12

x264 log
y4m [info]: 1204x720p 1:1 @ 24/1 fps (cfr)
x264 [info]: using SAR=1/1
x264 [info]: using cpu capabilities: MMX2 SSE2Fast SSSE3 FastShuffle SSE4.2 AVX
x264 [info]: profile High, level 4.1
x264 [info]: frame I:828 Avg QP:20.35 size:124165
x264 [info]: frame P:26564 Avg QP:21.33 size: 68641
x264 [info]: frame B:104562 Avg QP:22.04 size: 48172
x264 [info]: consecutive B-frames: 1.0% 1.5% 5.8% 21.4% 15.7% 43.9% 4.7% 1.2% 2.1% 0.6% 0.5% 0.4% 0.2% 0.1% 0.1% 0.0% 0.6%
x264 [info]: mb I I16..4: 2.1% 89.1% 8.8%
x264 [info]: mb P I16..4: 0.3% 16.2% 1.5% P16..4: 28.4% 37.9% 14.4% 0.0% 0.0% skip: 1.4%
x264 [info]: mb B I16..4: 0.1% 5.2% 0.3% B16..8: 39.6% 25.4% 6.4% direct:13.4% skip: 9.6% L0:41.4% L1:40.8% BI:17.8%
x264 [info]: 8x8 transform intra:91.8% inter:64.4%
x264 [info]: direct mvs spatial:99.7% temporal:0.3%
x264 [info]: coded y,uvDC,uvAC intra: 96.6% 92.3% 68.5% inter: 71.4% 56.7% 11.7%
x264 [info]: i16 v,h,dc,p: 46% 19% 10% 26%
x264 [info]: i8 v,h,dc,ddl,ddr,vr,hd,vl,hu: 7% 9% 7% 11% 15% 14% 14% 12% 12%
x264 [info]: i4 v,h,dc,ddl,ddr,vr,hd,vl,hu: 6% 26% 2% 7% 14% 13% 12% 9% 11%
x264 [info]: i8c dc,h,v,p: 43% 21% 17% 19%
x264 [info]: Weighted P-Frames: Y:7.6% UV:2.8%
x264 [info]: ref P L0: 39.3% 13.0% 18.1% 7.9% 6.5% 5.0% 4.4% 2.7% 2.6% 0.3% 0.0%
x264 [info]: ref B L0: 72.9% 11.9% 5.9% 3.2% 2.5% 2.1% 1.1% 0.4%
x264 [info]: ref B L1: 92.7% 7.3%
x264 [info]: kb/s:10131.83
Жандарм и жандарметки / Le gendarme et les gendarmettes (1982)
Жандарм и жандарметки / Le gendarme et les gendarmettesГод выпуска: 1982
Страна: Франция
Жанр: комедия, криминал
Продолжительность: 01:38:43
Перевод:
Многоголосый, РенТВ
Многоголосый, Останкино
Многоголосый, ОРТ
Авторский, Козлов Сергей

Субтитры: английские, французские
Навигация по главам: есть
Режиссер: Тони Абоянц / Tony Aboyantz, Жан Жиро / Jean Girault
Сценарий: Ришар Бальдуччи / Richard Balducci, Жерар Бейту / Gérard Beytout, Жан Жиро / Jean Girault, Жак Вильфрид / Jacques Vilfrid
Продюсер: Жерар Бейту / Gérard Beytout
Оператор: Жан Боффети / Jean Boffety
Композитор: Раймон Лефевр / Raymond Lefevre
В ролях: Луи де Фюнес (Maréchal des Logis-chef Ludovic Cruchot), Мишель Галабрю (Adjudant Jérôme Gerber), Морис Риш (Maréchal des Logis Beaupied), Жак Франсуа (Le colonel), Ги Гроссо (Maréchal des Logis Tricard), Мишель Модо (Maréchal des Logis Berlicot), Патрик Прежен (Maréchal des Logis Perlin), Франс Румилли (La m re supérieure), Катрин Серр (Christine Rocourt), Никес Жан Луис (Yo Macumba), Софи Мико (Isabelle Leroy), Элизабет Этьен (Marianne Bonnet)
Описание: Новые времена - новые нравы. В жандармерию присылают четырех стажеров - девушек с ногами от шеи. Наши герои приходят в приятное волнение, а их жены - в исступление. Седина в бороду, бес в ребро.
Как назло, девушек похищают неизвестные злодеи. Честь мундира висит на волоске. Пройдя через цепь невероятных комедийных и фривольных ситуаций, наши герои нейтрализуют целое шпионское гнездо и вызволяют из плена красавиц - жандарметок.
Рейтинг
kinopoisk.ru: 7.570 (4 602)
imdb.com: 5.70 (2 615)
Качество: BDRip (Skazhutin)
Исходник: HDCLUB by AnryV
Формат: MKV
Видеокодек: AVC
Аудиокодек: AC3, FLAC
Видео: 1206x720 (1.675); 10000 Kbps; 24 fps
Аудио: Russian / Dolby Digital Audio / 2.0 / 48 kHz / 192 kbps |Многоголосый, РенТВ|
Аудио: Russian / Dolby Digital Audio / 2.0 / 48 kHz / 192 kbps |Многоголосый, Останкино|
Аудио: Russian / Dolby Digital Audio / 2.0 / 48 kHz / 192 kbps |Многоголосый, ОРТ|
Аудио: Russian / Dolby Digital Audio / 2.0 / 48 kHz / 192 kbps |Авторский, Козлов Сергей|
Аудио: Ukrainian / Dolby Digital Audio / 2.0 / 48 kHz / 192 kbps |Многоголосый|
Аудио: French / Free Lossless Audio Codec / 2.0 / 48 kHz / 310 kbps / 16 bit
Субтитры: English, French
Знаете ли Вы, что...
  1. Режиссёр фильма Жан Жиро умер во время съёмок 20 июля 1982 года от туберкулёза. Съёмки продолжил режиссёр Тони Абоянц.
  2. Несмотря на принадлежность к знаменитому сериалу о незадачливом начальнике полиции, эту картину российские зрители так и не увидели до 1992 года благодаря некоторой фривольности ряда сцен.
  3. Кристиан Клавье появляется в течение полусекундного эпизода в сцене аварии, спровоцированной танцем на дороге жандарма и жандарметки. Его имя не упомянуто в титрах.





MI
General
Unique ID : 200039972418590091539706532645771278224 (0x967E4C1B8F6C1CE8A62DB4D71DD5F790)
Complete name : Le.gendarme.et.les.gendarmettes.1982.720p.BluRay.4xRus.Ukr.Fre.HDCLUB-Skazhutin.mkv
Format : Matroska
Format version : Version 2
File size : 7.78 GiB
Duration : 1h 38mn
Overall bit rate mode : Variable
Overall bit rate : 11.3 Mbps
Movie name : Le gendarme et les gendarmettes (1982) - Release for HDCLUB by Skazhutin
Encoded date : UTC 2012-11-01 08:17:07
Writing application : mkvmerge v5.8.0 ('No Sleep / Pillow') built on Sep 2 2012 15:37:04
Writing library : libebml v1.2.3 + libmatroska v1.3.0
Attachment : Yes / Yes
Video
ID : 1
Format : AVC
Format/Info : Advanced Video Codec
Format profile : [email protected]
Format settings, CABAC : Yes
Format settings, ReFrames : 9 frames
Codec ID : V_MPEG4/ISO/AVC
Duration : 1h 38mn
Nominal bit rate : 10 000 Kbps
Width : 1 206 pixels
Height : 720 pixels
Display aspect ratio : 1.675
Frame rate mode : Constant
Frame rate : 24.000 fps
Color space : YUV
Chroma subsampling : 4:2:0
Bit depth : 8 bits
Scan type : Progressive
Bits/(Pixel*Frame) : 0.480
Title : Release for HDCLUB
Writing library : x264 core 128 r2216kMod 198a7ea
Encoding settings : cabac=1 / ref=9 / deblock=1:-3:-3 / analyse=0x3:0x113 / me=umh / subme=11 / psy=1 / fade_compensate=0.00 / psy_rd=1.00:0.00 / mixed_ref=1 / me_range=48 / chroma_me=1 / trellis=2 / 8x8dct=1 / cqm=0 / deadzone=6,6 / fast_pskip=0 / chroma_qp_offset=-2 / threads=12 / lookahead_threads=2 / sliced_threads=0 / nr=0 / decimate=0 / interlaced=0 / bluray_compat=0 / constrained_intra=0 / bframes=16 / b_pyramid=2 / b_adapt=2 / b_bias=0 / direct=3 / weightb=1 / open_gop=0 / weightp=2 / keyint=250 / keyint_min=24 / scenecut=40 / intra_refresh=0 / rc_lookahead=240 / rc=2pass / mbtree=1 / bitrate=10000 / ratetol=1.0 / qcomp=0.90 / qpmin=0 / qpmax=69 / qpstep=4 / cplxblur=20.0 / qblur=0.5 / vbv_maxrate=50000 / vbv_bufsize=62500 / nal_hrd=none / ip_ratio=1.10 / aq=1:0.50
Language : French
Default : Yes
Forced : No
Matrix coefficients : BT.709
Audio #1
ID : 2
Format : AC-3
Format/Info : Audio Coding 3
Format profile : Dolby Digital
Mode extension : CM (complete main)
Format settings, Endianness : Big
Codec ID : A_AC3
Duration : 1h 38mn
Bit rate mode : Constant
Bit rate : 192 Kbps
Channel(s) : 2 channels
Channel positions : Front: L R
Sampling rate : 48.0 KHz
Bit depth : 16 bits
Compression mode : Lossy
Stream size : 136 MiB (2%)
Title : AC3 2.0 @ 192 kbps - Многоголосый, РенТВ
Language : Russian
Default : Yes
Forced : No
Audio #2
ID : 3
Format : AC-3
Format/Info : Audio Coding 3
Format profile : Dolby Digital
Mode extension : CM (complete main)
Format settings, Endianness : Big
Codec ID : A_AC3
Duration : 1h 38mn
Bit rate mode : Constant
Bit rate : 192 Kbps
Channel(s) : 2 channels
Channel positions : Front: L R
Sampling rate : 48.0 KHz
Bit depth : 16 bits
Compression mode : Lossy
Stream size : 136 MiB (2%)
Title : AC3 2.0 @ 192 kbps - Многоголосый, Останкино
Language : Russian
Default : No
Forced : No
Audio #3
ID : 4
Format : AC-3
Format/Info : Audio Coding 3
Format profile : Dolby Digital
Mode extension : CM (complete main)
Format settings, Endianness : Big
Codec ID : A_AC3
Duration : 1h 38mn
Bit rate mode : Constant
Bit rate : 192 Kbps
Channel(s) : 2 channels
Channel positions : Front: L R
Sampling rate : 48.0 KHz
Bit depth : 16 bits
Compression mode : Lossy
Stream size : 136 MiB (2%)
Title : AC3 2.0 @ 192 kbps - Многоголосый, ОРТ
Language : Russian
Default : No
Forced : No
Audio #4
ID : 5
Format : AC-3
Format/Info : Audio Coding 3
Format profile : Dolby Digital
Mode extension : CM (complete main)
Format settings, Endianness : Big
Codec ID : A_AC3
Duration : 1h 38mn
Bit rate mode : Constant
Bit rate : 192 Kbps
Channel(s) : 2 channels
Channel positions : Front: L R
Sampling rate : 48.0 KHz
Bit depth : 16 bits
Compression mode : Lossy
Stream size : 136 MiB (2%)
Title : AC3 2.0 @ 192 kbps - Одноголосый, С. Козлов
Language : Russian
Default : No
Forced : No
Audio #5
ID : 6
Format : AC-3
Format/Info : Audio Coding 3
Format profile : Dolby Digital
Mode extension : CM (complete main)
Format settings, Endianness : Big
Codec ID : A_AC3
Duration : 1h 38mn
Bit rate mode : Constant
Bit rate : 192 Kbps
Channel(s) : 2 channels
Channel positions : Front: L R
Sampling rate : 48.0 KHz
Bit depth : 16 bits
Compression mode : Lossy
Stream size : 136 MiB (2%)
Title : AC3 2.0 @ 192 kbps - Многоголосый
Language : Ukrainian
Default : No
Forced : No
Audio #6
ID : 7
Format : FLAC
Format/Info : Free Lossless Audio Codec
Codec ID : A_FLAC
Duration : 1h 38mn
Bit rate mode : Variable
Channel(s) : 2 channels
Sampling rate : 48.0 KHz
Bit depth : 16 bits
Title : FLAC 2.0 @ 310 kbps
Writing library : libFLAC 1.2.1 (UTC 2007-09-17)
Language : French
Default : No
Forced : No
Text #1
ID : 8
Format : UTF-8
Codec ID : S_TEXT/UTF8
Codec ID/Info : UTF-8 Plain Text
Language : English
Default : No
Forced : No
Text #2
ID : 9
Format : UTF-8
Codec ID : S_TEXT/UTF8
Codec ID/Info : UTF-8 Plain Text
Language : French
Default : No
Forced : No
Text #3
ID : 10
Format : PGS
Muxing mode : zlib
Codec ID : S_HDMV/PGS
Codec ID/Info : The same subtitle format used on BDs/HD-DVDs
Language : French
Default : No
Forced : No
Menu
00:00:00.000 : en:Chapter 1
00:09:05.250 : en:Chapter 2
00:19:15.792 : en:Chapter 3
00:29:17.583 : en:Chapter 4
00:34:08.167 : en:Chapter 5
00:41:00.625 : en:Chapter 6
00:49:50.750 : en:Chapter 7
00:58:50.750 : en:Chapter 8
01:06:41.208 : en:Chapter 9
01:14:09.708 : en:Chapter 10
01:25:01.208 : en:Chapter 11
01:34:18.917 : en:Chapter 12

x264 log
y4m [info]: 1206x720p 1:1 @ 24/1 fps (cfr)
x264 [info]: using SAR=1/1
x264 [info]: using cpu capabilities: MMX2 SSE2Fast SSSE3 FastShuffle SSE4.2 AVX
x264 [info]: profile High, level 4.1
x264 [info]: frame I:881 Avg QP:20.64 size:123042
x264 [info]: frame P:30890 Avg QP:21.60 size: 69642
x264 [info]: frame B:110383 Avg QP:22.18 size: 46606
x264 [info]: consecutive B-frames: 1.2% 2.3% 8.5% 24.9% 17.4% 41.2% 2.7% 0.6% 0.8% 0.1% 0.1% 0.0% 0.0% 0.0% 0.0% 0.0% 0.0%
x264 [info]: mb I I16..4: 2.0% 87.6% 10.4%
x264 [info]: mb P I16..4: 0.4% 16.5% 1.3% P16..4: 27.8% 37.7% 15.2% 0.0% 0.0% skip: 1.2%
x264 [info]: mb B I16..4: 0.1% 4.5% 0.2% B16..8: 40.2% 25.1% 6.3% direct:14.3% skip: 9.3% L0:39.5% L1:40.7% BI:19.8%
x264 [info]: 8x8 transform intra:92.4% inter:62.7%
x264 [info]: direct mvs spatial:97.1% temporal:2.9%
x264 [info]: coded y,uvDC,uvAC intra: 96.6% 78.9% 34.7% inter: 72.7% 41.6% 5.0%
x264 [info]: i16 v,h,dc,p: 56% 20% 7% 17%
x264 [info]: i8 v,h,dc,ddl,ddr,vr,hd,vl,hu: 8% 9% 6% 10% 15% 14% 13% 12% 12%
x264 [info]: i4 v,h,dc,ddl,ddr,vr,hd,vl,hu: 9% 11% 3% 8% 16% 15% 14% 11% 12%
x264 [info]: i8c dc,h,v,p: 31% 28% 22% 20%
x264 [info]: Weighted P-Frames: Y:3.3% UV:1.0%
x264 [info]: ref P L0: 40.0% 13.4% 18.0% 7.7% 6.2% 4.8% 4.2% 2.7% 2.6% 0.3% 0.0%
x264 [info]: ref B L0: 77.1% 10.5% 5.0% 2.6% 1.9% 1.6% 0.9% 0.3%
x264 [info]: ref B L1: 94.2% 5.8%
x264 [info]: kb/s:10000.45


релиз оформлен c помощью программы Flash Release
Download
Для скачивания .torrent файлов необходима регистрация
Сайт не распространяет и не хранит электронные версии произведений, а лишь предоставляет доступ к создаваемому пользователями каталогу ссылок на торрент-файлы, которые содержат только списки хеш-сумм
[Профиль]  [ЛС] 

firsovea

Стаж: 10 лет 7 месяцев

Сообщений: 40


firsovea · 08-Ноя-12 15:41 (спустя 5 дней)

Отличий в скринах незаметно... Это такое качество рипа или ошибочка?
А если ошибок нет, тогда зачем рип 1080р? Хватит и 720р.
[Профиль]  [ЛС] 

Skazhutin

Стаж: 12 лет

Сообщений: 6806

Skazhutin · 08-Ноя-12 19:54 (спустя 4 часа)

firsovea
логики не вижу в ваших измышлениях
[Профиль]  [ЛС] 

firsovea

Стаж: 10 лет 7 месяцев

Сообщений: 40


firsovea · 10-Ноя-12 14:41 (спустя 1 день 18 часов)

Да никакой логики искать не надо... Прекрасный рип! 720р абсолютно достаточно для коллекции! Релизеру - спасибо!
[Профиль]  [ЛС] 

jekyll_89

Стаж: 8 лет 10 месяцев

Сообщений: 422

jekyll_89 · 11-Ноя-12 13:48 (спустя 23 часа)

Что же без Визгунова и Володарского?
[Профиль]  [ЛС] 

Skazhutin

Стаж: 12 лет

Сообщений: 6806

Skazhutin · 11-Ноя-12 14:03 (спустя 15 мин.)

Качество у них неподобающее
[Профиль]  [ЛС] 

ssj163

Стаж: 8 лет 6 месяцев

Сообщений: 1


ssj163 · 13-Апр-13 02:01 (спустя 5 месяцев 1 день)

40 гигов и 5 человек на раздаче( грустно
[Профиль]  [ЛС] 

hiiammichael

Стаж: 9 лет 1 месяц

Сообщений: 112


hiiammichael · 04-Авг-13 11:21 (спустя 3 месяца 21 день, ред. 23-Авг-13 10:07)

Огромное спасибо. Подскажите пожалуйста, какой перевод толковее и смешнее?
Советуют смотреть в советском дубляже, не подскажите, где дорожки найти можно или уже готовые фильмы в HD качестве?
[Профиль]  [ЛС] 

scubakka

Стаж: 7 лет

Сообщений: 47


scubakka · 15-Апр-14 23:15 (спустя 8 месяцев, ред. 15-Апр-14 23:15)

Извиняюсь хотелось бы скачать-ау ау ау. В доме есть кто нибудь!
Маловато скорости -курить пошли , раздайте пожалуйста
[Профиль]  [ЛС] 

filmoman55

Стаж: 7 лет 9 месяцев

Сообщений: 118


filmoman55 · 28-Апр-14 23:31 (спустя 13 дней)

hiiammichael писал(а):
60352947Огромное спасибо. Подскажите пожалуйста, какой перевод толковее и смешнее?
Советуют смотреть в советском дубляже, не подскажите, где дорожки найти можно или уже готовые фильмы в HD качестве?
Самые лучшие переводы - это РенТВ и ОРТ. Смотрите лучше с одним из них.
[Профиль]  [ЛС] 

sashka32bk

Стаж: 9 лет 10 месяцев

Сообщений: 2

sashka32bk · 08-Май-14 01:20 (спустя 9 дней)

Отличный фильм, смотрю не впервый раз. Отличная раздача. Спасибо!!!
[Профиль]  [ЛС] 

s_e_r_d_j

Стаж: 12 лет 3 месяца

Сообщений: 19

s_e_r_d_j · 08-Янв-15 20:16 (спустя 8 месяцев)

hiiammichael писал(а):
60352947Огромное спасибо. Подскажите пожалуйста, какой перевод толковее и смешнее?
РенТВ
[Профиль]  [ЛС] 

Ruslan-V

Стаж: 9 лет 6 месяцев

Сообщений: 3


Ruslan-V · 31-Июл-15 10:45 (спустя 6 месяцев, ред. 31-Июл-15 10:45)

Спасибо за самые классные фильмы, с мойм любимым актером Луи Де Фюнесом
[Профиль]  [ЛС] 

Avengo

Top Loader 01* 100GB

Стаж: 12 лет 6 месяцев

Сообщений: 529

Avengo · 02-Фев-16 23:08 (спустя 6 месяцев)

а почему советского дубляжа нету?
[Профиль]  [ЛС] 

kgh

Top Loader 01* 100GB

Стаж: 12 лет 6 месяцев

Сообщений: 2466

kgh · 03-Фев-16 10:43 (спустя 11 часов)

Avengo писал(а):
69917362а почему советского дубляжа нету?
В советском прокате были не все фильмы, а на те, которые были, дубляж есть: "Жандарм в Нью-Йорке" (назывался "Господин Крюшо в Нью-Йорке"), "Жандарм женится" и "Жандарм и инопланетяне". Остальные части попали у нас в прокат уже в 90-е годы и с закадровым переводом.
[Профиль]  [ЛС] 

kgh

Top Loader 01* 100GB

Стаж: 12 лет 6 месяцев

Сообщений: 2466

kgh · 05-Фев-16 10:25 (спустя 1 день 23 часа, ред. 05-Фев-16 17:04)

Avengo писал(а):
69935669вот и вопрос, почему их не добавили
А это, по-вашему, что?
Жандарм в Нью-Йорке: Audio #4 Title : AC3 2.0 @ 192 kbps - Дублированный
Жандарм женится: Audio #6 Title : AC3 2.0 @ 192 kbps - Дублированный
Жандарм и инопланетяне: Audio #6 Title : AC3 2.0 @ 192 kbps - Дублированный
[Профиль]  [ЛС] 

sawyer4

Top Bonus 02* 500GB

Стаж: 10 лет 5 месяцев

Сообщений: 1353

sawyer4 · 10-Фев-16 17:50 (спустя 5 дней)

Премного благодарен за этот сборник. Пересмотрел коллекцию с удовольствием. Грустно, что почти всех актёров уже нет в живых, но они будут "живы"в нашей памяти вечно, ведь они оставили такое великолепное наследие после себя.
[Профиль]  [ЛС] 

freetime

Стаж: 12 лет

Сообщений: 462


freetime · 29-Дек-16 20:34 (спустя 10 месяцев)

sawyer4 писал(а):
69986457Премного благодарен за этот сборник. Пересмотрел коллекцию с удовольствием. Грустно, что почти всех актёров уже нет в живых, но они будут "живы"в нашей памяти вечно, ведь они оставили такое великолепное наследие после себя.
Увы, буквально позавчера ушла и жена Жандарма - Клод Жансак
Цитата:
Популярна и известна она стала во второй половине 50-х прошлого века, когда встретила "экранного мужа", уже прославленного на тот момент Луи де Фюнеса. Он прозвал Клод "козочкой", заявив, что белокурая красавица должна сниматься исключительно с ним.
- Я хочу, чтобы вы играли во всех моих фильмах, вы приносите мне успех, - любил повторять де Фюнес.
И он не ошибся. Парочка снялась вместе в десяти фильмах
[Профиль]  [ЛС] 

orlovich1971

Стаж: 5 лет 7 месяцев

Сообщений: 1121

orlovich1971 · 04-Фев-17 23:49 (спустя 1 месяц 6 дней)

Неубиенная классика.Огромное спасибо!!!
[Профиль]  [ЛС] 

val2968

Стаж: 2 года 4 месяца

Сообщений: 1

val2968 · 07-Июл-18 01:00 (спустя 1 год 5 месяцев, ред. 07-Июл-18 01:00)

Прекрасные фильмы, прекрасные актёры. Фантомаса в таком бы качестве и с советским дубляжем где найти, может кто подскажет. Большое спасибо за раздачу.
[Профиль]  [ЛС] 

kgh

Top Loader 01* 100GB

Стаж: 12 лет 6 месяцев

Сообщений: 2466

kgh · 07-Июл-18 12:11 (спустя 11 часов)

val2968 писал(а):
75629519Фантомаса в таком бы качестве и с советским дубляжем где найти, может кто подскажет.
Воспользоваться поиском не пробовали?
https://rutracker.org/forum/viewtopic.php?t=3090924
https://rutracker.org/forum/viewtopic.php?t=3460664
https://rutracker.org/forum/viewtopic.php?t=3460908
[Профиль]  [ЛС] 

medvedig

Стаж: 13 лет 1 месяц

Сообщений: 28


medvedig · 19-Ноя-18 22:43 (спустя 4 месяца 12 дней)

Вернитесь пожалуйста на раздачу, 20% все никак не скачать ;(
спасибо
[Профиль]  [ЛС] 

vlaaaad

Стаж: 12 лет 8 месяцев

Сообщений: 17


vlaaaad · 18-Мар-19 20:39 (спустя 3 месяца 28 дней)

Фильмы-эпоха!
Причем у нас эти фильмы стали популярными в 1980-90!
Очень хорошие!
[Профиль]  [ЛС] 
 
Ответить
Loading...
Error