Обратная сторона Луны / Сезон: 1 / Серии: 1-16 из 16 (Aлександр Kотт) [2012, Россия, фантастика, триллер, драма, детектив, BDRemux 720p]

Страницы :  1, 2  След.

Ответить
Автор
Сообщение

-GuNNeR-

Стаж: 9 лет 7 месяцев

Сообщений: 419


-GuNNeR- · 29-Янв-13 03:23 (5 лет 8 месяцев назад, ред. 28-Мар-13 01:45)

Oбратная cторона Лyны
Год выпуска: 2012
Страна: Россия / киностудия "Слово"
Жанр: фантастика, триллер, драма, криминал, детектив
Продолжительность: 01:40:00 + 00:55:00 x15
Режиссёр: Aлександр Kотт
В ролях: Павел Деревянко (Михаил), Светлана Смирнова-Марцинкевич (Катя), Иван Шибанов (маньяк), Карина Разумовская (Людмила), Евгений Богомолов (Мишка), Олег Алмазов (Котов), Дмитрий Гусев (Игорь), Александр Ляпин (Степа), Татьяна Чердынцева (парикмахер), Сергей Беляев (Пряхин), Сергей Галахов (Андрей), Ирина Марцинкевич (Екатерина в возрасте)
Описание: Третий год старший лейтенант полиции Михаил Соловьев идет по следу Маньяка, терроризирующего столицу убийствами молодых женщин. Во время операции задержания Маньяк сбивает Соловьева автомобилем.
Придя в себя после аварии, Михаил обнаруживает, что переместился во времени и оказался в 1979 году. Не понимая до конца, что с ним произошло, он, тем не менее, старается адаптироваться к новым обстоятельствам, работая советским милиционером. А попутно пытается выяснить, в чем причина случившейся с ним метаморфозы.

Релиз: by crazy_gringo
Качество видео: BDRemux 720p
Формат: MKV
Видео: H.264/AVC, 1280x720 (16:9), 23.976 fps, ~5500 kbps, 0.253 bpp
Аудио: AC3 5.1, 48 kHz, 384 kbps
MediaInfo
General
Complete name : Обратная сторона Луны (2012) BDRemux\Obratnaja.storona.luny.S01E02.720p.BDRemux.mkv
Format : Matroska
Format version : Version 4 / Version 2
File size : 2.32 GiB
Duration : 54mn 19s
Overall bit rate mode : Variable
Overall bit rate : 6 103 Kbps
Movie name : Вторая серия
Encoded date : UTC 2010-02-22 21:41:31
Writing application : mkvmerge v5.9.0 ('On The Loose') built on Dec 9 2012 15:37:01
Writing library : libebml v1.3.0 + libmatroska v1.4.0
Video
ID : 1
Format : AVC
Format/Info : Advanced Video Codec
Format profile : [email protected]
Format settings, CABAC : Yes
Format settings, ReFrames : 3 frames
Codec ID : V_MPEG4/ISO/AVC
Duration : 54mn 19s
Bit rate mode : Variable
Bit rate : 5 598 Kbps
Maximum bit rate : 40.0 Mbps
Width : 1 280 pixels
Height : 720 pixels
Display aspect ratio : 16:9
Frame rate mode : Constant
Frame rate : 23.976 fps
Color space : YUV
Chroma subsampling : 4:2:0
Bit depth : 8 bits
Scan type : Progressive
Bits/(Pixel*Frame) : 0.253
Stream size : 2.12 GiB (92%)
Language : Russian
Default : Yes
Forced : No
Color primaries : BT.709
Transfer characteristics : BT.709
Matrix coefficients : BT.709
Audio
ID : 2
Format : AC-3
Format/Info : Audio Coding 3
Mode extension : CM (complete main)
Format settings, Endianness : Big
Codec ID : A_AC3
Duration : 54mn 19s
Bit rate mode : Constant
Bit rate : 384 Kbps
Channel(s) : 6 channels
Channel positions : Front: L C R, Side: L R, LFE
Sampling rate : 48.0 KHz
Bit depth : 16 bits
Compression mode : Lossy
Delay relative to video : 18ms
Stream size : 149 MiB (6%)
Language : Russian
Default : Yes
Forced : No

Built with Flash Release
Download
Для скачивания .torrent файлов необходима регистрация
Сайт не распространяет и не хранит электронные версии произведений, а лишь предоставляет доступ к создаваемому пользователями каталогу ссылок на торрент-файлы, которые содержат только списки хеш-сумм
[Профиль]  [ЛС] 

vlaluk

Top Loader 02* 300GB

Стаж: 10 лет 11 месяцев

Сообщений: 254

vlaluk · 29-Янв-13 07:00 (спустя 3 часа)

[Цитировать] 

Аудио раздули издатели до 6-ти каналов.
[Профиль]  [ЛС] 

totktosiditvprudu

Победители музыкальных конкурсов

Стаж: 10 лет 7 месяцев

Сообщений: 185

totktosiditvprudu · 29-Янв-13 14:09 (спустя 7 часов)

[Цитировать] 

Отлично, я и не ожидал BD ))) сюрприз... А никто не знает, почему только 720p?
P.S. жду от кого-нибудь рип )))
В любом случае, спасибо!
[Профиль]  [ЛС] 

-GuNNeR-

Стаж: 9 лет 7 месяцев

Сообщений: 419


-GuNNeR- · 29-Янв-13 14:13 (спустя 3 мин., ред. 29-Янв-13 14:13)

[Цитировать] 

totktosiditvprudu писал(а):
57630294А никто не знает, почему только 720p?
Чтобы на один диск вместились все серии..
[Профиль]  [ЛС] 

GATER_media

Top Seed 01* 40r

Стаж: 7 лет 7 месяцев

Сообщений: 1706

GATER_media · 29-Янв-13 14:39 (спустя 26 мин., ред. 29-Янв-13 14:39)

[Цитировать] 

vlaluk писал(а):
57625864Аудио раздули издатели до 6-ти каналов.
Кто бы пересобрал в норм стерео.
totktosiditvprudu писал(а):
57630294Отлично, я и не ожидал BD ))) сюрприз... А никто не знает, почему только 720p?
Наверное посчитали, что для сериала и так хватит. Удивительно, что его вообще на БД выпустили.
totktosiditvprudu писал(а):
P.S. жду от кого-нибудь рип )))
В любом случае, спасибо!
Что тут рипать? Для 50 минут серии 2 гига вполне нормально.
Или вы про СД рип?
[Профиль]  [ЛС] 

Ru.Corsar

Стаж: 5 лет 9 месяцев

Сообщений: 63

Ru.Corsar · 29-Янв-13 15:16 (спустя 36 мин.)

[Цитировать] 

А почему BDRemux на мой взгляд правильнее было бы BDRip,так понятней,что все серии по отдельности.
[Профиль]  [ЛС] 

GATER_media

Top Seed 01* 40r

Стаж: 7 лет 7 месяцев

Сообщений: 1706

GATER_media · 29-Янв-13 15:46 (спустя 30 мин.)

[Цитировать] 

Ru.Corsar писал(а):
57631296А почему BDRemux на мой взгляд правильнее было бы BDRip,так понятней,что все серии по отдельности.
Потому что "рип" это пережатое видео, а здесь нетронутый исходник))
[Профиль]  [ЛС] 

metla111

Top Seed 03* 160r

Стаж: 11 лет 1 месяц

Сообщений: 872

metla111 · 29-Янв-13 22:09 (спустя 6 часов)

[Цитировать] 

GATER_media писал(а):
57631782
Ru.Corsar писал(а):
57631296А почему BDRemux на мой взгляд правильнее было бы BDRip,так понятней,что все серии по отдельности.
Потому что "рип" это пережатое видео, а здесь нетронутый исходник))
Что то на нетронутый исходник не похоже
MI
Полное имя : Obratnaja.storona.luny.S01E01.720p.BDRemux.mkv
Формат : Matroska
Версия формата : Version 4 / Version 2
Размер файла : 4,24 Гбайт
Продолжительность : 1 ч. 41 м.
Режим общего битрейта : Переменный
Общий поток : 6012 Кбит/сек
Название фильма : Первая серия
Дата кодирования : UTC 2010-02-22 21:41:31
Программа кодирования : mkvmerge v5.9.0 ('On The Loose') built on Dec 9 2012 15:37:01
Библиотека кодирования : libebml v1.3.0 + libmatroska v1.4.0
Видео
Идентификатор : 1
Формат : AVC
Формат/Информация : Advanced Video Codec
Профиль формата : [email protected]
Параметр CABAC формата : Да
Параметр ReFrames формата : 3 кадра
Идентификатор кодека : V_MPEG4/ISO/AVC
Продолжительность : 1 ч. 41 м.
Вид битрейта : Переменный
Битрейт : 5500 Кбит/сек
Максимальный битрейт : 40,0 Мбит/сек
Ширина : 1280 пикселей
Высота : 720 пикселей
Соотношение сторон : 16:9
Режим частоты кадров : Постоянный
Частота кадров : 23,976 кадра/сек
Цветовое пространство : YUV
Субдискретизация насыщенности : 4:2:0
Битовая глубина : 8 бит
Тип развёртки : Прогрессивная
Бит/(Пиксели*Кадры) : 0.249
Размер потока : 3,89 Гбайт (92%)
Библиотека кодирования : x264 core 98 r1649 c54c47d
Настройки программы : cabac=1 / ref=4 / deblock=1:0:0 / analyse=0x3:0x113 / me=hex / subme=7 / psy=1 / psy_rd=1.00:0.00 / mixed_ref=1 / me_range=16 / chroma_me=1 / trellis=1 / 8x8dct=1 / cqm=0 / deadzone=21,11 / fast_pskip=1 / chroma_qp_offset=-2 / threads=18 / sliced_threads=0 / slices=4 / nr=0 / decimate=1 / interlaced=0 / constrained_intra=0 / bframes=3 / b_pyramid=1 / b_adapt=1 / b_bias=0 / direct=1 / weightb=1 / weightp=0 / keyint=24 / keyint_min=2 / scenecut=40 / intra_refresh=0 / rc_lookahead=24 / rc=2pass / mbtree=1 / bitrate=5500 / ratetol=1.0 / qcomp=0.60 / qpmin=10 / qpmax=51 / qpstep=4 / cplxblur=20.0 / qblur=0.5 / vbv_maxrate=40000 / vbv_bufsize=30000 / ip_ratio=1.40 / aq=1:1.00 / nal_hrd=vbr
Язык : Russian
Default : Да
Forced : Нет
Основные цвета : BT.709
Характеристики трансфера : BT.709
Коэффициенты матрицы : BT.709
Аудио
Идентификатор : 2
Формат : AC-3
Формат/Информация : Audio Coding 3
Расширение режима : CM (complete main)
Параметр Endianness формата : Big
Идентификатор кодека : A_AC3
Продолжительность : 1 ч. 41 м.
Вид битрейта : Постоянный
Битрейт : 384 Кбит/сек
Каналы : 6 каналов
Расположение каналов : Front: L C R, Side: L R, LFE
Частота : 48,0 КГц
Битовая глубина : 16 бит
Метод сжатия : С потерями
Размер потока : 277 Мбайт (6%)
Язык : Russian
Default : Да
Forced : Нет
[Профиль]  [ЛС] 

Ru.Corsar

Стаж: 5 лет 9 месяцев

Сообщений: 63

Ru.Corsar · 30-Янв-13 01:51 (спустя 3 часа, ред. 30-Янв-13 01:51)

[Цитировать] 

GATER_media писал(а):
57631782
Ru.Corsar писал(а):
57631296А почему BDRemux на мой взгляд правильнее было бы BDRip,так понятней,что все серии по отдельности.
Потому что "рип" это пережатое видео, а здесь нетронутый исходник))
Нетронутый исходник-файлы m2ts их можно разбить по сериям и оставить в ts тогда не тронутое видео.Здесь Stream size : 2.12 GiB (92%)
Я не хочу сказать что это плохо.
Релизеру спасибо,а то на BD(язык не поворачивается назвать его Blu-ray) нет скинов меню и не понятно с выбором серии,или что искать не просмотренную серию перемоткой?
[Профиль]  [ЛС] 

-GuNNeR-

Стаж: 9 лет 7 месяцев

Сообщений: 419


-GuNNeR- · 30-Янв-13 02:04 (спустя 12 мин., ред. 30-Янв-13 02:04)

[Цитировать] 

Ru.Corsar, сейчас проверил: на BD есть меню и выбор эпизодов.
[Профиль]  [ЛС] 

Волкодав1982

Стаж: 8 лет 8 месяцев

Сообщений: 988

Волкодав1982 · 30-Янв-13 09:10 (спустя 7 часов)

[Цитировать] 

Скачаю пару серий на пробу. пойдет сериал и или нет
[Профиль]  [ЛС] 

GATER_media

Top Seed 01* 40r

Стаж: 7 лет 7 месяцев

Сообщений: 1706

GATER_media · 30-Янв-13 11:16 (спустя 2 часа 6 мин.)

[Цитировать] 

Ru.Corsar писал(а):
57642380
GATER_media писал(а):
57631782
Ru.Corsar писал(а):
57631296А почему BDRemux на мой взгляд правильнее было бы BDRip,так понятней,что все серии по отдельности.
Потому что "рип" это пережатое видео, а здесь нетронутый исходник))
Нетронутый исходник-файлы m2ts их можно разбить по сериям и оставить в ts тогда не тронутое видео.Здесь Stream size : 2.12 GiB (92%)
Я не хочу сказать что это плохо.
Релизеру спасибо,а то на BD(язык не поворачивается назвать его Blu-ray) нет скинов меню и не понятно с выбором серии,или что искать не просмотренную серию перемоткой?
Под словом "нетронутый" я имел ввиду что видео не пережимали кодеками)))
[Профиль]  [ЛС] 

history

Стаж: 9 лет 4 месяца

Сообщений: 756

history · 30-Янв-13 11:38 (спустя 21 мин.)

[Цитировать] 

Рип на пару болванок не помешал бы.
[Профиль]  [ЛС] 

metla111

Top Seed 03* 160r

Стаж: 11 лет 1 месяц

Сообщений: 872

metla111 · 30-Янв-13 19:58 (спустя 8 часов)

[Цитировать] 

GATER_media писал(а):
Под словом "нетронутый" я имел ввиду что видео не пережимали кодеками)))
Меня собственно вот это смущает:
скрытый текст
Полное имя : Obratnaja.storona.luny.S01E01.720p.BDRemux.mkv
Формат : Matroska
Версия формата : Version 4 / Version 2
Размер файла : 4,24 Гбайт
Продолжительность : 1 ч. 41 м.
Режим общего битрейта : Переменный
Общий поток : 6012 Кбит/сек
Название фильма : Первая серия
Дата кодирования : UTC 2010-02-22 21:41:31
Программа кодирования : mkvmerge v5.9.0 ('On The Loose') built on Dec 9 2012 15:37:01
Библиотека кодирования : libebml v1.3.0 + libmatroska v1.4.0
Видео
Идентификатор : 1
Формат : AVC
Формат/Информация : Advanced Video Codec
Профиль формата : [email protected]
Параметр CABAC формата : Да
Параметр ReFrames формата : 3 кадра
Идентификатор кодека : V_MPEG4/ISO/AVC
Продолжительность : 1 ч. 41 м.
Вид битрейта : Переменный
Битрейт : 5500 Кбит/сек
Максимальный битрейт : 40,0 Мбит/сек
Ширина : 1280 пикселей
Высота : 720 пикселей
Соотношение сторон : 16:9
Режим частоты кадров : Постоянный
Частота кадров : 23,976 кадра/сек
Цветовое пространство : YUV
Субдискретизация насыщенности : 4:2:0
Битовая глубина : 8 бит
Тип развёртки : Прогрессивная
Бит/(Пиксели*Кадры) : 0.249
Размер потока : 3,89 Гбайт (92%)
Библиотека кодирования : x264 core 98 r1649 c54c47d
Настройки программы : cabac=1 / ref=4 / deblock=1:0:0 / analyse=0x3:0x113 / me=hex / subme=7 / psy=1 / psy_rd=1.00:0.00 / mixed_ref=1 / me_range=16 / chroma_me=1 / trellis=1 / 8x8dct=1 / cqm=0 / deadzone=21,11 / fast_pskip=1 / chroma_qp_offset=-2 / threads=18 / sliced_threads=0 / slices=4 / nr=0 / decimate=1 / interlaced=0 / constrained_intra=0 / bframes=3 / b_pyramid=1 / b_adapt=1 / b_bias=0 / direct=1 / weightb=1 / weightp=0 / keyint=24 / keyint_min=2 / scenecut=40 / intra_refresh=0 / rc_lookahead=24 / rc=2pass / mbtree=1 / bitrate=5500 / ratetol=1.0 / qcomp=0.60 / qpmin=10 / qpmax=51 / qpstep=4 / cplxblur=20.0 / qblur=0.5 / vbv_maxrate=40000 / vbv_bufsize=30000 / ip_ratio=1.40 / aq=1:1.00 / nal_hrd=vbr
Язык : Russian
Default : Да
Forced : Нет
Основные цвета : BT.709
Характеристики трансфера : BT.709
Коэффициенты матрицы : BT.709
Аудио
Идентификатор : 2
Формат : AC-3
Формат/Информация : Audio Coding 3
Расширение режима : CM (complete main)
Параметр Endianness формата : Big
Идентификатор кодека : A_AC3
Продолжительность : 1 ч. 41 м.
Вид битрейта : Постоянный
Битрейт : 384 Кбит/сек
Каналы : 6 каналов
Расположение каналов : Front: L C R, Side: L R, LFE
Частота : 48,0 КГц
Битовая глубина : 16 бит
Метод сжатия : С потерями
Размер потока : 277 Мбайт (6%)
Язык : Russian
Default : Да
Forced : Нет
Мож это всё-же не BDRemux, а BDRip-720p?
[Профиль]  [ЛС] 

Strifyonlyone

Top Bonus 05* 10TB

Стаж: 8 лет 10 месяцев

Сообщений: 280

Strifyonlyone · 31-Янв-13 06:02 (спустя 10 часов)

[Цитировать] 

metla111 писал(а):
57653871
GATER_media писал(а):
Под словом "нетронутый" я имел ввиду что видео не пережимали кодеками)))
Меня собственно вот это смущает:
скрытый текст
Полное имя : Obratnaja.storona.luny.S01E01.720p.BDRemux.mkv
Формат : Matroska
Версия формата : Version 4 / Version 2
Размер файла : 4,24 Гбайт
Продолжительность : 1 ч. 41 м.
Режим общего битрейта : Переменный
Общий поток : 6012 Кбит/сек
Название фильма : Первая серия
Дата кодирования : UTC 2010-02-22 21:41:31
Программа кодирования : mkvmerge v5.9.0 ('On The Loose') built on Dec 9 2012 15:37:01
Библиотека кодирования : libebml v1.3.0 + libmatroska v1.4.0
Видео
Идентификатор : 1
Формат : AVC
Формат/Информация : Advanced Video Codec
Профиль формата : [email protected]
Параметр CABAC формата : Да
Параметр ReFrames формата : 3 кадра
Идентификатор кодека : V_MPEG4/ISO/AVC
Продолжительность : 1 ч. 41 м.
Вид битрейта : Переменный
Битрейт : 5500 Кбит/сек
Максимальный битрейт : 40,0 Мбит/сек
Ширина : 1280 пикселей
Высота : 720 пикселей
Соотношение сторон : 16:9
Режим частоты кадров : Постоянный
Частота кадров : 23,976 кадра/сек
Цветовое пространство : YUV
Субдискретизация насыщенности : 4:2:0
Битовая глубина : 8 бит
Тип развёртки : Прогрессивная
Бит/(Пиксели*Кадры) : 0.249
Размер потока : 3,89 Гбайт (92%)
Библиотека кодирования : x264 core 98 r1649 c54c47d
Настройки программы : cabac=1 / ref=4 / deblock=1:0:0 / analyse=0x3:0x113 / me=hex / subme=7 / psy=1 / psy_rd=1.00:0.00 / mixed_ref=1 / me_range=16 / chroma_me=1 / trellis=1 / 8x8dct=1 / cqm=0 / deadzone=21,11 / fast_pskip=1 / chroma_qp_offset=-2 / threads=18 / sliced_threads=0 / slices=4 / nr=0 / decimate=1 / interlaced=0 / constrained_intra=0 / bframes=3 / b_pyramid=1 / b_adapt=1 / b_bias=0 / direct=1 / weightb=1 / weightp=0 / keyint=24 / keyint_min=2 / scenecut=40 / intra_refresh=0 / rc_lookahead=24 / rc=2pass / mbtree=1 / bitrate=5500 / ratetol=1.0 / qcomp=0.60 / qpmin=10 / qpmax=51 / qpstep=4 / cplxblur=20.0 / qblur=0.5 / vbv_maxrate=40000 / vbv_bufsize=30000 / ip_ratio=1.40 / aq=1:1.00 / nal_hrd=vbr
Язык : Russian
Default : Да
Forced : Нет
Основные цвета : BT.709
Характеристики трансфера : BT.709
Коэффициенты матрицы : BT.709
Аудио
Идентификатор : 2
Формат : AC-3
Формат/Информация : Audio Coding 3
Расширение режима : CM (complete main)
Параметр Endianness формата : Big
Идентификатор кодека : A_AC3
Продолжительность : 1 ч. 41 м.
Вид битрейта : Постоянный
Битрейт : 384 Кбит/сек
Каналы : 6 каналов
Расположение каналов : Front: L C R, Side: L R, LFE
Частота : 48,0 КГц
Битовая глубина : 16 бит
Метод сжатия : С потерями
Размер потока : 277 Мбайт (6%)
Язык : Russian
Default : Да
Forced : Нет
Мож это всё-же не BDRemux, а BDRip-720p?
Может Вы с таким стажем уже BDInfo в соседней раздаче посмотрите?
[Профиль]  [ЛС] 

GATER_media

Top Seed 01* 40r

Стаж: 7 лет 7 месяцев

Сообщений: 1706

GATER_media · 31-Янв-13 12:03 (спустя 6 часов)

[Цитировать] 

metla111 писал(а):
57653871
GATER_media писал(а):
Под словом "нетронутый" я имел ввиду что видео не пережимали кодеками)))
Меня собственно вот это смущает:
скрытый текст
Полное имя : Obratnaja.storona.luny.S01E01.720p.BDRemux.mkv
Формат : Matroska
Версия формата : Version 4 / Version 2
Размер файла : 4,24 Гбайт
Продолжительность : 1 ч. 41 м.
Режим общего битрейта : Переменный
Общий поток : 6012 Кбит/сек
Название фильма : Первая серия
Дата кодирования : UTC 2010-02-22 21:41:31
Программа кодирования : mkvmerge v5.9.0 ('On The Loose') built on Dec 9 2012 15:37:01
Библиотека кодирования : libebml v1.3.0 + libmatroska v1.4.0
Видео
Идентификатор : 1
Формат : AVC
Формат/Информация : Advanced Video Codec
Профиль формата : [email protected]
Параметр CABAC формата : Да
Параметр ReFrames формата : 3 кадра
Идентификатор кодека : V_MPEG4/ISO/AVC
Продолжительность : 1 ч. 41 м.
Вид битрейта : Переменный
Битрейт : 5500 Кбит/сек
Максимальный битрейт : 40,0 Мбит/сек
Ширина : 1280 пикселей
Высота : 720 пикселей
Соотношение сторон : 16:9
Режим частоты кадров : Постоянный
Частота кадров : 23,976 кадра/сек
Цветовое пространство : YUV
Субдискретизация насыщенности : 4:2:0
Битовая глубина : 8 бит
Тип развёртки : Прогрессивная
Бит/(Пиксели*Кадры) : 0.249
Размер потока : 3,89 Гбайт (92%)
Библиотека кодирования : x264 core 98 r1649 c54c47d
Настройки программы : cabac=1 / ref=4 / deblock=1:0:0 / analyse=0x3:0x113 / me=hex / subme=7 / psy=1 / psy_rd=1.00:0.00 / mixed_ref=1 / me_range=16 / chroma_me=1 / trellis=1 / 8x8dct=1 / cqm=0 / deadzone=21,11 / fast_pskip=1 / chroma_qp_offset=-2 / threads=18 / sliced_threads=0 / slices=4 / nr=0 / decimate=1 / interlaced=0 / constrained_intra=0 / bframes=3 / b_pyramid=1 / b_adapt=1 / b_bias=0 / direct=1 / weightb=1 / weightp=0 / keyint=24 / keyint_min=2 / scenecut=40 / intra_refresh=0 / rc_lookahead=24 / rc=2pass / mbtree=1 / bitrate=5500 / ratetol=1.0 / qcomp=0.60 / qpmin=10 / qpmax=51 / qpstep=4 / cplxblur=20.0 / qblur=0.5 / vbv_maxrate=40000 / vbv_bufsize=30000 / ip_ratio=1.40 / aq=1:1.00 / nal_hrd=vbr
Язык : Russian
Default : Да
Forced : Нет
Основные цвета : BT.709
Характеристики трансфера : BT.709
Коэффициенты матрицы : BT.709
Аудио
Идентификатор : 2
Формат : AC-3
Формат/Информация : Audio Coding 3
Расширение режима : CM (complete main)
Параметр Endianness формата : Big
Идентификатор кодека : A_AC3
Продолжительность : 1 ч. 41 м.
Вид битрейта : Постоянный
Битрейт : 384 Кбит/сек
Каналы : 6 каналов
Расположение каналов : Front: L C R, Side: L R, LFE
Частота : 48,0 КГц
Битовая глубина : 16 бит
Метод сжатия : С потерями
Размер потока : 277 Мбайт (6%)
Язык : Russian
Default : Да
Forced : Нет
Мож это всё-же не BDRemux, а BDRip-720p?
Не знаю, у меня МедиаИнфо параметров кодирования не показывает.
Да и вес соответствует исходному диску (минус структура диска).
[Профиль]  [ЛС] 

metla111

Top Seed 03* 160r

Стаж: 11 лет 1 месяц

Сообщений: 872

metla111 · 31-Янв-13 22:42 (спустя 10 часов, ред. 31-Янв-13 22:42)

[Цитировать] 

Strifyonlyone писал(а):
Может Вы с таким стажем уже BDInfo в соседней раздаче посмотрите?
И что я там должен увидеть?
GATER_media писал(а):
Не знаю, у меня МедиаИнфо параметров кодирования не показывает.
Да и вес соответствует исходному диску (минус структура диска).
Что интересно, сэмпл у меня показывает как и должно быть...но вот скачал ещё раз 1 серию и там та же петрушка, грешил уже на медиаинфо, переустановил, всё так же...
Мне в принципе фиолетово, бдремукс это или рип, просто интересно стало, почему такая петрушка?
Сэмпл
Полное имя : Obratnaja.storona.luny.S01E01.720p.BDRemux.Sample.mkv
Формат : Matroska
Версия формата : Version 4 / Version 2
Размер файла : 25,8 Мбайт
Продолжительность : 39 с.
Режим общего битрейта : Переменный
Общий поток : 5423 Кбит/сек
Название фильма : Первая серия
Дата кодирования : UTC 2010-02-22 21:41:31
Программа кодирования : mkvmerge v5.9.0 ('On The Loose') built on Dec 9 2012 15:37:01
Библиотека кодирования : libebml v1.3.0 + libmatroska v1.4.0
Видео
Идентификатор : 1
Формат : AVC
Формат/Информация : Advanced Video Codec
Профиль формата : [email protected]
Параметр CABAC формата : Да
Параметр ReFrames формата : 3 кадра
Идентификатор кодека : V_MPEG4/ISO/AVC
Продолжительность : 39 с.
Вид битрейта : Переменный
Битрейт : 4931 Кбит/сек
Максимальный битрейт : 40,0 Мбит/сек
Ширина : 1280 пикселей
Высота : 720 пикселей
Соотношение сторон : 16:9
Режим частоты кадров : Постоянный
Частота кадров : 23,962 кадра/сек
Частота кадров в оригинале : 23,976 кадра/сек
Цветовое пространство : YUV
Субдискретизация насыщенности : 4:2:0
Битовая глубина : 8 бит
Тип развёртки : Прогрессивная
Бит/(Пиксели*Кадры) : 0.223
Размер потока : 23,5 Мбайт (91%)
Язык : Russian
Default : Да
Forced : Нет
Основные цвета : BT.709
Характеристики трансфера : BT.709
Коэффициенты матрицы : BT.709
Аудио
Идентификатор : 2
Формат : AC-3
Формат/Информация : Audio Coding 3
Расширение режима : CM (complete main)
Параметр Endianness формата : Big
Идентификатор кодека : A_AC3
Продолжительность : 39 с.
Вид битрейта : Постоянный
Битрейт : 384 Кбит/сек
Каналы : 6 каналов
Расположение каналов : Front: L C R, Side: L R, LFE
Частота : 48,0 КГц
Битовая глубина : 16 бит
Метод сжатия : С потерями
Задержка видео : 24 мс.
Размер потока : 1,83 Мбайт (7%)
Язык : Russian
Default : Да
Forced : Нет
1 серия
Полное имя : Obratnaja.storona.luny.S01E01.720p.BDRemux.mkv
Формат : Matroska
Версия формата : Version 4 / Version 2
Размер файла : 4,24 Гбайт
Продолжительность : 1 ч. 41 м.
Режим общего битрейта : Переменный
Общий поток : 6012 Кбит/сек
Название фильма : Первая серия
Дата кодирования : UTC 2010-02-22 21:41:31
Программа кодирования : mkvmerge v5.9.0 ('On The Loose') built on Dec 9 2012 15:37:01
Библиотека кодирования : libebml v1.3.0 + libmatroska v1.4.0
Видео
Идентификатор : 1
Формат : AVC
Формат/Информация : Advanced Video Codec
Профиль формата : [email protected]
Параметр CABAC формата : Да
Параметр ReFrames формата : 3 кадра
Идентификатор кодека : V_MPEG4/ISO/AVC
Продолжительность : 1 ч. 41 м.
Вид битрейта : Переменный
Битрейт : 5500 Кбит/сек
Максимальный битрейт : 40,0 Мбит/сек
Ширина : 1280 пикселей
Высота : 720 пикселей
Соотношение сторон : 16:9
Режим частоты кадров : Постоянный
Частота кадров : 23,976 кадра/сек
Цветовое пространство : YUV
Субдискретизация насыщенности : 4:2:0
Битовая глубина : 8 бит
Тип развёртки : Прогрессивная
Бит/(Пиксели*Кадры) : 0.249
Размер потока : 3,89 Гбайт (92%)
Библиотека кодирования : x264 core 98 r1649 c54c47d
Настройки программы : cabac=1 / ref=4 / deblock=1:0:0 / analyse=0x3:0x113 / me=hex / subme=7 / psy=1 / psy_rd=1.00:0.00 / mixed_ref=1 / me_range=16 / chroma_me=1 / trellis=1 / 8x8dct=1 / cqm=0 / deadzone=21,11 / fast_pskip=1 / chroma_qp_offset=-2 / threads=18 / sliced_threads=0 / slices=4 / nr=0 / decimate=1 / interlaced=0 / constrained_intra=0 / bframes=3 / b_pyramid=1 / b_adapt=1 / b_bias=0 / direct=1 / weightb=1 / weightp=0 / keyint=24 / keyint_min=2 / scenecut=40 / intra_refresh=0 / rc_lookahead=24 / rc=2pass / mbtree=1 / bitrate=5500 / ratetol=1.0 / qcomp=0.60 / qpmin=10 / qpmax=51 / qpstep=4 / cplxblur=20.0 / qblur=0.5 / vbv_maxrate=40000 / vbv_bufsize=30000 / ip_ratio=1.40 / aq=1:1.00 / nal_hrd=vbr
Язык : Russian
Default : Да
Forced : Нет
Основные цвета : BT.709
Характеристики трансфера : BT.709
Коэффициенты матрицы : BT.709
Аудио
Идентификатор : 2
Формат : AC-3
Формат/Информация : Audio Coding 3
Расширение режима : CM (complete main)
Параметр Endianness формата : Big
Идентификатор кодека : A_AC3
Продолжительность : 1 ч. 41 м.
Вид битрейта : Постоянный
Битрейт : 384 Кбит/сек
Каналы : 6 каналов
Расположение каналов : Front: L C R, Side: L R, LFE
Частота : 48,0 КГц
Битовая глубина : 16 бит
Метод сжатия : С потерями
Размер потока : 277 Мбайт (6%)
Язык : Russian
Default : Да
Forced : Нет
[Профиль]  [ЛС] 

djdance1

Стаж: 10 лет 11 месяцев

Сообщений: 58

djdance1 · 01-Фев-13 16:27 (спустя 17 часов)

[Цитировать] 

спорщики блин
спасибо за раздачу
все равно на трекере нет больше не-сатрипа (раздачу нативного блюрея планшет не засунешь)
[Профиль]  [ЛС] 

ЯХСНИМ

Стаж: 10 лет 4 месяца

Сообщений: 308

ЯХСНИМ · 02-Фев-13 11:41 (спустя 19 часов)

[Цитировать] 

djdance1 писал(а):
57685944спорщики блин
спасибо за раздачу
все равно на трекере нет больше не-сатрипа (раздачу нативного блюрея планшет не засунешь)
А Вы что, до сих пор не научились скачивать по сериям ? , даже если на планшетке 8 Гб. -
Две серии можно кинуть.....
[Профиль]  [ЛС] 

Bekra

Стаж: 8 лет 6 месяцев

Сообщений: 57

Bekra · 02-Фев-13 20:07 (спустя 8 часов)

[Цитировать] 

Сегодня на работе посоветовали посмотреть. До этого как-то ничего не слышал об этом сериале. Из двух тяжёлых раздач выбрал эту. После вашей ожесточённой переписки)
[Профиль]  [ЛС] 

x7a4

Стаж: 6 лет 11 месяцев

Сообщений: 1


x7a4 · 10-Фев-13 06:53 (спустя 7 дней)

[Цитировать] 

фильм супер, артисты супер, за последние лет 10 это лучшее, что я видел из российского кино!
[Профиль]  [ЛС] 

djdance1

Стаж: 10 лет 11 месяцев

Сообщений: 58

djdance1 · 23-Фев-13 11:33 (спустя 13 дней)

[Цитировать] 

ЯХСНИМ писал(а):
57699505
djdance1 писал(а):
57685944спорщики блин
раздачу нативного блюрея планшет не засунешь)
А Вы что, до сих пор не научились скачивать по сериям ? , даже если на планшетке 8 Гб. -
Две серии можно кинуть.....
кого по сериям, VOB ?
[Профиль]  [ЛС] 

Chemicalist

Стаж: 9 лет 1 месяц

Сообщений: 24

Chemicalist · 25-Фев-13 07:09 (спустя 1 день 19 часов)

[Цитировать] 

djdance1 писал(а):
58032418
ЯХСНИМ писал(а):
57699505
djdance1 писал(а):
57685944спорщики блин
раздачу нативного блюрея планшет не засунешь)
А Вы что, до сих пор не научились скачивать по сериям ? , даже если на планшетке 8 Гб. -
Две серии можно кинуть.....
кого по сериям, VOB ?
m2ts
[Профиль]  [ЛС] 

djdance1

Стаж: 10 лет 11 месяцев

Сообщений: 58

djdance1 · 07-Мар-13 19:53 (спустя 10 дней)

[Цитировать] 

Chemicalist,
этот конвертер бьёт VOB'ы по эпизодам?
[Профиль]  [ЛС] 

Marlamaar

Стаж: 10 лет 2 месяца

Сообщений: 23


Marlamaar · 20-Апр-13 15:08 (спустя 1 месяц 12 дней, ред. 20-Апр-13 15:08)

[Цитировать] 

Даже когда в фильме нашли разбитую пластинку Pink Floyd? то сказали - обратная сторона луны. Какая обратная? Темная она,темная. The Dark Side of the Moon.
А так фильм очень интересный - меньше пяти серий за раз не получается, затягивает. Было бы время, можно было сразу все 16 просмотреть.
[Профиль]  [ЛС] 

ipochta2000

Стаж: 10 лет 9 месяцев

Сообщений: 67

ipochta2000 · 26-Май-13 13:42 (спустя 1 месяц 5 дней)

[Цитировать] 

Оригинал поинтереснее оказался. "Жизнь на Марсе" - британский минисериал 2006 года, рекомендую.
[Профиль]  [ЛС] 

proffaleks

Стаж: 8 лет 4 месяца

Сообщений: 63


proffaleks · 29-Май-13 16:52 (спустя 3 дня, ред. 30-Май-13 21:00)

[Цитировать] 

Marlamaar писал(а):
58944963Даже когда в фильме нашли разбитую пластинку Pink Floyd? то сказали - обратная сторона луны. Какая обратная? Темная она,темная. The Dark Side of the Moon.
А так фильм очень интересный - меньше пяти серий за раз не получается, затягивает. Было бы время, можно было сразу все 16 просмотреть.
В СССР альбом Pink Floyd (The Dark Side of the Moon) так и называли вегда "Обратная сторона луны"
На мой ИМХО класно отоброзили то время даже в мелочах. Вообще хороший сериал.
ipochta2000
Кстати оригинал "Life on Mars" пробовал смотреть пару лет назад ...не зацепило.
[Профиль]  [ЛС] 

stranger296

Стаж: 9 лет 5 месяцев

Сообщений: 632


stranger296 · 13-Июл-13 14:49 (спустя 1 месяц 14 дней)

[Цитировать] 

Обложка BD
[Профиль]  [ЛС] 

bgrahgdxmdplkorh

Стаж: 8 лет 2 месяца

Сообщений: 49


bgrahgdxmdplkorh · 07-Сен-13 13:25 (спустя 1 месяц 24 дня)

[Цитировать] 

Для нашего ТВ - Отлично, лучшее, что выходило за последние пару лет. Хотя если сравнивать римейк с оригиналом "Жизнь на Марсе" (Британская Версия), то "Обратная Сторона Луны" гораздо слабее.
[Профиль]  [ЛС] 

kykyrek

Стаж: 8 лет 8 месяцев

Сообщений: 41


kykyrek · 29-Ноя-13 20:24 (спустя 2 месяца 22 дня, ред. 29-Ноя-13 20:24)

[Цитировать] 

bgrahgdxmdplkorh писал(а):
60777716Для нашего ТВ - Отлично, лучшее, что выходило за последние пару лет. Хотя если сравнивать римейк с оригиналом "Жизнь на Марсе" (Британская Версия), то "Обратная Сторона Луны" гораздо слабее.
Кому нечего вспоминать, тому, конечно, британское лучше.
Если кто смотрел Legnd of the seeker, то там завязка взята из библии - предсказано рождение убийцы правителя, и он приказывает вырезать всех первенцев в городке. Так что, будем смотреть кино или читать библию?
И да, в русском варианте это называлось тогда и называется сейчас ОБРАТНАЯ сторона, вот хотя бы здесь
http://mxlt.ucoz.ru/Rockinfo/Music/Pf/Moon/index.html
.
[Профиль]  [ЛС] 
 
Ответить
Loading...
Error