[Футбол] Чемпионат Германии 2013-14 / 20-й тур / Гамбург - Герта / Sky 3D [09.02.2014, Футбол, DVB-S2 Remux, 1080i, DE]

Страницы:  1

Ответить
Автор
Сообщение

SashaR.

Стаж: 9 лет 8 месяцев

Сообщений: 2102

SashaR. · 10-Фев-14 00:22 (4 года 5 месяцев назад, ред. 10-Фев-14 00:27)

Чемпионат Германии 2013-14 / 20-й тур / Гамбург - Герта / Sky 3D
Вид спорта: Футбол
Дата/Год выпуска: 09.02.2014
Язык комментариев: немецкий
Автор записи: SashaR.
Качество: DVB-S2 Remux
Формат видео: TS
Видео: AVC, 1920x1080, 16:9, 8 878 Kbps, 25 fps
Аудио: AC-3, 384 kbps, 48 kHz, 5 channels
Аудио: AC-3, 384 kbps, 48 kHz, 2 channels
Составы
"Гамбург": Адлер, Жи Гин, Джуру, Вестерманн, Янсен, Бадель, Бауй, Джон, Ван дер Ваарт Рафаэль, Калханоглу, Зуа
"Герта": Крафт, Ндженг, Кобиашвили, Лангкамп, Пекарик, Хосогаи, Чигерчи, Аллаги, Шелбред, Ван ден, Рамос
Media Info
G:\Чемпионат Германии 2013-14. 20-й тур. Гамбург - Герта (Sky 3D).ts
General #6
ID : 6 (0x6)
Complete name : G:\Чемпионат Германии 2013-14. 20-й тур. Гамбург - Герта (Sky 3D).ts
Format : MPEG-TS
File size : 7.09 GiB
Duration : 1h 39mn
Overall bit rate mode : Variable
Overall bit rate : 10.2 Mbps
Video #767
ID : 767 (0x2FF)
Menu ID : 117 (0x75)
Format : AVC
Format/Info : Advanced Video Codec
Format profile : [email protected]
Format settings, CABAC : Yes
Format settings, ReFrames : 3 frames
Codec ID : 27
Duration : 1h 39mn
Bit rate : 8 878 Kbps
Width : 1 920 pixels
Height : 1 080 pixels
Display aspect ratio : 16:9
Frame rate : 25.000 fps
Standard : Component
Color space : YUV
Chroma subsampling : 4:2:0
Bit depth : 8 bits
Scan type : Interlaced
Scan order : Top Field First
Bits/(Pixel*Frame) : 0.171
Stream size : 6.20 GiB (87%)
Color primaries : BT.709
Transfer characteristics : BT.709
Matrix coefficients : BT.709
Audio #771
ID : 771 (0x303)
Menu ID : 117 (0x75)
Format : AC-3
Format/Info : Audio Coding 3
Mode extension : CM (complete main)
Format settings, Endianness : Big
Codec ID : 6
Duration : 1h 39mn
Bit rate mode : Constant
Bit rate : 384 Kbps
Channel count : 5 channels
Channel positions : Front: L C R, Side: L R
Sampling rate : 48.0 KHz
Bit depth : 16 bits
Compression mode : Lossy
Delay relative to video : 92ms
Stream size : 275 MiB (4%)
Language : German
Language, more info : Clean effects
Audio #772
ID : 772 (0x304)
Menu ID : 117 (0x75)
Format : AC-3
Format/Info : Audio Coding 3
Mode extension : CM (complete main)
Format settings, Endianness : Big
Codec ID : 6
Duration : 1h 39mn
Bit rate mode : Constant
Bit rate : 384 Kbps
Channel count : 2 channels
Channel positions : Front: L R
Sampling rate : 48.0 KHz
Bit depth : 16 bits
Compression mode : Lossy
Delay relative to video : 93ms
Stream size : 275 MiB (4%)
Language : English
Language, more info : Clean effects
Продолжительность
01:39:59
Скриншоты
Счёт/Итог
0-3
Download
Для скачивания .torrent файлов необходима регистрация
Сайт не распространяет и не хранит электронные версии произведений, а лишь предоставляет доступ к создаваемому пользователями каталогу ссылок на торрент-файлы, которые содержат только списки хеш-сумм
[Профиль]  [ЛС] 
 
Ответить
Loading...
Error