[Экстрим] Ночное катание: В самый последний момент в 3Д / Nuit de la glisse: At the Very Last Moment 3D (Тьерри Донард / Thierry Donard) [2012, документальный, спорт, BDRip-AVC] Half SidebySide / Горизонтальная анаморфная стереопара

Страницы:  1

Ответить
Автор
Сообщение

IgorekSh

Top Seed 01* 40r

Стаж: 8 лет 6 месяцев

Сообщений: 270

IgorekSh · 11-Мар-14 19:17 (4 года 4 месяца назад)

Ночное катание: В самый последний момент в 3Д / Nuit de la glisse: At the Very Last Moment 3D
Год выпуска: 2012
Жанр: документальный, спорт
Страна: Франция
Продолжительность: 01:26:13
ПереводОтсутствует
Режиссер: Тьерри Донард / Thierry Donard
В ролях: Joris Brichet, Danny MacAskill, Garrett McNamara
Описание: Nuit de la Glisse sind schon seit Langem bekannt für ihre atemberaubenden Wintersportfilme. Nun versucht sich das Team mit „At the very last Moment“ erneut an einem spektakulären Projekt, bei dem sie neben Snowboardern auch Wingsuit-Jumper und Speedflyer bei ihrem aufregenden Ritt begleiten. Spektakuläre Aufnahmen katapultieren Sie dabei direkt ins Geschehen und erwecken in ihnen den Eindruck, selbst den Nervenkitzel zu spüren.

Формат 3D: Half SidebySide / Горизонтальная анаморфная стереопара
Порядок ракурсов: левый ракурс первый
Качество: BDRip
Контейнер: MKV
Видео кодек: x264
Аудио кодек: AC3
Качество видео: BDRip
Видео: MPEG-4 AVC/X264, 1920x1080, 23.976 fps, 7501 Kbps
Аудио: German, AC3, 44.1 KHz, 6 ch, 640 Kbps
Скриншоты
MediaInfo
Общее
Уникальный идентификатор : 239926237572652027334661478652369364283 (0xB4801CCF53498C38A27342DCF052E53B)
Полное имя : D:\Download\At the very last Moment 3D 2012 BDRip halfSbS 1080p (IgorekSh) [torrent3d.net].mkv
Формат : Matroska
Версия формата : Version 2
Размер файла : 3,40 Гбайт
Продолжительность : 1 ч. 26 м.
Режим общего битрейта : Переменный
Общий поток : 5638 Кбит/сек
Название фильма : torrent3d.net
Дата кодирования : UTC 2014-03-11 15:31:36
Программа кодирования : mkvmerge v4.0.0 ('The Stars were mine') сборка от Jun 6 2010 16:18:42
Библиотека кодирования : libebml v1.0.0 + libmatroska v1.0.0
Видео
Идентификатор : 1
Формат : AVC
Формат/Информация : Advanced Video Codec
Профиль формата : [email protected]
Параметр CABAC формата : Да
Параметр ReFrames формата : 2 кадра
Идентификатор кодека : V_MPEG4/ISO/AVC
Продолжительность : 1 ч. 26 м.
Вид битрейта : Переменный
Битрейт : 4886 Кбит/сек
Максимальный битрейт : 7501 Кбит/сек
Ширина : 1920 пикселей
Высота : 1080 пикселей
Соотношение сторон : 16:9
Режим частоты кадров : Постоянный
Частота кадров : 23,976 кадра/сек
Цветовое пространство : YUV
Субдискретизация насыщенности : 4:2:0
Битовая глубина : 8 бит
Тип развёртки : Прогрессивная
Бит/(Пиксели*Кадры) : 0.098
Размер потока : 2,94 Гбайт (87%)
Заголовок : IgorekSh [torrent3d.net]
Язык : German
Default : Нет
Forced : Нет
Аудио
Идентификатор : 2
Формат : AC-3
Формат/Информация : Audio Coding 3
Расширение режима : CM (complete main)
Параметр Endianness формата : Big
Идентификатор кодека : A_AC3
Продолжительность : 1 ч. 26 м.
Вид битрейта : Постоянный
Битрейт : 640 Кбит/сек
Каналы : 6 каналов
Расположение каналов : Front: L C R, Side: L R, LFE
Частота : 44,1 КГц
Битовая глубина : 16 бит
Метод сжатия : С потерями
Размер потока : 395 Мбайт (11%)
Заголовок : torrent3d.net
Язык : German
Default : Нет
Forced : Нет
Download
Для скачивания .torrent файлов необходима регистрация
Сайт не распространяет и не хранит электронные версии произведений, а лишь предоставляет доступ к создаваемому пользователями каталогу ссылок на торрент-файлы, которые содержат только списки хеш-сумм
[Профиль]  [ЛС] 
 
Ответить
Loading...
Error