Обратная сторона Луны / Сезон:1 Серии: 1-16 из 16 (Александр Котт) [2012, Мистический детектив, 2xDVD9]

Страницы :  1, 2  След.

Ответить
Автор
Сообщение

tretettert

Стаж: 8 лет 8 месяцев

Сообщений: 45


tretettert · 04-Авг-14 19:18 (4 года 2 месяца назад, ред. 09-Окт-14 15:46)

Обратная сторона Луны / Серии: 1-16 из 16 (Александр Котт)
Год выпуска: 2012
Производство: Россия, Компания "Кинослово" по заказу компании "Среда"
Жанр: Мистический детектив
Продолжительность: 870 минут
Субтитры: нет
Режиссёр: Александр Котт
В ролях: Павел Деревянко, Светлана Смирнова-Марцинкевич, Иван Шибанов, Карина Разумовская,
Евгений Богомолов, Олег Алмазов, Дмитрий Гусев, Александр Ляпин, Татьяна Чердынцева, Сергей Беляев
Описание:
Третий год старший лейтенант полиции Михаил Соловьёв идёт по следу Маньяка, терроризирующего столицу убийствами молодых женщин.
Во время операции задержания Маньяк сбивает Соловьёва автомобилем.
Придя в себя после аварии, Михаил обнаруживает, что переместился во времени и оказался в 1979 году.
Не понимая до конца, что с ним произошло, он, тем не менее, старается адаптироваться к новым обстоятельствам,
работая советским милиционером. А попутно пытается выяснить, в чём причина случившейся с ним метаморфозы.
Доп. информация:
Диски из личной коллекции
Сканы обложки и дисков
Информация о сериале на Кинопоиске

Все раздачи сериала
Сэмплы:
DVD1
DVD2

Качество: DVD9
Формат: DVD-Video
Видео кодек: MPEG2
Аудио кодек: AC3
Видео: PAL, 16:9, 720x576, ~4000 kbps, 25.00 fps, 0.39 bit/pixel.
Аудио: AC3, 48 kHz, 2.0, 192 kbps
MediaInfo
DVD1
Полное имя : D:\Раздачи\Обратная сторона Луны [2012, 2xDVD9]\Обратная сторона Луны (2012)\Disk1\VIDEO_TS\VIDEO_TS.BUP
Формат : DVD Video
Профиль формата : Menu
Размер файла : 12,0 Кбайт
Режим общего битрейта : Переменный
Видео
Идентификатор : 224 (0xE0)
Формат : MPEG Video
Версия формата : Version 2
Вид битрейта : Переменный
Ширина : 720 пикселей
Высота : 576 пикселей
Соотношение сторон : 16:9
Частота кадров : 25,000 кадров/сек
Стандарт вещания : PAL
Метод сжатия : С потерями
Аудио
Формат : AC-3
Формат/Информация : Audio Coding 3
Каналы : 2 канала
Частота : 48,0 КГц
Метод сжатия : С потерями
Текст
Формат : RLE
Формат/Информация : Run-length encoding
Битовая глубина : 2 бит
Общее
Полное имя : D:\Раздачи\Обратная сторона Луны [2012, 2xDVD9]\Обратная сторона Луны (2012)\Disk1\VIDEO_TS\VIDEO_TS.IFO
Формат : DVD Video
Профиль формата : Menu
Размер файла : 12,0 Кбайт
Режим общего битрейта : Переменный
Видео
Идентификатор : 224 (0xE0)
Формат : MPEG Video
Версия формата : Version 2
Вид битрейта : Переменный
Ширина : 720 пикселей
Высота : 576 пикселей
Соотношение сторон : 16:9
Частота кадров : 25,000 кадров/сек
Стандарт вещания : PAL
Метод сжатия : С потерями
Аудио
Формат : AC-3
Формат/Информация : Audio Coding 3
Каналы : 2 канала
Частота : 48,0 КГц
Метод сжатия : С потерями
Текст
Формат : RLE
Формат/Информация : Run-length encoding
Битовая глубина : 2 бит
Общее
Полное имя : D:\Раздачи\Обратная сторона Луны [2012, 2xDVD9]\Обратная сторона Луны (2012)\Disk1\VIDEO_TS\VIDEO_TS.VOB
Формат : MPEG-PS
Размер файла : 8,49 Мбайт
Продолжительность : 15 с.
Режим общего битрейта : Переменный
Общий поток : 4459 Кбит/сек
Видео
Идентификатор : 224 (0xE0)
Формат : MPEG Video
Версия формата : Version 2
Профиль формата : [email protected]
Параметр BVOP формата : Да
Параметр матрицы формата : По умолчанию
Параметр GOP формата : Variable
Продолжительность : 8 с. 0 мс.
Вид битрейта : Переменный
Битрейт : 4178 Кбит/сек
Максимальный битрейт : 6000 Кбит/сек
Ширина : 720 пикселей
Высота : 576 пикселей
Соотношение сторон : 16:9
Частота кадров : 25,000 кадров/сек
Стандарт вещания : PAL
Цветовое пространство : YUV
Субдискретизация насыщенности : 4:2:0
Битовая глубина : 8 бит
Тип развёртки : Чересстрочная
Порядок развёртки : Нижнее поле первое
Метод сжатия : С потерями
Бит/(Пиксели*Кадры) : 0.403
Временной код первого кадра : 00:00:00:00
Оригинал временного кода : Group of pictures header
Размер потока : 3,98 Мбайт (47%)
Аудио
Идентификатор : 189 (0xBD)-128 (0x80)
Формат : AC-3
Формат/Информация : Audio Coding 3
Расширение режима : CM (complete main)
Параметр Endianness формата : Big
Режим смешивания : DVD-Video
Продолжительность : 15 с.
Вид битрейта : Постоянный
Битрейт : 192 Кбит/сек
Каналы : 2 канала
Расположение каналов : Front: L R
Частота : 48,0 КГц
Битовая глубина : 16 бит
Метод сжатия : С потерями
Задержка видео : -80 мс.
Размер потока : 374 Кбайт (4%)
Меню
Общее
Полное имя : D:\Раздачи\Обратная сторона Луны [2012, 2xDVD9]\Обратная сторона Луны (2012)\Disk1\VIDEO_TS\VTS_01_0.BUP
Формат : DVD Video
Профиль формата : Program
Размер файла : 256 Кбайт
Продолжительность : 1 ч. 36 м.
Режим общего битрейта : Переменный
Общий поток : 361 бит/сек
Видео
Идентификатор : 224 (0xE0)
Формат : MPEG Video
Версия формата : Version 2
Продолжительность : 1 ч. 36 м.
Вид битрейта : Переменный
Ширина : 720 пикселей
Высота : 576 пикселей
Соотношение сторон : 16:9
Частота кадров : 25,000 кадров/сек
Стандарт вещания : PAL
Метод сжатия : С потерями
Аудио
Идентификатор : 128 (0x80)
Формат : AC-3
Формат/Информация : Audio Coding 3
Продолжительность : 1 ч. 36 м.
Каналы : 2 канала
Частота : 48,0 КГц
Метод сжатия : С потерями
Язык : Russian
Меню #1
Продолжительность : 1 ч. 36 м.
00:00:00.000 : Chapter 1
00:09:55.360 : Chapter 2
00:20:15.680 : Chapter 3
00:29:23.920 : Chapter 4
00:40:36.640 : Chapter 5
00:47:22.440 : Chapter 6
01:00:21.360 : Chapter 7
01:10:27.920 : Chapter 8
01:18:48.880 : Chapter 9
01:30:00.120 : Chapter 10
01:36:41.840 : Chapter 11
List (Audio) : 0
Меню #2
Продолжительность : 52 м.
00:00:00.000 : Chapter 1
00:11:47.000 : Chapter 2
00:20:47.800 : Chapter 3
00:30:15.960 : Chapter 4
00:39:54.120 : Chapter 5
00:52:02.560 : Chapter 6
List (Audio) : 0
Меню #3
Продолжительность : 53 м.
00:00:00.000 : Chapter 1
00:10:42.520 : Chapter 2
00:19:52.920 : Chapter 3
00:29:07.440 : Chapter 4
00:40:24.600 : Chapter 5
00:53:21.360 : Chapter 6
List (Audio) : 0
Меню #4
Продолжительность : 51 м.
00:00:00.000 : Chapter 1
00:07:15.760 : Chapter 2
00:17:56.760 : Chapter 3
00:28:30.720 : Chapter 4
00:38:27.280 : Chapter 5
00:51:53.360 : Chapter 6
List (Audio) : 0
Меню #5
Продолжительность : 52 м.
00:00:00.000 : Chapter 1
00:08:51.040 : Chapter 2
00:19:14.200 : Chapter 3
00:30:24.520 : Chapter 4
00:39:10.800 : Chapter 5
00:52:44.760 : Chapter 6
List (Audio) : 0
Меню #6
Продолжительность : 53 м.
00:00:00.000 : Chapter 1
00:11:09.280 : Chapter 2
00:19:57.280 : Chapter 3
00:30:02.520 : Chapter 4
00:39:41.400 : Chapter 5
00:53:24.520 : Chapter 6
List (Audio) : 0
Меню #7
Продолжительность : 53 м.
00:00:00.000 : Chapter 1
00:11:23.880 : Chapter 2
00:20:51.280 : Chapter 3
00:31:12.120 : Chapter 4
00:39:35.200 : Chapter 5
00:53:31.920 : Chapter 6
List (Audio) : 0
Меню #8
Продолжительность : 53 м.
00:00:00.000 : Chapter 1
00:09:59.760 : Chapter 2
00:19:20.720 : Chapter 3
00:30:08.000 : Chapter 4
00:39:54.920 : Chapter 5
00:53:24.440 : Chapter 6
List (Audio) : 0
Общее
Полное имя : D:\Раздачи\Обратная сторона Луны [2012, 2xDVD9]\Обратная сторона Луны (2012)\Disk1\VIDEO_TS\VTS_01_0.IFO
Формат : DVD Video
Профиль формата : Program
Размер файла : 256 Кбайт
Продолжительность : 1 ч. 36 м.
Режим общего битрейта : Переменный
Общий поток : 361 бит/сек
Видео
Идентификатор : 224 (0xE0)
Формат : MPEG Video
Версия формата : Version 2
Продолжительность : 1 ч. 36 м.
Вид битрейта : Переменный
Ширина : 720 пикселей
Высота : 576 пикселей
Соотношение сторон : 16:9
Частота кадров : 25,000 кадров/сек
Стандарт вещания : PAL
Метод сжатия : С потерями
Аудио
Идентификатор : 128 (0x80)
Формат : AC-3
Формат/Информация : Audio Coding 3
Продолжительность : 1 ч. 36 м.
Каналы : 2 канала
Частота : 48,0 КГц
Метод сжатия : С потерями
Язык : Russian
Меню #1
Продолжительность : 1 ч. 36 м.
00:00:00.000 : Chapter 1
00:09:55.360 : Chapter 2
00:20:15.680 : Chapter 3
00:29:23.920 : Chapter 4
00:40:36.640 : Chapter 5
00:47:22.440 : Chapter 6
01:00:21.360 : Chapter 7
01:10:27.920 : Chapter 8
01:18:48.880 : Chapter 9
01:30:00.120 : Chapter 10
01:36:41.840 : Chapter 11
List (Audio) : 0
Меню #2
Продолжительность : 52 м.
00:00:00.000 : Chapter 1
00:11:47.000 : Chapter 2
00:20:47.800 : Chapter 3
00:30:15.960 : Chapter 4
00:39:54.120 : Chapter 5
00:52:02.560 : Chapter 6
List (Audio) : 0
Меню #3
Продолжительность : 53 м.
00:00:00.000 : Chapter 1
00:10:42.520 : Chapter 2
00:19:52.920 : Chapter 3
00:29:07.440 : Chapter 4
00:40:24.600 : Chapter 5
00:53:21.360 : Chapter 6
List (Audio) : 0
Меню #4
Продолжительность : 51 м.
00:00:00.000 : Chapter 1
00:07:15.760 : Chapter 2
00:17:56.760 : Chapter 3
00:28:30.720 : Chapter 4
00:38:27.280 : Chapter 5
00:51:53.360 : Chapter 6
List (Audio) : 0
Меню #5
Продолжительность : 52 м.
00:00:00.000 : Chapter 1
00:08:51.040 : Chapter 2
00:19:14.200 : Chapter 3
00:30:24.520 : Chapter 4
00:39:10.800 : Chapter 5
00:52:44.760 : Chapter 6
List (Audio) : 0
Меню #6
Продолжительность : 53 м.
00:00:00.000 : Chapter 1
00:11:09.280 : Chapter 2
00:19:57.280 : Chapter 3
00:30:02.520 : Chapter 4
00:39:41.400 : Chapter 5
00:53:24.520 : Chapter 6
List (Audio) : 0
Меню #7
Продолжительность : 53 м.
00:00:00.000 : Chapter 1
00:11:23.880 : Chapter 2
00:20:51.280 : Chapter 3
00:31:12.120 : Chapter 4
00:39:35.200 : Chapter 5
00:53:31.920 : Chapter 6
List (Audio) : 0
Меню #8
Продолжительность : 53 м.
00:00:00.000 : Chapter 1
00:09:59.760 : Chapter 2
00:19:20.720 : Chapter 3
00:30:08.000 : Chapter 4
00:39:54.920 : Chapter 5
00:53:24.440 : Chapter 6
List (Audio) : 0
Общее
Полное имя : D:\Раздачи\Обратная сторона Луны [2012, 2xDVD9]\Обратная сторона Луны (2012)\Disk1\VIDEO_TS\VTS_01_0.VOB
Формат : MPEG-PS
Размер файла : 2,98 Мбайт
Продолжительность : 46 с.
Общий поток : 538 Кбит/сек
Видео
Идентификатор : 224 (0xE0)
Формат : MPEG Video
Версия формата : Version 2
Профиль формата : [email protected]
Параметр BVOP формата : Нет
Параметр матрицы формата : Выборочная
Продолжительность : 40 мс.
Битрейт : 336 Кбит/сек
Максимальный битрейт : 8000 Кбит/сек
Ширина : 720 пикселей
Высота : 576 пикселей
Соотношение сторон : 16:9
Частота кадров : 25,000 кадров/сек
Стандарт вещания : PAL
Цветовое пространство : YUV
Субдискретизация насыщенности : 4:2:0
Битовая глубина : 8 бит
Тип развёртки : Прогрессивная
Порядок развёртки : Верхнее поле первое
Метод сжатия : С потерями
Бит/(Пиксели*Кадры) : 0.032
Размер потока : 1,64 Кбайт (0%)
Аудио
Идентификатор : 189 (0xBD)-128 (0x80)
Формат : AC-3
Формат/Информация : Audio Coding 3
Расширение режима : CM (complete main)
Параметр Endianness формата : Big
Режим смешивания : DVD-Video
Продолжительность : 46 с.
Вид битрейта : Постоянный
Битрейт : 192 Кбит/сек
Каналы : 2 канала
Расположение каналов : Front: L R
Частота : 48,0 КГц
Битовая глубина : 16 бит
Метод сжатия : С потерями
Размер потока : 1,06 Мбайт (36%)
Текст #1
Идентификатор : 189 (0xBD)-32 (0x20)
Формат : RLE
Формат/Информация : Run-length encoding
Режим смешивания : DVD-Video
Текст #2
Идентификатор : 189 (0xBD)-33 (0x21)
Формат : RLE
Формат/Информация : Run-length encoding
Режим смешивания : DVD-Video
Меню
Общее
Полное имя : D:\Раздачи\Обратная сторона Луны [2012, 2xDVD9]\Обратная сторона Луны (2012)\Disk1\VIDEO_TS\VTS_01_1.VOB
Формат : MPEG-PS
Размер файла : 1024 Мбайт
Продолжительность : 1 ч. 0 м.
Режим общего битрейта : Переменный
Общий поток : 2383 Кбит/сек
Видео
Идентификатор : 224 (0xE0)
Формат : MPEG Video
Версия формата : Version 2
Профиль формата : [email protected]
Параметр BVOP формата : Да
Параметр матрицы формата : Выборочная
Параметр GOP формата : Variable
Продолжительность : 1 ч. 0 м.
Вид битрейта : Переменный
Битрейт : 2144 Кбит/сек
Максимальный битрейт : 9000 Кбит/сек
Ширина : 720 пикселей
Высота : 576 пикселей
Соотношение сторон : 16:9
Частота кадров : 25,000 кадров/сек
Стандарт вещания : PAL
Цветовое пространство : YUV
Субдискретизация насыщенности : 4:2:0
Битовая глубина : 8 бит
Тип развёртки : Чересстрочная
Порядок развёртки : Верхнее поле первое
Метод сжатия : С потерями
Бит/(Пиксели*Кадры) : 0.207
Временной код первого кадра : 00:00:00:00
Оригинал временного кода : Group of pictures header
Размер потока : 921 Мбайт (90%)
Аудио
Идентификатор : 189 (0xBD)-128 (0x80)
Формат : AC-3
Формат/Информация : Audio Coding 3
Расширение режима : CM (complete main)
Параметр Endianness формата : Big
Режим смешивания : DVD-Video
Продолжительность : 1 ч. 0 м.
Вид битрейта : Постоянный
Битрейт : 192 Кбит/сек
Каналы : 2 канала
Расположение каналов : Front: L R
Частота : 48,0 КГц
Битовая глубина : 16 бит
Метод сжатия : С потерями
Размер потока : 82,5 Мбайт (8%)
Меню
Общее
Полное имя : D:\Раздачи\Обратная сторона Луны [2012, 2xDVD9]\Обратная сторона Луны (2012)\Disk1\VIDEO_TS\VTS_01_2.VOB
Формат : MPEG-PS
Размер файла : 1024 Мбайт
Режим общего битрейта : Переменный
Видео
Идентификатор : 224 (0xE0)
Формат : MPEG Video
Версия формата : Version 2
Профиль формата : [email protected]
Параметр BVOP формата : Да
Параметр матрицы формата : Выборочная
Параметр GOP формата : Variable
Вид битрейта : Переменный
Максимальный битрейт : 9000 Кбит/сек
Ширина : 720 пикселей
Высота : 576 пикселей
Соотношение сторон : 16:9
Частота кадров : 25,000 кадров/сек
Стандарт вещания : PAL
Цветовое пространство : YUV
Субдискретизация насыщенности : 4:2:0
Битовая глубина : 8 бит
Тип развёртки : Чересстрочная
Порядок развёртки : Верхнее поле первое
Метод сжатия : С потерями
Временной код первого кадра : 01:00:04:06
Оригинал временного кода : Group of pictures header
Аудио
Идентификатор : 189 (0xBD)-128 (0x80)
Формат : AC-3
Формат/Информация : Audio Coding 3
Расширение режима : CM (complete main)
Параметр Endianness формата : Big
Режим смешивания : DVD-Video
Вид битрейта : Постоянный
Битрейт : 192 Кбит/сек
Каналы : 2 канала
Расположение каналов : Front: L R
Частота : 48,0 КГц
Битовая глубина : 16 бит
Метод сжатия : С потерями
Задержка видео : -80 мс.
Меню
Общее
Полное имя : D:\Раздачи\Обратная сторона Луны [2012, 2xDVD9]\Обратная сторона Луны (2012)\Disk1\VIDEO_TS\VTS_01_3.VOB
Формат : MPEG-PS
Размер файла : 1024 Мбайт
Продолжительность : 11 м.
Режим общего битрейта : Переменный
Общий поток : 12,8 Мбит/сек
Видео
Идентификатор : 224 (0xE0)
Формат : MPEG Video
Версия формата : Version 2
Профиль формата : [email protected]
Параметр BVOP формата : Да
Параметр матрицы формата : Выборочная
Параметр GOP формата : Variable
Продолжительность : 11 м.
Вид битрейта : Переменный
Битрейт : 12,3 Мбит/сек
Максимальный битрейт : 9000 Кбит/сек
Ширина : 720 пикселей
Высота : 576 пикселей
Соотношение сторон : 16:9
Частота кадров : 25,000 кадров/сек
Стандарт вещания : PAL
Цветовое пространство : YUV
Субдискретизация насыщенности : 4:2:0
Битовая глубина : 8 бит
Тип развёртки : Чересстрочная
Порядок развёртки : Верхнее поле первое
Метод сжатия : С потерями
Бит/(Пиксели*Кадры) : 1.188
Временной код первого кадра : 00:28:27:12
Оригинал временного кода : Group of pictures header
Размер потока : 988 Мбайт (96%)
Аудио
Идентификатор : 189 (0xBD)-128 (0x80)
Формат : AC-3
Формат/Информация : Audio Coding 3
Расширение режима : CM (complete main)
Параметр Endianness формата : Big
Режим смешивания : DVD-Video
Продолжительность : 11 м.
Вид битрейта : Постоянный
Битрейт : 192 Кбит/сек
Каналы : 2 канала
Расположение каналов : Front: L R
Частота : 48,0 КГц
Битовая глубина : 16 бит
Метод сжатия : С потерями
Задержка видео : -200 мс.
Размер потока : 15,4 Мбайт (2%)
Меню
Общее
Полное имя : D:\Раздачи\Обратная сторона Луны [2012, 2xDVD9]\Обратная сторона Луны (2012)\Disk1\VIDEO_TS\VTS_01_4.VOB
Формат : MPEG-PS
Размер файла : 1024 Мбайт
Продолжительность : 9 м. 9 с.
Режим общего битрейта : Переменный
Общий поток : 15,6 Мбит/сек
Видео
Идентификатор : 224 (0xE0)
Формат : MPEG Video
Версия формата : Version 2
Профиль формата : [email protected]
Параметр BVOP формата : Да
Параметр матрицы формата : Выборочная
Параметр GOP формата : M=3, N=15
Продолжительность : 9 м. 9 с.
Вид битрейта : Переменный
Битрейт : 15,1 Мбит/сек
Максимальный битрейт : 9000 Кбит/сек
Ширина : 720 пикселей
Высота : 576 пикселей
Соотношение сторон : 16:9
Частота кадров : 25,000 кадров/сек
Стандарт вещания : PAL
Цветовое пространство : YUV
Субдискретизация насыщенности : 4:2:0
Битовая глубина : 8 бит
Тип развёртки : Чересстрочная
Порядок развёртки : Верхнее поле первое
Метод сжатия : С потерями
Бит/(Пиксели*Кадры) : 1.459
Временной код первого кадра : 00:39:40:14
Оригинал временного кода : Group of pictures header
Размер потока : 991 Мбайт (97%)
Аудио
Идентификатор : 189 (0xBD)-128 (0x80)
Формат : AC-3
Формат/Информация : Audio Coding 3
Расширение режима : CM (complete main)
Параметр Endianness формата : Big
Режим смешивания : DVD-Video
Продолжительность : 9 м. 9 с.
Вид битрейта : Постоянный
Битрейт : 192 Кбит/сек
Каналы : 2 канала
Расположение каналов : Front: L R
Частота : 48,0 КГц
Битовая глубина : 16 бит
Метод сжатия : С потерями
Задержка видео : -192 мс.
Размер потока : 12,6 Мбайт (1%)
Меню
Общее
Полное имя : D:\Раздачи\Обратная сторона Луны [2012, 2xDVD9]\Обратная сторона Луны (2012)\Disk1\VIDEO_TS\VTS_01_5.VOB
Формат : MPEG-PS
Размер файла : 1024 Мбайт
Режим общего битрейта : Переменный
Видео
Идентификатор : 224 (0xE0)
Формат : MPEG Video
Версия формата : Version 2
Профиль формата : [email protected]
Параметр BVOP формата : Да
Параметр матрицы формата : Выборочная
Параметр GOP формата : Variable
Вид битрейта : Переменный
Максимальный битрейт : 9000 Кбит/сек
Ширина : 720 пикселей
Высота : 576 пикселей
Соотношение сторон : 16:9
Частота кадров : 25,000 кадров/сек
Стандарт вещания : PAL
Цветовое пространство : YUV
Субдискретизация насыщенности : 4:2:0
Битовая глубина : 8 бит
Тип развёртки : Чересстрочная
Порядок развёртки : Верхнее поле первое
Метод сжатия : С потерями
Временной код первого кадра : 00:50:11:10
Оригинал временного кода : Group of pictures header
Аудио
Идентификатор : 189 (0xBD)-128 (0x80)
Формат : AC-3
Формат/Информация : Audio Coding 3
Расширение режима : CM (complete main)
Параметр Endianness формата : Big
Режим смешивания : DVD-Video
Вид битрейта : Постоянный
Битрейт : 192 Кбит/сек
Каналы : 2 канала
Расположение каналов : Front: L R
Частота : 48,0 КГц
Битовая глубина : 16 бит
Метод сжатия : С потерями
Задержка видео : -184 мс.
Меню
Общее
Полное имя : D:\Раздачи\Обратная сторона Луны [2012, 2xDVD9]\Обратная сторона Луны (2012)\Disk1\VIDEO_TS\VTS_01_6.VOB
Формат : MPEG-PS
Размер файла : 1024 Мбайт
Продолжительность : 10 м.
Режим общего битрейта : Переменный
Общий поток : 14,1 Мбит/сек
Видео
Идентификатор : 224 (0xE0)
Формат : MPEG Video
Версия формата : Version 2
Профиль формата : [email protected]
Параметр BVOP формата : Да
Параметр матрицы формата : Выборочная
Параметр GOP формата : Variable
Продолжительность : 10 м.
Вид битрейта : Переменный
Битрейт : 13,6 Мбит/сек
Максимальный битрейт : 9000 Кбит/сек
Ширина : 720 пикселей
Высота : 576 пикселей
Соотношение сторон : 16:9
Частота кадров : 25,000 кадров/сек
Стандарт вещания : PAL
Цветовое пространство : YUV
Субдискретизация насыщенности : 4:2:0
Битовая глубина : 8 бит
Тип развёртки : Чересстрочная
Порядок развёртки : Верхнее поле первое
Метод сжатия : С потерями
Бит/(Пиксели*Кадры) : 1.316
Временной код первого кадра : 00:07:48:10
Оригинал временного кода : Group of pictures header
Размер потока : 989 Мбайт (97%)
Аудио
Идентификатор : 189 (0xBD)-128 (0x80)
Формат : AC-3
Формат/Информация : Audio Coding 3
Расширение режима : CM (complete main)
Параметр Endianness формата : Big
Режим смешивания : DVD-Video
Продолжительность : 10 м.
Вид битрейта : Постоянный
Битрейт : 192 Кбит/сек
Каналы : 2 канала
Расположение каналов : Front: L R
Частота : 48,0 КГц
Битовая глубина : 16 бит
Метод сжатия : С потерями
Задержка видео : -256 мс.
Размер потока : 13,9 Мбайт (1%)
Меню
Общее
Полное имя : D:\Раздачи\Обратная сторона Луны [2012, 2xDVD9]\Обратная сторона Луны (2012)\Disk1\VIDEO_TS\VTS_01_7.VOB
Формат : MPEG-PS
Размер файла : 1024 Мбайт
Продолжительность : 8 м. 40 с.
Режим общего битрейта : Переменный
Общий поток : 16,5 Мбит/сек
Видео
Идентификатор : 224 (0xE0)
Формат : MPEG Video
Версия формата : Version 2
Профиль формата : [email protected]
Параметр BVOP формата : Да
Параметр матрицы формата : Выборочная
Параметр GOP формата : Variable
Продолжительность : 8 м. 40 с.
Вид битрейта : Переменный
Битрейт : 16,0 Мбит/сек
Максимальный битрейт : 9000 Кбит/сек
Ширина : 720 пикселей
Высота : 576 пикселей
Соотношение сторон : 16:9
Частота кадров : 25,000 кадров/сек
Стандарт вещания : PAL
Цветовое пространство : YUV
Субдискретизация насыщенности : 4:2:0
Битовая глубина : 8 бит
Тип развёртки : Чересстрочная
Порядок развёртки : Верхнее поле первое
Метод сжатия : С потерями
Бит/(Пиксели*Кадры) : 1.541
Временной код первого кадра : 00:17:56:23
Оригинал временного кода : Group of pictures header
Размер потока : 992 Мбайт (97%)
Аудио
Идентификатор : 189 (0xBD)-128 (0x80)
Формат : AC-3
Формат/Информация : Audio Coding 3
Расширение режима : CM (complete main)
Параметр Endianness формата : Big
Режим смешивания : DVD-Video
Продолжительность : 8 м. 40 с.
Вид битрейта : Постоянный
Битрейт : 192 Кбит/сек
Каналы : 2 канала
Расположение каналов : Front: L R
Частота : 48,0 КГц
Битовая глубина : 16 бит
Метод сжатия : С потерями
Задержка видео : -200 мс.
Размер потока : 11,9 Мбайт (1%)
Меню
Общее
Полное имя : D:\Раздачи\Обратная сторона Луны [2012, 2xDVD9]\Обратная сторона Луны (2012)\Disk1\VIDEO_TS\VTS_01_8.VOB
Формат : MPEG-PS
Размер файла : 445 Мбайт
Продолжительность : 26 м.
Режим общего битрейта : Переменный
Общий поток : 2322 Кбит/сек
Видео
Идентификатор : 224 (0xE0)
Формат : MPEG Video
Версия формата : Version 2
Профиль формата : [email protected]
Параметр BVOP формата : Да
Параметр матрицы формата : Выборочная
Параметр GOP формата : Variable
Продолжительность : 26 м.
Вид битрейта : Переменный
Битрейт : 2084 Кбит/сек
Максимальный битрейт : 9000 Кбит/сек
Ширина : 720 пикселей
Высота : 576 пикселей
Соотношение сторон : 16:9
Частота кадров : 25,000 кадров/сек
Стандарт вещания : PAL
Цветовое пространство : YUV
Субдискретизация насыщенности : 4:2:0
Битовая глубина : 8 бит
Тип развёртки : Чересстрочная
Порядок развёртки : Верхнее поле первое
Метод сжатия : С потерями
Бит/(Пиксели*Кадры) : 0.201
Временной код первого кадра : 00:26:37:17
Оригинал временного кода : Group of pictures header
Размер потока : 399 Мбайт (90%)
Аудио
Идентификатор : 189 (0xBD)-128 (0x80)
Формат : AC-3
Формат/Информация : Audio Coding 3
Расширение режима : CM (complete main)
Параметр Endianness формата : Big
Режим смешивания : DVD-Video
Продолжительность : 26 м.
Вид битрейта : Постоянный
Битрейт : 192 Кбит/сек
Каналы : 2 канала
Расположение каналов : Front: L R
Частота : 48,0 КГц
Битовая глубина : 16 бит
Метод сжатия : С потерями
Задержка видео : -192 мс.
Размер потока : 36,8 Мбайт (8%)
DVD2
Формат : DVD Video
Профиль формата : Menu
Размер файла : 12,0 Кбайт
Режим общего битрейта : Переменный
Видео
Идентификатор : 224 (0xE0)
Формат : MPEG Video
Версия формата : Version 2
Вид битрейта : Переменный
Ширина : 720 пикселей
Высота : 576 пикселей
Соотношение сторон : 16:9
Частота кадров : 25,000 кадров/сек
Стандарт вещания : PAL
Метод сжатия : С потерями
Аудио
Формат : AC-3
Формат/Информация : Audio Coding 3
Каналы : 2 канала
Частота : 48,0 КГц
Метод сжатия : С потерями
Текст
Формат : RLE
Формат/Информация : Run-length encoding
Битовая глубина : 2 бит
Общее
Полное имя : D:\Раздачи\Обратная сторона Луны [2012, 2xDVD9]\Обратная сторона Луны (2012)\Disk2\VIDEO_TS\VIDEO_TS.IFO
Формат : DVD Video
Профиль формата : Menu
Размер файла : 12,0 Кбайт
Режим общего битрейта : Переменный
Видео
Идентификатор : 224 (0xE0)
Формат : MPEG Video
Версия формата : Version 2
Вид битрейта : Переменный
Ширина : 720 пикселей
Высота : 576 пикселей
Соотношение сторон : 16:9
Частота кадров : 25,000 кадров/сек
Стандарт вещания : PAL
Метод сжатия : С потерями
Аудио
Формат : AC-3
Формат/Информация : Audio Coding 3
Каналы : 2 канала
Частота : 48,0 КГц
Метод сжатия : С потерями
Текст
Формат : RLE
Формат/Информация : Run-length encoding
Битовая глубина : 2 бит
Общее
Полное имя : D:\Раздачи\Обратная сторона Луны [2012, 2xDVD9]\Обратная сторона Луны (2012)\Disk2\VIDEO_TS\VIDEO_TS.VOB
Формат : MPEG-PS
Размер файла : 8,49 Мбайт
Продолжительность : 15 с.
Режим общего битрейта : Переменный
Общий поток : 4459 Кбит/сек
Видео
Идентификатор : 224 (0xE0)
Формат : MPEG Video
Версия формата : Version 2
Профиль формата : [email protected]
Параметр BVOP формата : Да
Параметр матрицы формата : По умолчанию
Параметр GOP формата : Variable
Продолжительность : 8 с. 0 мс.
Вид битрейта : Переменный
Битрейт : 4178 Кбит/сек
Максимальный битрейт : 6000 Кбит/сек
Ширина : 720 пикселей
Высота : 576 пикселей
Соотношение сторон : 16:9
Частота кадров : 25,000 кадров/сек
Стандарт вещания : PAL
Цветовое пространство : YUV
Субдискретизация насыщенности : 4:2:0
Битовая глубина : 8 бит
Тип развёртки : Чересстрочная
Порядок развёртки : Нижнее поле первое
Метод сжатия : С потерями
Бит/(Пиксели*Кадры) : 0.403
Временной код первого кадра : 00:00:00:00
Оригинал временного кода : Group of pictures header
Размер потока : 3,98 Мбайт (47%)
Аудио
Идентификатор : 189 (0xBD)-128 (0x80)
Формат : AC-3
Формат/Информация : Audio Coding 3
Расширение режима : CM (complete main)
Параметр Endianness формата : Big
Режим смешивания : DVD-Video
Продолжительность : 15 с.
Вид битрейта : Постоянный
Битрейт : 192 Кбит/сек
Каналы : 2 канала
Расположение каналов : Front: L R
Частота : 48,0 КГц
Битовая глубина : 16 бит
Метод сжатия : С потерями
Задержка видео : -80 мс.
Размер потока : 374 Кбайт (4%)
Меню
Общее
Полное имя : D:\Раздачи\Обратная сторона Луны [2012, 2xDVD9]\Обратная сторона Луны (2012)\Disk2\VIDEO_TS\VTS_01_0.BUP
Формат : DVD Video
Профиль формата : Program
Размер файла : 232 Кбайт
Продолжительность : 53 м.
Режим общего битрейта : Переменный
Общий поток : 592 бит/сек
Видео
Идентификатор : 224 (0xE0)
Формат : MPEG Video
Версия формата : Version 2
Продолжительность : 53 м.
Вид битрейта : Переменный
Ширина : 720 пикселей
Высота : 576 пикселей
Соотношение сторон : 16:9
Частота кадров : 25,000 кадров/сек
Стандарт вещания : PAL
Метод сжатия : С потерями
Аудио
Идентификатор : 128 (0x80)
Формат : AC-3
Формат/Информация : Audio Coding 3
Продолжительность : 53 м.
Каналы : 2 канала
Частота : 48,0 КГц
Метод сжатия : С потерями
Язык : Russian
Меню #1
Продолжительность : 51 м.
00:00:00.000 : Chapter 1
00:10:03.720 : Chapter 2
00:19:47.120 : Chapter 3
00:29:37.600 : Chapter 4
00:40:02.080 : Chapter 5
00:51:43.800 : Chapter 6
List (Audio) : 0
Меню #2
Продолжительность : 51 м.
00:00:00.000 : Chapter 1
00:11:00.360 : Chapter 2
00:19:26.040 : Chapter 3
00:30:38.040 : Chapter 4
00:39:05.480 : Chapter 5
00:51:11.240 : Chapter 6
List (Audio) : 0
Меню #3
Продолжительность : 52 м.
00:00:00.000 : Chapter 1
00:09:33.240 : Chapter 2
00:21:03.560 : Chapter 3
00:29:53.320 : Chapter 4
00:39:28.440 : Chapter 5
00:52:26.600 : Chapter 6
List (Audio) : 0
Меню #4
Продолжительность : 53 м.
00:00:00.000 : Chapter 1
00:11:47.280 : Chapter 2
00:19:51.240 : Chapter 3
00:28:42.760 : Chapter 4
00:40:02.040 : Chapter 5
00:53:17.440 : Chapter 6
List (Audio) : 0
Меню #5
Продолжительность : 53 м.
00:00:00.000 : Chapter 1
00:11:58.320 : Chapter 2
00:19:40.960 : Chapter 3
00:28:47.240 : Chapter 4
00:40:06.280 : Chapter 5
00:53:32.440 : Chapter 6
List (Audio) : 0
Меню #6
Продолжительность : 52 м.
00:00:00.000 : Chapter 1
00:10:31.400 : Chapter 2
00:20:07.880 : Chapter 3
00:29:54.560 : Chapter 4
00:38:44.000 : Chapter 5
00:52:09.560 : Chapter 6
List (Audio) : 0
Меню #7
Продолжительность : 47 м.
00:00:00.000 : Chapter 1
00:10:40.560 : Chapter 2
00:22:04.720 : Chapter 3
00:29:17.160 : Chapter 4
00:37:54.240 : Chapter 5
00:47:12.920 : Chapter 6
List (Audio) : 0
Меню #8
Продолжительность : 52 м.
00:00:00.000 : Chapter 1
00:09:37.440 : Chapter 2
00:21:36.160 : Chapter 3
00:29:21.560 : Chapter 4
00:39:37.520 : Chapter 5
00:52:19.600 : Chapter 6
List (Audio) : 0
Общее
Полное имя : D:\Раздачи\Обратная сторона Луны [2012, 2xDVD9]\Обратная сторона Луны (2012)\Disk2\VIDEO_TS\VTS_01_0.IFO
Формат : DVD Video
Профиль формата : Program
Размер файла : 232 Кбайт
Продолжительность : 53 м.
Режим общего битрейта : Переменный
Общий поток : 592 бит/сек
Видео
Идентификатор : 224 (0xE0)
Формат : MPEG Video
Версия формата : Version 2
Продолжительность : 53 м.
Вид битрейта : Переменный
Ширина : 720 пикселей
Высота : 576 пикселей
Соотношение сторон : 16:9
Частота кадров : 25,000 кадров/сек
Стандарт вещания : PAL
Метод сжатия : С потерями
Аудио
Идентификатор : 128 (0x80)
Формат : AC-3
Формат/Информация : Audio Coding 3
Продолжительность : 53 м.
Каналы : 2 канала
Частота : 48,0 КГц
Метод сжатия : С потерями
Язык : Russian
Меню #1
Продолжительность : 51 м.
00:00:00.000 : Chapter 1
00:10:03.720 : Chapter 2
00:19:47.120 : Chapter 3
00:29:37.600 : Chapter 4
00:40:02.080 : Chapter 5
00:51:43.800 : Chapter 6
List (Audio) : 0
Меню #2
Продолжительность : 51 м.
00:00:00.000 : Chapter 1
00:11:00.360 : Chapter 2
00:19:26.040 : Chapter 3
00:30:38.040 : Chapter 4
00:39:05.480 : Chapter 5
00:51:11.240 : Chapter 6
List (Audio) : 0
Меню #3
Продолжительность : 52 м.
00:00:00.000 : Chapter 1
00:09:33.240 : Chapter 2
00:21:03.560 : Chapter 3
00:29:53.320 : Chapter 4
00:39:28.440 : Chapter 5
00:52:26.600 : Chapter 6
List (Audio) : 0
Меню #4
Продолжительность : 53 м.
00:00:00.000 : Chapter 1
00:11:47.280 : Chapter 2
00:19:51.240 : Chapter 3
00:28:42.760 : Chapter 4
00:40:02.040 : Chapter 5
00:53:17.440 : Chapter 6
List (Audio) : 0
Меню #5
Продолжительность : 53 м.
00:00:00.000 : Chapter 1
00:11:58.320 : Chapter 2
00:19:40.960 : Chapter 3
00:28:47.240 : Chapter 4
00:40:06.280 : Chapter 5
00:53:32.440 : Chapter 6
List (Audio) : 0
Меню #6
Продолжительность : 52 м.
00:00:00.000 : Chapter 1
00:10:31.400 : Chapter 2
00:20:07.880 : Chapter 3
00:29:54.560 : Chapter 4
00:38:44.000 : Chapter 5
00:52:09.560 : Chapter 6
List (Audio) : 0
Меню #7
Продолжительность : 47 м.
00:00:00.000 : Chapter 1
00:10:40.560 : Chapter 2
00:22:04.720 : Chapter 3
00:29:17.160 : Chapter 4
00:37:54.240 : Chapter 5
00:47:12.920 : Chapter 6
List (Audio) : 0
Меню #8
Продолжительность : 52 м.
00:00:00.000 : Chapter 1
00:09:37.440 : Chapter 2
00:21:36.160 : Chapter 3
00:29:21.560 : Chapter 4
00:39:37.520 : Chapter 5
00:52:19.600 : Chapter 6
List (Audio) : 0
Общее
Полное имя : D:\Раздачи\Обратная сторона Луны [2012, 2xDVD9]\Обратная сторона Луны (2012)\Disk2\VIDEO_TS\VTS_01_0.VOB
Формат : MPEG-PS
Размер файла : 2,98 Мбайт
Продолжительность : 46 с.
Общий поток : 538 Кбит/сек
Видео
Идентификатор : 224 (0xE0)
Формат : MPEG Video
Версия формата : Version 2
Профиль формата : [email protected]
Параметр BVOP формата : Нет
Параметр матрицы формата : Выборочная
Продолжительность : 40 мс.
Битрейт : 336 Кбит/сек
Максимальный битрейт : 8000 Кбит/сек
Ширина : 720 пикселей
Высота : 576 пикселей
Соотношение сторон : 16:9
Частота кадров : 25,000 кадров/сек
Стандарт вещания : PAL
Цветовое пространство : YUV
Субдискретизация насыщенности : 4:2:0
Битовая глубина : 8 бит
Тип развёртки : Прогрессивная
Порядок развёртки : Верхнее поле первое
Метод сжатия : С потерями
Бит/(Пиксели*Кадры) : 0.032
Размер потока : 1,64 Кбайт (0%)
Аудио
Идентификатор : 189 (0xBD)-128 (0x80)
Формат : AC-3
Формат/Информация : Audio Coding 3
Расширение режима : CM (complete main)
Параметр Endianness формата : Big
Режим смешивания : DVD-Video
Продолжительность : 46 с.
Вид битрейта : Постоянный
Битрейт : 192 Кбит/сек
Каналы : 2 канала
Расположение каналов : Front: L R
Частота : 48,0 КГц
Битовая глубина : 16 бит
Метод сжатия : С потерями
Размер потока : 1,06 Мбайт (36%)
Текст #1
Идентификатор : 189 (0xBD)-32 (0x20)
Формат : RLE
Формат/Информация : Run-length encoding
Режим смешивания : DVD-Video
Текст #2
Идентификатор : 189 (0xBD)-33 (0x21)
Формат : RLE
Формат/Информация : Run-length encoding
Режим смешивания : DVD-Video
Меню
Общее
Полное имя : D:\Раздачи\Обратная сторона Луны [2012, 2xDVD9]\Обратная сторона Луны (2012)\Disk2\VIDEO_TS\VTS_01_1.VOB
Формат : MPEG-PS
Размер файла : 1024 Мбайт
Продолжительность : 4 м. 7 с.
Режим общего битрейта : Переменный
Общий поток : 34,7 Мбит/сек
Видео
Идентификатор : 224 (0xE0)
Формат : MPEG Video
Версия формата : Version 2
Профиль формата : [email protected]
Параметр BVOP формата : Да
Параметр матрицы формата : Выборочная
Параметр GOP формата : Variable
Продолжительность : 4 м. 7 с.
Вид битрейта : Переменный
Битрейт : 33,8 Мбит/сек
Максимальный битрейт : 9000 Кбит/сек
Ширина : 720 пикселей
Высота : 576 пикселей
Соотношение сторон : 16:9
Частота кадров : 25,000 кадров/сек
Стандарт вещания : PAL
Цветовое пространство : YUV
Субдискретизация насыщенности : 4:2:0
Битовая глубина : 8 бит
Тип развёртки : Чересстрочная
Порядок развёртки : Верхнее поле первое
Метод сжатия : С потерями
Бит/(Пиксели*Кадры) : 3.259
Временной код первого кадра : 00:00:00:00
Оригинал временного кода : Group of pictures header
Размер потока : 998 Мбайт (97%)
Аудио
Идентификатор : 189 (0xBD)-128 (0x80)
Формат : AC-3
Формат/Информация : Audio Coding 3
Расширение режима : CM (complete main)
Параметр Endianness формата : Big
Режим смешивания : DVD-Video
Продолжительность : 4 м. 7 с.
Вид битрейта : Постоянный
Битрейт : 192 Кбит/сек
Каналы : 2 канала
Расположение каналов : Front: L R
Частота : 48,0 КГц
Битовая глубина : 16 бит
Метод сжатия : С потерями
Размер потока : 5,67 Мбайт (1%)
Меню
Общее
Полное имя : D:\Раздачи\Обратная сторона Луны [2012, 2xDVD9]\Обратная сторона Луны (2012)\Disk2\VIDEO_TS\VTS_01_2.VOB
Формат : MPEG-PS
Размер файла : 1024 Мбайт
Продолжительность : 4 м. 9 с.
Режим общего битрейта : Переменный
Общий поток : 34,4 Мбит/сек
Видео
Идентификатор : 224 (0xE0)
Формат : MPEG Video
Версия формата : Version 2
Профиль формата : [email protected]
Параметр BVOP формата : Да
Параметр матрицы формата : Выборочная
Параметр GOP формата : Variable
Продолжительность : 4 м. 9 с.
Вид битрейта : Переменный
Битрейт : 33,5 Мбит/сек
Максимальный битрейт : 9000 Кбит/сек
Ширина : 720 пикселей
Высота : 576 пикселей
Соотношение сторон : 16:9
Частота кадров : 25,000 кадров/сек
Стандарт вещания : PAL
Цветовое пространство : YUV
Субдискретизация насыщенности : 4:2:0
Битовая глубина : 8 бит
Тип развёртки : Чересстрочная
Порядок развёртки : Верхнее поле первое
Метод сжатия : С потерями
Бит/(Пиксели*Кадры) : 3.236
Временной код первого кадра : 00:04:07:19
Оригинал временного кода : Group of pictures header
Размер потока : 998 Мбайт (97%)
Аудио
Идентификатор : 189 (0xBD)-128 (0x80)
Формат : AC-3
Формат/Информация : Audio Coding 3
Расширение режима : CM (complete main)
Параметр Endianness формата : Big
Режим смешивания : DVD-Video
Продолжительность : 4 м. 9 с.
Вид битрейта : Постоянный
Битрейт : 192 Кбит/сек
Каналы : 2 канала
Расположение каналов : Front: L R
Частота : 48,0 КГц
Битовая глубина : 16 бит
Метод сжатия : С потерями
Задержка видео : -192 мс.
Размер потока : 5,71 Мбайт (1%)
Меню
Общее
Полное имя : D:\Раздачи\Обратная сторона Луны [2012, 2xDVD9]\Обратная сторона Луны (2012)\Disk2\VIDEO_TS\VTS_01_3.VOB
Формат : MPEG-PS
Размер файла : 1024 Мбайт
Продолжительность : 2 м. 9 с.
Режим общего битрейта : Переменный
Общий поток : 66,5 Мбит/сек
Видео
Идентификатор : 224 (0xE0)
Формат : MPEG Video
Версия формата : Version 2
Профиль формата : [email protected]
Параметр BVOP формата : Да
Параметр матрицы формата : Выборочная
Параметр GOP формата : Variable
Продолжительность : 2 м. 9 с.
Вид битрейта : Переменный
Битрейт : 65,0 Мбит/сек
Максимальный битрейт : 9000 Кбит/сек
Ширина : 720 пикселей
Высота : 576 пикселей
Соотношение сторон : 16:9
Частота кадров : 25,000 кадров/сек
Стандарт вещания : PAL
Цветовое пространство : YUV
Субдискретизация насыщенности : 4:2:0
Битовая глубина : 8 бит
Тип развёртки : Чересстрочная
Порядок развёртки : Верхнее поле первое
Метод сжатия : С потерями
Бит/(Пиксели*Кадры) : 6.272
Временной код первого кадра : 00:08:17:08
Оригинал временного кода : Group of pictures header
Размер потока : 1001 Мбайт (98%)
Аудио
Идентификатор : 189 (0xBD)-128 (0x80)
Формат : AC-3
Формат/Информация : Audio Coding 3
Расширение режима : CM (complete main)
Параметр Endianness формата : Big
Режим смешивания : DVD-Video
Продолжительность : 2 м. 8 с.
Вид битрейта : Постоянный
Битрейт : 192 Кбит/сек
Каналы : 2 канала
Расположение каналов : Front: L R
Частота : 48,0 КГц
Битовая глубина : 16 бит
Метод сжатия : С потерями
Задержка видео : -104 мс.
Размер потока : 2,95 Мбайт (0%)
Меню
Общее
Полное имя : D:\Раздачи\Обратная сторона Луны [2012, 2xDVD9]\Обратная сторона Луны (2012)\Disk2\VIDEO_TS\VTS_01_4.VOB
Формат : MPEG-PS
Размер файла : 1024 Мбайт
Продолжительность : 3 м. 11 с.
Режим общего битрейта : Переменный
Общий поток : 44,8 Мбит/сек
Видео
Идентификатор : 224 (0xE0)
Формат : MPEG Video
Версия формата : Version 2
Профиль формата : [email protected]
Параметр BVOP формата : Да
Параметр матрицы формата : Выборочная
Параметр GOP формата : Variable
Продолжительность : 3 м. 11 с.
Вид битрейта : Переменный
Битрейт : 43,7 Мбит/сек
Максимальный битрейт : 9000 Кбит/сек
Ширина : 720 пикселей
Высота : 576 пикселей
Соотношение сторон : 16:9
Частота кадров : 25,000 кадров/сек
Стандарт вещания : PAL
Цветовое пространство : YUV
Субдискретизация насыщенности : 4:2:0
Битовая глубина : 8 бит
Тип развёртки : Чересстрочная
Порядок развёртки : Верхнее поле первое
Метод сжатия : С потерями
Бит/(Пиксели*Кадры) : 4.214
Временной код первого кадра : 00:10:26:10
Оригинал временного кода : Group of pictures header
Размер потока : 998 Мбайт (98%)
Аудио
Идентификатор : 189 (0xBD)-128 (0x80)
Формат : AC-3
Формат/Информация : Audio Coding 3
Расширение режима : CM (complete main)
Параметр Endianness формата : Big
Режим смешивания : DVD-Video
Продолжительность : 3 м. 11 с.
Вид битрейта : Постоянный
Битрейт : 192 Кбит/сек
Каналы : 2 канала
Расположение каналов : Front: L R
Частота : 48,0 КГц
Битовая глубина : 16 бит
Метод сжатия : С потерями
Задержка видео : -240 мс.
Размер потока : 4,39 Мбайт (0%)
Меню
Общее
Полное имя : D:\Раздачи\Обратная сторона Луны [2012, 2xDVD9]\Обратная сторона Луны (2012)\Disk2\VIDEO_TS\VTS_01_5.VOB
Формат : MPEG-PS
Размер файла : 1024 Мбайт
Режим общего битрейта : Переменный
Видео
Идентификатор : 224 (0xE0)
Формат : MPEG Video
Версия формата : Version 2
Профиль формата : [email protected]
Параметр BVOP формата : Да
Параметр матрицы формата : Выборочная
Параметр GOP формата : Variable
Вид битрейта : Переменный
Максимальный битрейт : 9000 Кбит/сек
Ширина : 720 пикселей
Высота : 576 пикселей
Соотношение сторон : 16:9
Частота кадров : 25,000 кадров/сек
Стандарт вещания : PAL
Цветовое пространство : YUV
Субдискретизация насыщенности : 4:2:0
Битовая глубина : 8 бит
Тип развёртки : Чересстрочная
Порядок развёртки : Верхнее поле первое
Метод сжатия : С потерями
Временной код первого кадра : 00:13:38:04
Оригинал временного кода : Group of pictures header
Аудио
Идентификатор : 189 (0xBD)-128 (0x80)
Формат : AC-3
Формат/Информация : Audio Coding 3
Расширение режима : CM (complete main)
Параметр Endianness формата : Big
Режим смешивания : DVD-Video
Вид битрейта : Постоянный
Битрейт : 192 Кбит/сек
Каналы : 2 канала
Расположение каналов : Front: L R
Частота : 48,0 КГц
Битовая глубина : 16 бит
Метод сжатия : С потерями
Задержка видео : -160 мс.
Меню
Общее
Полное имя : D:\Раздачи\Обратная сторона Луны [2012, 2xDVD9]\Обратная сторона Луны (2012)\Disk2\VIDEO_TS\VTS_01_6.VOB
Формат : MPEG-PS
Размер файла : 1024 Мбайт
Продолжительность : 4 м. 6 с.
Режим общего битрейта : Переменный
Общий поток : 34,9 Мбит/сек
Видео
Идентификатор : 224 (0xE0)
Формат : MPEG Video
Версия формата : Version 2
Профиль формата : [email protected]
Параметр BVOP формата : Да
Параметр матрицы формата : Выборочная
Параметр GOP формата : Variable
Продолжительность : 4 м. 6 с.
Вид битрейта : Переменный
Битрейт : 34,0 Мбит/сек
Максимальный битрейт : 9000 Кбит/сек
Ширина : 720 пикселей
Высота : 576 пикселей
Соотношение сторон : 16:9
Частота кадров : 25,000 кадров/сек
Стандарт вещания : PAL
Цветовое пространство : YUV
Субдискретизация насыщенности : 4:2:0
Битовая глубина : 8 бит
Тип развёртки : Чересстрочная
Порядок развёртки : Верхнее поле первое
Метод сжатия : С потерями
Бит/(Пиксели*Кадры) : 3.278
Временной код первого кадра : 00:13:11:20
Оригинал временного кода : Group of pictures header
Размер потока : 998 Мбайт (97%)
Аудио
Идентификатор : 189 (0xBD)-128 (0x80)
Формат : AC-3
Формат/Информация : Audio Coding 3
Расширение режима : CM (complete main)
Параметр Endianness формата : Big
Режим смешивания : DVD-Video
Продолжительность : 4 м. 6 с.
Вид битрейта : Постоянный
Битрейт : 192 Кбит/сек
Каналы : 2 канала
Расположение каналов : Front: L R
Частота : 48,0 КГц
Битовая глубина : 16 бит
Метод сжатия : С потерями
Задержка видео : -200 мс.
Размер потока : 5,64 Мбайт (1%)
Меню
Общее
Полное имя : D:\Раздачи\Обратная сторона Луны [2012, 2xDVD9]\Обратная сторона Луны (2012)\Disk2\VIDEO_TS\VTS_01_7.VOB
Формат : MPEG-PS
Размер файла : 1024 Мбайт
Продолжительность : 8 м. 49 с.
Режим общего битрейта : Переменный
Общий поток : 16,2 Мбит/сек
Видео
Идентификатор : 224 (0xE0)
Формат : MPEG Video
Версия формата : Version 2
Профиль формата : [email protected]
Параметр BVOP формата : Да
Параметр матрицы формата : Выборочная
Параметр GOP формата : Variable
Продолжительность : 8 м. 49 с.
Вид битрейта : Переменный
Битрейт : 15,7 Мбит/сек
Максимальный битрейт : 9000 Кбит/сек
Ширина : 720 пикселей
Высота : 576 пикселей
Соотношение сторон : 16:9
Частота кадров : 25,000 кадров/сек
Стандарт вещания : PAL
Цветовое пространство : YUV
Субдискретизация насыщенности : 4:2:0
Битовая глубина : 8 бит
Тип развёртки : Чересстрочная
Порядок развёртки : Верхнее поле первое
Метод сжатия : С потерями
Бит/(Пиксели*Кадры) : 1.516
Временной код первого кадра : 00:17:18:04
Оригинал временного кода : Group of pictures header
Размер потока : 992 Мбайт (97%)
Аудио
Идентификатор : 189 (0xBD)-128 (0x80)
Формат : AC-3
Формат/Информация : Audio Coding 3
Расширение режима : CM (complete main)
Параметр Endianness формата : Big
Режим смешивания : DVD-Video
Продолжительность : 8 м. 49 с.
Вид битрейта : Постоянный
Битрейт : 192 Кбит/сек
Каналы : 2 канала
Расположение каналов : Front: L R
Частота : 48,0 КГц
Битовая глубина : 16 бит
Метод сжатия : С потерями
Задержка видео : -192 мс.
Размер потока : 12,1 Мбайт (1%)
Меню
Общее
Полное имя : D:\Раздачи\Обратная сторона Луны [2012, 2xDVD9]\Обратная сторона Луны (2012)\Disk2\VIDEO_TS\VTS_01_8.VOB
Формат : MPEG-PS
Размер файла : 499 Мбайт
Продолжительность : 26 м.
Режим общего битрейта : Переменный
Общий поток : 2660 Кбит/сек
Видео
Идентификатор : 224 (0xE0)
Формат : MPEG Video
Версия формата : Version 2
Профиль формата : [email protected]
Параметр BVOP формата : Да
Параметр матрицы формата : Выборочная
Параметр GOP формата : M=3, N=15
Продолжительность : 26 м.
Вид битрейта : Переменный
Битрейт : 2415 Кбит/сек
Максимальный битрейт : 9000 Кбит/сек
Ширина : 720 пикселей
Высота : 576 пикселей
Соотношение сторон : 16:9
Частота кадров : 25,000 кадров/сек
Стандарт вещания : PAL
Цветовое пространство : YUV
Субдискретизация насыщенности : 4:2:0
Битовая глубина : 8 бит
Тип развёртки : Чересстрочная
Порядок развёртки : Верхнее поле первое
Метод сжатия : С потерями
Бит/(Пиксели*Кадры) : 0.233
Временной код первого кадра : 00:26:07:13
Оригинал временного кода : Group of pictures header
Размер потока : 453 Мбайт (91%)
Аудио
Идентификатор : 189 (0xBD)-128 (0x80)
Формат : AC-3
Формат/Информация : Audio Coding 3
Расширение режима : CM (complete main)
Параметр Endianness формата : Big
Режим смешивания : DVD-Video
Продолжительность : 26 м.
Вид битрейта : Постоянный
Битрейт : 192 Кбит/сек
Каналы : 2 канала
Расположение каналов : Front: L R
Частота : 48,0 КГц
Битовая глубина : 16 бит
Метод сжатия : С потерями
Задержка видео : -272 мс.
Размер потока : 36,0 Мбайт (7%)
DVDInfo
Title:
Size: 7.45 Gb ( 7 807 372 KBytes ) - DVD-9
Enabled regions: 1, 2, 3, 4, 5, 6, 7, 8
VTS_01 :
Play Length: 01:36:42+00:52:03+00:53:21+00:51:54+00:52:45+00:53:25+00:53:32
Video: PAL 16:9 (720x576) VBR, Auto Pan&Scan
Audio:
Russian (Dolby AC3, 2 ch)
Menu Video:
PAL 16:9 (720x576) VBR
Auto Pan&Scan
Menu Audio:
Not specified (Dolby AC3, 2 ch)
Menu Subtitles:
Not specified
Menu Russian Language Unit :
Root Menu
Title:
Size: 7.50 Gb ( 7 862 618 KBytes ) - DVD-9
Enabled regions: 1, 2, 3, 4, 5, 6, 7, 8
VTS_01 :
Play Length: 00:51:44+00:51:12+00:52:27+00:53:18+00:53:33+00:52:10+00:47:13+00:52:20
Video: PAL 16:9 (720x576) VBR, Auto Pan&Scan
Audio:
Russian (Dolby AC3, 2 ch)
Menu Video:
PAL 16:9 (720x576) VBR
Auto Pan&Scan
Menu Audio:
Not specified (Dolby AC3, 2 ch)
Menu Subtitles:
Not specified
Menu Russian Language Unit :
Root Menu
Скриншоты
Download
Для скачивания .torrent файлов необходима регистрация
Сайт не распространяет и не хранит электронные версии произведений, а лишь предоставляет доступ к создаваемому пользователями каталогу ссылок на торрент-файлы, которые содержат только списки хеш-сумм
[Профиль]  [ЛС] 

Сударыня

Moderator gray

Стаж: 11 лет 5 месяцев

Сообщений: 11066

Сударыня · 04-Авг-14 21:37 (спустя 2 часа 18 мин., ред. 04-Авг-14 21:37)

[Цитировать] 

tretettert
Добавьте, пожалуйста отчет MediaInfo.
Как получить информацию по видеофайлу?
tretettert писал(а):
64741938Видео: PAL, 16:9, 720x576, ~4000 kbps, 25.00 fps
А в тех. данные - фактор качества (bit/pixel)
О тех.данных
Прошу прощения - сразу не заметила
Картинки из торрента надо убрать. Их можно залить на файлообменник.
tretettert писал(а):
64741938Сканы 8.91 MB
Cover.jpg 6.51 MB 6835051
Disk1.jpg 1.16 MB 1221434
Disk2.jpg 1.23 MB 1296586
[Профиль]  [ЛС] 

tretettert

Стаж: 8 лет 8 месяцев

Сообщений: 45


tretettert · 04-Авг-14 22:38 (спустя 1 час)

[Цитировать] 

Сударыня писал(а):
64742681tretettert
Добавьте, пожалуйста отчет MediaInfo
А в тех. данные - фактор качества (bit/pixel)
Картинки из торрента надо убрать. Их можно залить на файлообменник
fixed.
Внимание! Прошу прощения. Торрент перезалит, скачайте заново.
С уважением.
[Профиль]  [ЛС] 

denbene

Стаж: 7 лет 9 месяцев

Сообщений: 14


denbene · 05-Авг-14 15:39 (спустя 17 часов)

[Цитировать] 

ЛЮДИ НАПИШИТЕ КТО-НИБУДЬ КОГДА ВЫЙДЕТ ВТОРОЙ СЕЗОН,ПЛИЗ!!!!
[Профиль]  [ЛС] 

dimasik_73

Стаж: 9 лет

Сообщений: 346

dimasik_73 · 09-Авг-14 21:16 (спустя 4 дня)

[Цитировать] 

СПАСИБО! СЕРИАЛ ПРОСТО БОМБА!
[Профиль]  [ЛС] 

tretettert

Стаж: 8 лет 8 месяцев

Сообщений: 45


tretettert · 08-Сен-14 23:45 (спустя 30 дней)

[Цитировать] 

dimasik_73 писал(а):
64786887СПАСИБО! СЕРИАЛ ПРОСТО БОМБА!
Пожалуйста!
[Профиль]  [ЛС] 

Саша Бородач

Стаж: 7 лет 6 месяцев

Сообщений: 330

Саша Бородач · 09-Сен-14 00:39 (спустя 53 мин.)

[Цитировать] 

В июле начались съемки второго сезона популярного телесериала «Обратная сторона луны». Премьера намечена на ноябрь 2014. Уже сейчас можно увидеть трейлер продолжения:
http://www.youtube.com/watch?feature=player_embedded&v=wwUjOQLt84U
Цитата:
Путем невероятного перемещения во времени и пространстве, Миша Соловьев (Павел Деревянко) попадает обратно в наше время. Но вскоре он понимает, что ошибся — он находится в СССР, в котором не было перестройки. Теперь он вынужден работать простым участковым. Мешать ему как обычно будет маньяк Павлов.
[Профиль]  [ЛС] 

Zermit

Стаж: 11 лет 1 месяц

Сообщений: 85


Zermit · 17-Сен-14 11:08 (спустя 8 дней)

[Цитировать] 

Цитата:
Картинки из торрента надо убрать. Их можно залить на файлообменник.
Из торрента убрали это ладно, а залить?
В остальном, спасибо.
[Профиль]  [ЛС] 

tretettert

Стаж: 8 лет 8 месяцев

Сообщений: 45


tretettert · 09-Окт-14 15:48 (спустя 22 дня)

[Цитировать] 

Zermit писал(а):
65167896
Цитата:
Картинки из торрента надо убрать. Их можно залить на файлообменник.
Из торрента убрали это ладно, а залить?
В остальном, спасибо.
По просьбам трудящихся сканы обложки и дисков залиты на fastpic
[Профиль]  [ЛС] 

формалист

Стаж: 9 лет 6 месяцев

Сообщений: 88


формалист · 12-Янв-15 05:22 (спустя 3 месяца 2 дня)

[Цитировать] 

очень интересно было до Высоцкого включительно. Потом всё гораздо слабее.
[Профиль]  [ЛС] 

кукажана-кукарелла

Top Bonus 02* 500GB

Стаж: 11 лет 2 месяца

Сообщений: 381

кукажана-кукарелла · 19-Янв-15 04:02 (спустя 6 дней)

[Цитировать] 

2 сезон был намечен на ноябрь 2014 перенесли на 2015 год
[Профиль]  [ЛС] 

olly71

Стаж: 7 лет 7 месяцев

Сообщений: 282

olly71 · 03-Май-15 09:49 (спустя 3 месяца 15 дней)

[Цитировать] 

кукажана-кукарелла писал(а):
665805222 сезон был намечен на ноябрь 2014 перенесли на 2015 год
Уже на 2016 год Цекало ни как с первым каналом по баблу не может договорится
[Профиль]  [ЛС] 

Harry Palmer

Top Seed 02* 80r

Стаж: 10 лет 5 месяцев

Сообщений: 1272

Harry Palmer · 03-Май-15 10:02 (спустя 12 мин.)

[Цитировать] 

У меня такое чувство, что у второго сезона будет судьба Карточного домика-3. В лучшем случае покажут летом в сезон отпусков.
[Профиль]  [ЛС] 

wr222sm

Стаж: 10 лет 10 месяцев

Сообщений: 66

wr222sm · 27-Июл-15 00:36 (спустя 2 месяца 23 дня)

[Цитировать] 

Сериал, на фоне остальной порнографии, неплох - всем хочется вернуться в беззаботное, счастливое детство, в СССР. Но слишком идеализирован. Даже во времена застоя, в Москве, не показывают советских магазинов. Уже не могут найти тех 3-ех сортов колбасы, мороженный палтус и навсегда исчезнувшую серую, упаковочную бумагу, вместе с хамоватоми продавщицами.
Кстати, не показывают пивных, пельменных, рюмочных и прочие места сбора как уголовного элемента, так и опер.состава милиции тех годов.
Про проф.непригодность ГГ даже говорить не буду - достаточно посмотреть на его стрижку, что-бы выгнать даже не из советской милиции, а из современной полиции. Причем с позором. Про его "оперативную" работу говорить просто не хочется. Могли позвать ветеранов МВД, бывшими сотрудниками в те года, в консультанты. Пока они у нас есть в избытке.
[Профиль]  [ЛС] 

nata707070

Стаж: 7 лет 11 месяцев

Сообщений: 18


nata707070 · 08-Сен-15 08:42 (спустя 1 месяц 12 дней)

[Цитировать] 

Фильм хорош, слов нет! Но хочется вставить свои пять копеек и отметить его важнейший философский аспект, на который почему-то не обращают внимание. Вольно или не вольно создатели фильма очень ярко показали нравственную деградацию нашего современного общества (на примере далеко не худших его представителей) по сравнению с советским обществом семидесятых годов.
Мать - МАТЬ!!!, которая за своего ребенка бьется до последнего, верит в лучший исход для своего дитя при самых неблагоприятных раскладах - тут достаточно спокойно, почти без борьбы соглашается дать согласие умертвить (фактически убить) своего сына. Ладно, пусть она (работавшая, кстати в библиотеке) книжек в своей жизни принципиально не читала, но уж голливудских фильмов, в которых герой лежа в коме по нескольку лет возвращался к жизни, она что - тоже не смотрела?
Милая медсестра 70-х Катя в наше время так ведет беседу с матерью, что фактически приводит ее к мысли, что эвтаназия для Михаила единственный выход. Это при том, что Катя уже главврач, вопрос финансов для лечения сына ее любимого Миши решен, во врачебной практике не редкость нахождение в коме по нескольку месяцев с благополучным выходом из нее - а тут Михаил в коме всего-то две-три недели. Как так?
Коллега Михаила - Андрей, которому его начальник спас жизнь. Тоже как-то спокойно воспринимает известие о планируемом умервщлении Михаила. То Андрей бегал по всем инстанциям, письма министру писал и т.п. А тут вдруг даже не попробовал Саврасову сообщить об эвтаназии. Саврасов ведь четко сказал : "Этот человек должен жить" - жить, а не быть отключенным от системы жизнеобеспечения. И влияния у Саврасова хватило бы остановить убийство Михаила.
Генерал Котов, появился с умным видом у койки больного, сказал, что уговорит мать не подписывать эвтаназию и пропал куда-то. Наверное старческий маразм, забыл об обещании - не мудрено, ему ведь уже то ли под семьдесят, то ли за семьдесят.
Есть еще несколько ляпов по сценарию :
1. В 1979 году уже все желающие писали шариковыми ручками. Наливные оставались для желающих. Помню классе в седьмом мы из интереса покупали наливные ручки, пузырьки с чернилами и учились писать ими.
2. Эвтаназия, насколько я знаю, в РФ не разрешена, были в свое время разговоры на эту тему, но натолкнувшись на активное неприятие этой идеи обществом, заглохли. Поэтому отключение больного от системы жизнеобеспечения, хоть с мамашиного разрешения, хоть без такового, юридически является убийством - со всеми вытекающими отсюда последствиями. Врач, отключающий систему - убийца-исполнитель, главврач, давший команду на отключение, организатор, мамашка, давшая согласие, соучастник. Налицо - организованная преступная группа. До пожизненного заключения в современной РФ.
3. А вот в СССР пожизненного заключения не было, и максимальный срок по УК РСФСР и других союзных республик составлял 15 лет, а не 20, как в одной из серий утверждают советские менты (не помню кто именно).
4. Узнав о том, что с квартирного ключа возможно снята копия, Михаил почему-то не меняет замок в квартире, что сделал бы не только крутой и многоопытный мент, но и самый последний обыватель. Результат - Катю похищают.
5. Увидев мертвого Желобова с ножом в груди, Михаил как первоклассник вытаскивает нож, оставляя тем самым на нем свои отпечатки. Поступок для опытного сыщика совершенно немыслимый! Если уж надо нож вытащить, то сыщик одел бы перчатку, а за неимением таковой простой тряпкой (носовым платком) обернул бы рукоять ножа, чтобы не стереть отпечатки пальцев убийцы. Результат - Михаила берут с поличным на убийстве.
Ну а в целом, считаю - сериал действительно лучший из всех сериалов последних тридцати лет.
[Профиль]  [ЛС] 

Scarrt

Стаж: 6 лет 6 месяцев

Сообщений: 14


Scarrt · 03-Янв-16 13:03 (спустя 3 месяца 25 дней)

[Цитировать] 

Согласен, есть кое-какие ляпы, но сериал интересный! Буду ждать продолжения!
[Профиль]  [ЛС] 

кукажана-кукарелла

Top Bonus 02* 500GB

Стаж: 11 лет 2 месяца

Сообщений: 381

кукажана-кукарелла · 29-Янв-16 17:41 (спустя 26 дней)

[Цитировать] 

Ну вообще сказали что премьера 2го сезона будет в январе 2016
[Профиль]  [ЛС] 

elarik10

Стаж: 8 лет 1 месяц

Сообщений: 80

elarik10 · 30-Янв-16 08:13 (спустя 14 часов)

[Цитировать] 

Второй сезон ещё в прошлом году обещали. Так что подождём
[Профиль]  [ЛС] 

Gefestel

Стаж: 7 лет 5 месяцев

Сообщений: 664

Gefestel · 28-Фев-16 16:19 (спустя 29 дней)

[Цитировать] 

Уже рекламные ролики с отрывками на первом что СКОРО !
[Профиль]  [ЛС] 

lonlylokly2

Стаж: 10 лет 10 месяцев

Сообщений: 17


lonlylokly2 · 29-Фев-16 00:36 (спустя 8 часов)

[Цитировать] 

Gefestel
Уже рекламные ролики с отрывками на первом что СКОРО !
Неужели наконец дождемся 2-го сезона!
Только бы не разочароваться.
[Профиль]  [ЛС] 

olly71

Стаж: 7 лет 7 месяцев

Сообщений: 282

olly71 · 29-Фев-16 18:32 (спустя 17 часов)

[Цитировать] 

Gefestel писал(а):
70131942Уже рекламные ролики с отрывками на первом что СКОРО !
Первый раз рекламный ролик второго сезона показали на первом осенью 2014 года !!!!!! Так что закатайте губу обратно и не дёргайте понапрасну народ Судьба сериала исключительно в руках двух людей Эрнста и Цекало но у них давно уже очень сложные финансовые отнощения
[Профиль]  [ЛС] 

Gefestel

Стаж: 7 лет 5 месяцев

Сообщений: 664

Gefestel · 02-Мар-16 10:15 (спустя 1 день 15 часов)

[Цитировать] 

olly71
Не..., здесь совсем другое. Предпремьерный ролик, как бывает в предверии скорого показа.
[Профиль]  [ЛС] 

olly71

Стаж: 7 лет 7 месяцев

Сообщений: 282

olly71 · 02-Мар-16 12:03 (спустя 1 час 47 мин.)

[Цитировать] 

Gefestel писал(а):
70153592olly71
Не..., здесь совсем другое. Предпремьерный ролик, как бывает в предверии скорого показа.
Да я то что ? я за я трижды за если наконец всё таки покажут 2 сезон
[Профиль]  [ЛС] 

кукажана-кукарелла

Top Bonus 02* 500GB

Стаж: 11 лет 2 месяца

Сообщений: 381

кукажана-кукарелла · 05-Апр-16 00:33 (спустя 1 месяц 2 дня)

[Цитировать] 

Новостей никаких нету про 2ой сезон*
[Профиль]  [ЛС] 

shanishki

Стаж: 8 лет 5 месяцев

Сообщений: 91

shanishki · 14-Май-16 15:03 (спустя 1 месяц 9 дней)

[Цитировать] 

Можете пока посмотреть анонсы про 2-й сезон
https://www.youtube.com/playlist?list=PLoDdtJTIFetfhtPHbUnQAcGBpRZLWCWAD
[Профиль]  [ЛС] 

arolig

Стаж: 9 лет 10 месяцев

Сообщений: 43

arolig · 16-Июл-16 23:30 (спустя 2 месяца 2 дня)

[Цитировать] 

фины показали второй сезон (уже можно найти и качнуть)
и мои предположения подтвердились, двухлетняя задержка связана с нынешней ситуацией в стране
ибо получилась политическая сатира, а у нас она не принята
скрытый текст
МАРСНАШ, мост на Аляску и это первые 17 минут
[Профиль]  [ЛС] 

CarapaxSPb

Стаж: 6 лет 8 месяцев

Сообщений: 507

CarapaxSPb · 11-Дек-16 20:13 (спустя 4 месяца 25 дней, ред. 11-Дек-16 20:13)

[Цитировать] 

Глянул начало 2-го сезона - решил, что стоит посмотреть с начала...
Так вот первый - голимая такая ностальгуха Особенно для меня, когда-то бегавшего на "толчок" и выкупавшего Куин и тот самый Пинк - и за те самые бешеные деньги... и сравнивавшего Пинк как раз с Зыкиной...
В общем, смотрю дальше не без удовольствия.
Хотя кое-где и похохатываю: ну не было "блин" в 79-ом, мертво
Когда просмотрю всё, может еще чего ляпну.
P.S. У меня у тестя был такой лимонный москвичок. Не 412-ый, правда, а уже 2140. Но такое же... чудо...
Кстати, в 6-ой серии в начале Space играет, 1977 год, Magic Fly. Да-да, того самого Моруани...
P.P.S. Второй более стебный, конечно, более гротексный, но мне такое даже больше нравится.
А вообще, интересные мысли посещают... насколько реальность реальна, а не зависит от того, как наше сознание реагирует на события... и не меняет ее произвольно...
[Профиль]  [ЛС] 

vlad73bo

Стаж: 7 лет 10 месяцев

Сообщений: 1


vlad73bo · 05-Фев-17 15:37 (спустя 1 месяц 24 дня)

[Цитировать] 

nata707070 писал(а):
686951921. В 1979 году уже все желающие писали шариковыми ручками. Наливные оставались для желающих. Помню классе в седьмом мы из интереса покупали наливные ручки, пузырьки с чернилами и учились писать ими.
Ключевое слово — «желающие», хотя и довольно высокий процент.
Если верить вики, шариковые ручки массово распространились в СССР, с конца 60-х. К 1979 году, о котором идёт речь, все о них знали и многие ими писали. Но многие по прежнему писали перьевыми авторучками.
Я, к примеру, пошёл в первый класс в 1981 году и по настоянию классной руководительницы, класса до 4, все писали только перьевыми авторучками.
Хорошо помню, что на почте в Крыму, в начале 80-х, для заполнения бланков стояли чернильницы и ручки со сменными перьями (та ещё древность).
Не вижу ничего удивительного в том, что нерадивому милиционеру, для написания заявления об уходе, протягивают чернильную авторучку.
[Профиль]  [ЛС] 

ave-78

Стаж: 10 лет 3 месяца

Сообщений: 1240

ave-78 · 23-Фев-17 20:04 (спустя 18 дней, ред. 23-Фев-17 20:04)

[Цитировать] 

Автор поставил диагноз пациента.
Пожалуй лучший фильм о шизофрении, который я смотрел.
[Профиль]  [ЛС] 

Rionats335

Стаж: 8 лет 2 месяца

Сообщений: 14

Rionats335 · 11-Мар-17 19:35 (спустя 15 дней)

[Цитировать] 

Как же киношники ментов не любят! За редким исключением (Опера, ещё пару штук всего) - менты до ужаса тупые, ка здесь (и Лесник, например). Хотя, в реальности, насколько я сталкивался, нормальные, не тупые, в ментах не задерживаются, не выносят.
[Профиль]  [ЛС] 
 
Ответить
Loading...
Error