(Fusion, Avant-Garde Jazz, Soul Jazz) [CD] Herbie Hancock - The Warner Bros. Years (1969-1972) (3CD) - 2014, FLAC (tracks+.cue), lossless

Страницы:  1

Ответить
Автор
Сообщение

fiks22

Top Seed 08* 5120r

Стаж: 11 лет

Сообщений: 9862

fiks22 · 18-Сен-14 22:03 (4 года 1 месяц назад, ред. 18-Сен-14 22:06)

Herbie Hancock - The Warner Bros. Years (1969-1972)
Жанр: Fusion, Avant-Garde Jazz, Soul Jazz
Носитель: CD
Страна-производитель диска: США
Год издания: 2014
Издатель (лейбл): Warner/Rhino
Номер по каталогу: 8122795904
Аудиокодек: FLAC (*.flac)
Тип рипа: tracks+.cue
Битрейт аудио: lossless
Продолжительность: 2:33:30
Источник (релизер): gravy63 (what)
Наличие сканов в содержимом раздачи: нет
CD1 {43:47}
Fat Albert Rotunda
01. Wiggle-Waggle (5:52)
02. Fat Mama (3:49)
03. Tell Me a Bedtime Story (5:02)
04. Oh! Oh! Here He Comes (4:08)
05. Jessica (4:14)
06. Fat Albert Rotunda (6:29)
07. Lil' Brother (4:29)
08. Wiggle Waggle (Mono) (5:51)
09. Fat Mama (Mono) (3:53)
Лог создания рипа
Exact Audio Copy V1.0 beta 3 from 29. August 2011
EAC extraction logfile from 15. September 2014, 22:38
Herbie Hancock / The Warner Bros. Years 1969-1972, Disc 1
Used drive : HL-DT-STDVDRAM GH24NS90 Adapter: 1 ID: 2
Read mode : Secure
Utilize accurate stream : Yes
Defeat audio cache : Yes
Make use of C2 pointers : No
Read offset correction : 6
Overread into Lead-In and Lead-Out : No
Fill up missing offset samples with silence : Yes
Delete leading and trailing silent blocks : No
Null samples used in CRC calculations : Yes
Used interface : Native Win32 interface for Win NT & 2000
Gap handling : Appended to previous track
Used output format : User Defined Encoder
Selected bitrate : 768 kBit/s
Quality : High
Add ID3 tag : No
Command line compressor : C:\Program Files (x86)\Exact Audio Copy\FLAC\FLAC.EXE
Additional command line options : -8 -V -T "ARTIST=%artist%" -T "TITLE=%title%" -T "ALBUM=%albumtitle%" -T "DATE=%year%" -T "TRACKNUMBER=%tracknr%" -T "GENRE=%genre%" -T "PERFORMER=%albuminterpret%" -T "COMPOSER=%composer%" %haslyrics%--tag-from-file=LYRICS="%lyricsfile%"%haslyrics% -T "ALBUMARTIST=%albumartist%" -T "DISCNUMBER=%cdnumber%" -T "TOTALDISCS=%totalcds%" -T "TOTALTRACKS=%numtracks%" -T "COMMENT=%comment%" %source% -o %dest%
TOC of the extracted CD
Track | Start | Length | Start sector | End sector
---------------------------------------------------------
1 | 0:00.00 | 5:51.50 | 0 | 26374
2 | 5:51.50 | 3:49.02 | 26375 | 43551
3 | 9:40.52 | 5:01.65 | 43552 | 66191
4 | 14:42.42 | 4:08.10 | 66192 | 84801
5 | 18:50.52 | 4:13.45 | 84802 | 103821
6 | 23:04.22 | 6:29.15 | 103822 | 133011
7 | 29:33.37 | 4:28.38 | 133012 | 153149
8 | 34:02.00 | 5:51.12 | 153150 | 179486
9 | 39:53.12 | 3:53.12 | 179487 | 196973
Track 1
Filename D:\EAC\Herbie Hancock - The Warner Bros. Years 1969-1972 (2014) - FLAC\Disc 1\01 - Wiggle-Waggle.wav
Pre-gap length 0:00:02.00
Peak level 95.5 %
Extraction speed 1.1 X
Track quality 100.0 %
Test CRC F47CA7AD
Copy CRC F47CA7AD
Track not present in AccurateRip database
Copy OK
Track 2
Filename D:\EAC\Herbie Hancock - The Warner Bros. Years 1969-1972 (2014) - FLAC\Disc 1\02 - Fat Mama.wav
Peak level 95.5 %
Extraction speed 1.1 X
Track quality 100.0 %
Test CRC 5EE7CD49
Copy CRC 5EE7CD49
Track not present in AccurateRip database
Copy OK
Track 3
Filename D:\EAC\Herbie Hancock - The Warner Bros. Years 1969-1972 (2014) - FLAC\Disc 1\03 - Tell Me a Bedtime Story.wav
Peak level 95.5 %
Extraction speed 1.3 X
Track quality 100.0 %
Test CRC 348C9BAE
Copy CRC 348C9BAE
Track not present in AccurateRip database
Copy OK
Track 4
Filename D:\EAC\Herbie Hancock - The Warner Bros. Years 1969-1972 (2014) - FLAC\Disc 1\04 - Oh! Oh! Here He Comes.wav
Peak level 88.6 %
Extraction speed 1.4 X
Track quality 100.0 %
Test CRC 0F84DE96
Copy CRC 0F84DE96
Track not present in AccurateRip database
Copy OK
Track 5
Filename D:\EAC\Herbie Hancock - The Warner Bros. Years 1969-1972 (2014) - FLAC\Disc 1\05 - Jessica.wav
Peak level 95.5 %
Extraction speed 1.3 X
Track quality 99.9 %
Test CRC 2260720E
Copy CRC 2260720E
Track not present in AccurateRip database
Copy OK
Track 6
Filename D:\EAC\Herbie Hancock - The Warner Bros. Years 1969-1972 (2014) - FLAC\Disc 1\06 - Fat Albert Rotunda.wav
Peak level 87.4 %
Extraction speed 1.7 X
Track quality 100.0 %
Test CRC A491E974
Copy CRC A491E974
Track not present in AccurateRip database
Copy OK
Track 7
Filename D:\EAC\Herbie Hancock - The Warner Bros. Years 1969-1972 (2014) - FLAC\Disc 1\07 - Lil' Brother.wav
Peak level 95.5 %
Extraction speed 1.7 X
Track quality 100.0 %
Test CRC 10296621
Copy CRC 10296621
Track not present in AccurateRip database
Copy OK
Track 8
Filename D:\EAC\Herbie Hancock - The Warner Bros. Years 1969-1972 (2014) - FLAC\Disc 1\08 - Wiggle Waggle (Mono).wav
Peak level 93.5 %
Extraction speed 1.8 X
Track quality 100.0 %
Test CRC 40C394FC
Copy CRC 40C394FC
Track not present in AccurateRip database
Copy OK
Track 9
Filename D:\EAC\Herbie Hancock - The Warner Bros. Years 1969-1972 (2014) - FLAC\Disc 1\09 - Fat Mama (Mono).wav
Peak level 95.5 %
Extraction speed 1.8 X
Track quality 100.0 %
Test CRC AA030A38
Copy CRC AA030A38
Track not present in AccurateRip database
Copy OK
None of the tracks are present in the AccurateRip database
No errors occurred
End of status report
---- CUETools DB Plugin V2.1.3
[CTDB TOCID: 96jlpOy1dbX97fnFA0AbA1O4t7Y-] disk not present in database, Submit result: 96jlpOy1dbX97fnFA0AbA1O4t7Y- has been uploaded
==== Log checksum AA0E9F847B2216D6810D9816209AD5CDED88D7F095897EC0E4AAAA3810B0AA94 ====
Содержание индексной карты (.CUE)
REM GENRE Jazz
REM DATE 2014
REM DISCID 7A0A4209
REM COMMENT "ExactAudioCopy v1.0b3"
CATALOG 0081227959043
PERFORMER "Herbie Hancock"
TITLE "The Warner Bros. Years (1969-1972) CD1"
FILE "01 - Wiggle-Waggle.wav" WAVE
TRACK 01 AUDIO
TITLE "Wiggle-Waggle"
PERFORMER "Herbie Hancock"
ISRC USWB10103775
INDEX 01 00:00:00
FILE "02 - Fat Mama.wav" WAVE
TRACK 02 AUDIO
TITLE "Fat Mama"
PERFORMER "Herbie Hancock"
ISRC USWB10103776
INDEX 01 00:00:00
FILE "03 - Tell Me a Bedtime Story.wav" WAVE
TRACK 03 AUDIO
TITLE "Tell Me a Bedtime Story"
PERFORMER "Herbie Hancock"
ISRC USWB10103777
INDEX 01 00:00:00
FILE "04 - Oh! Oh! Here He Comes.wav" WAVE
TRACK 04 AUDIO
TITLE "Oh! Oh! Here He Comes"
PERFORMER "Herbie Hancock"
ISRC USWB10103778
INDEX 01 00:00:00
FILE "05 - Jessica.wav" WAVE
TRACK 05 AUDIO
TITLE "Jessica"
PERFORMER "Herbie Hancock"
ISRC USWB10103779
INDEX 01 00:00:00
FILE "06 - Fat Albert Rotunda.wav" WAVE
TRACK 06 AUDIO
TITLE "Fat Albert Rotunda"
PERFORMER "Herbie Hancock"
ISRC USWB10103780
INDEX 01 00:00:00
FILE "07 - Lil' Brother.wav" WAVE
TRACK 07 AUDIO
TITLE "Lil' Brother"
PERFORMER "Herbie Hancock"
ISRC USWB10103781
INDEX 01 00:00:00
FILE "08 - Wiggle Waggle (Mono).wav" WAVE
TRACK 08 AUDIO
TITLE "Wiggle Waggle (Mono)"
PERFORMER "Herbie Hancock"
ISRC USWB11400712
INDEX 01 00:00:00
FILE "09 - Fat Mama (Mono).wav" WAVE
TRACK 09 AUDIO
TITLE "Fat Mama (Mono)"
PERFORMER "Herbie Hancock"
ISRC USWB11400714
INDEX 01 00:00:00
CD2 {57:46}
Mwandishi
01. Ostinato (Suite for Angela) (13:10)
02. You'll Know When You Get There (10:22)
03. Wandering Spirit Song (21:28)
04. Ostinato (Suite for Angela) (Promo Edit) (6:15)
05. You'll Know When You Get There (Promo Edit) (6:31)
Лог создания рипа
Exact Audio Copy V1.0 beta 3 from 29. August 2011
EAC extraction logfile from 16. September 2014, 19:10
Herbie Hancock / The Warner Bros. Years (1969-1972), Disc 2
Used drive : HL-DT-STDVDRAM GH24NS90 Adapter: 1 ID: 2
Read mode : Secure
Utilize accurate stream : Yes
Defeat audio cache : Yes
Make use of C2 pointers : No
Read offset correction : 6
Overread into Lead-In and Lead-Out : No
Fill up missing offset samples with silence : Yes
Delete leading and trailing silent blocks : No
Null samples used in CRC calculations : Yes
Used interface : Native Win32 interface for Win NT & 2000
Gap handling : Appended to previous track
Used output format : User Defined Encoder
Selected bitrate : 768 kBit/s
Quality : High
Add ID3 tag : No
Command line compressor : C:\Program Files (x86)\Exact Audio Copy\FLAC\FLAC.EXE
Additional command line options : -8 -V -T "ARTIST=%artist%" -T "TITLE=%title%" -T "ALBUM=%albumtitle%" -T "DATE=%year%" -T "TRACKNUMBER=%tracknr%" -T "GENRE=%genre%" -T "PERFORMER=%albuminterpret%" -T "COMPOSER=%composer%" %haslyrics%--tag-from-file=LYRICS="%lyricsfile%"%haslyrics% -T "ALBUMARTIST=%albumartist%" -T "DISCNUMBER=%cdnumber%" -T "TOTALDISCS=%totalcds%" -T "TOTALTRACKS=%numtracks%" -T "COMMENT=%comment%" %source% -o %dest%
TOC of the extracted CD
Track | Start | Length | Start sector | End sector
---------------------------------------------------------
1 | 0:00.00 | 13:10.12 | 0 | 59261
2 | 13:10.12 | 10:22.03 | 59262 | 105914
3 | 23:32.15 | 21:28.22 | 105915 | 202536
4 | 45:00.37 | 6:14.70 | 202537 | 230656
5 | 51:15.32 | 6:30.41 | 230657 | 259947
Track 1
Filename D:\EAC\Herbie Hancock - The Warner Bros. Years 1969-1972 (2014) - FLAC\Disc 2\01 - Ostinato [Suite For Angela].wav
Pre-gap length 0:00:02.00
Peak level 95.6 %
Extraction speed 1.2 X
Track quality 99.9 %
Test CRC 1CFF448A
Copy CRC 1CFF448A
Track not present in AccurateRip database
Copy OK
Track 2
Filename D:\EAC\Herbie Hancock - The Warner Bros. Years 1969-1972 (2014) - FLAC\Disc 2\02 - You'll Know When You Get There.wav
Peak level 94.9 %
Extraction speed 1.6 X
Track quality 100.0 %
Test CRC FC7504CE
Copy CRC FC7504CE
Track not present in AccurateRip database
Copy OK
Track 3
Filename D:\EAC\Herbie Hancock - The Warner Bros. Years 1969-1972 (2014) - FLAC\Disc 2\03 - Wandering Spirit Song.wav
Peak level 95.6 %
Extraction speed 2.0 X
Track quality 100.0 %
Test CRC 7B97C54A
Copy CRC 7B97C54A
Track not present in AccurateRip database
Copy OK
Track 4
Filename D:\EAC\Herbie Hancock - The Warner Bros. Years 1969-1972 (2014) - FLAC\Disc 2\04 - Ostinato [Suite For Angela] [Promo Edit].wav
Peak level 95.5 %
Extraction speed 2.1 X
Track quality 100.0 %
Test CRC D697462A
Copy CRC D697462A
Track not present in AccurateRip database
Copy OK
Track 5
Filename D:\EAC\Herbie Hancock - The Warner Bros. Years 1969-1972 (2014) - FLAC\Disc 2\05 - You'll Know When You Get There [Promo Edit].wav
Peak level 95.5 %
Extraction speed 2.2 X
Track quality 100.0 %
Test CRC 9BF0104C
Copy CRC 9BF0104C
Track not present in AccurateRip database
Copy OK
None of the tracks are present in the AccurateRip database
No errors occurred
End of status report
---- CUETools DB Plugin V2.1.3
[CTDB TOCID: m3hcb7mziqVPPtY7xHlXVezQJhM-] disk not present in database, Submit result: m3hcb7mziqVPPtY7xHlXVezQJhM- has been uploaded
==== Log checksum 197DA4F203F1A30178E3A35E0CD77A8820FBB998490351D7F9B12CB70C063BC6 ====
Содержание индексной карты (.CUE)
REM GENRE Jazz
REM DATE 2014
REM DISCID 3A0D8905
REM COMMENT "ExactAudioCopy v1.0b3"
CATALOG 0081227959043
PERFORMER "Herbie Hancock"
TITLE "The Warner Bros. Years (1969-1972) CD2"
FILE "01 - Ostinato (Suite for Angela).wav" WAVE
TRACK 01 AUDIO
TITLE "Ostinato (Suite for Angela)"
PERFORMER "Herbie Hancock"
ISRC USWB10103782
INDEX 01 00:00:00
FILE "02 - You'll Know When You Get There.wav" WAVE
TRACK 02 AUDIO
TITLE "You'll Know When You Get There"
PERFORMER "Herbie Hancock"
ISRC USWB10103783
INDEX 01 00:00:00
FILE "03 - Wandering Spirit Song.wav" WAVE
TRACK 03 AUDIO
TITLE "Wandering Spirit Song"
PERFORMER "Herbie Hancock"
ISRC USWB10103784
INDEX 01 00:00:00
FILE "04 - Ostinato (Suite for Angela) (Promo Edit).wav" WAVE
TRACK 04 AUDIO
TITLE "Ostinato (Suite for Angela) (Promo Edit)"
PERFORMER "Herbie Hancock"
ISRC USWB11400713
INDEX 01 00:00:00
FILE "05 - You'll Know When You Get There (Promo Edit).wav" WAVE
TRACK 05 AUDIO
TITLE "You'll Know When You Get There (Promo Edit)"
PERFORMER "Herbie Hancock"
ISRC USWB11400715
INDEX 01 00:00:00
CD3 {51:57}
Crossings
01. Sleeping Giant (24:49)
02. Quasar (7:25)
03. Water Torture (13:58)
04. Crossings (Stereo) (2:36)
05. Water Torture (Stereo) (3:09)
Лог создания рипа
Exact Audio Copy V1.0 beta 3 from 29. August 2011
EAC extraction logfile from 16. September 2014, 22:40
Herbie Hancock / The Warner Bros. Years 1969-1972, Disc 3
Used drive : HL-DT-STDVDRAM GH24NS90 Adapter: 1 ID: 2
Read mode : Secure
Utilize accurate stream : Yes
Defeat audio cache : Yes
Make use of C2 pointers : No
Read offset correction : 6
Overread into Lead-In and Lead-Out : No
Fill up missing offset samples with silence : Yes
Delete leading and trailing silent blocks : No
Null samples used in CRC calculations : Yes
Used interface : Native Win32 interface for Win NT & 2000
Gap handling : Appended to previous track
Used output format : User Defined Encoder
Selected bitrate : 768 kBit/s
Quality : High
Add ID3 tag : No
Command line compressor : C:\Program Files (x86)\Exact Audio Copy\FLAC\FLAC.EXE
Additional command line options : -8 -V -T "ARTIST=%artist%" -T "TITLE=%title%" -T "ALBUM=%albumtitle%" -T "DATE=%year%" -T "TRACKNUMBER=%tracknr%" -T "GENRE=%genre%" -T "PERFORMER=%albuminterpret%" -T "COMPOSER=%composer%" %haslyrics%--tag-from-file=LYRICS="%lyricsfile%"%haslyrics% -T "ALBUMARTIST=%albumartist%" -T "DISCNUMBER=%cdnumber%" -T "TOTALDISCS=%totalcds%" -T "TOTALTRACKS=%numtracks%" -T "COMMENT=%comment%" %source% -o %dest%
TOC of the extracted CD
Track | Start | Length | Start sector | End sector
---------------------------------------------------------
1 | 0:00.00 | 24:48.67 | 0 | 111666
2 | 24:48.67 | 7:25.20 | 111667 | 145061
3 | 32:14.12 | 13:58.19 | 145062 | 207930
4 | 46:12.31 | 2:36.05 | 207931 | 219635
5 | 48:48.36 | 3:08.69 | 219636 | 233804
Track 1
Filename D:\EAC\Herbie Hancock - The Warner Bros. Years 1969-1972 (2014) - FLAC\Disc 3\01 - Sleeping Giant.wav
Pre-gap length 0:00:02.00
Peak level 94.4 %
Extraction speed 1.4 X
Track quality 100.0 %
Test CRC 1ED76B99
Copy CRC 1ED76B99
Track not present in AccurateRip database
Copy OK
Track 2
Filename D:\EAC\Herbie Hancock - The Warner Bros. Years 1969-1972 (2014) - FLAC\Disc 3\02 - Quasar.wav
Peak level 90.5 %
Extraction speed 1.7 X
Track quality 100.0 %
Test CRC 1F56C8B7
Copy CRC 1F56C8B7
Track not present in AccurateRip database
Copy OK
Track 3
Filename D:\EAC\Herbie Hancock - The Warner Bros. Years 1969-1972 (2014) - FLAC\Disc 3\03 - Water Torture.wav
Peak level 94.1 %
Extraction speed 1.9 X
Track quality 99.9 %
Test CRC 2A431205
Copy CRC 2A431205
Track not present in AccurateRip database
Copy OK
Track 4
Filename D:\EAC\Herbie Hancock - The Warner Bros. Years 1969-1972 (2014) - FLAC\Disc 3\04 - Crossings (Stereo).wav
Peak level 95.5 %
Extraction speed 1.8 X
Track quality 100.0 %
Test CRC 74E11336
Copy CRC 74E11336
Track not present in AccurateRip database
Copy OK
Track 5
Filename D:\EAC\Herbie Hancock - The Warner Bros. Years 1969-1972 (2014) - FLAC\Disc 3\05 - Water Torture (Stereo).wav
Peak level 73.5 %
Extraction speed 1.6 X
Track quality 99.9 %
Test CRC 8B5E9697
Copy CRC 8B5E9697
Track not present in AccurateRip database
Copy OK
None of the tracks are present in the AccurateRip database
No errors occurred
End of status report
---- CUETools DB Plugin V2.1.3
[CTDB TOCID: iJZRa3trYjHemKYj.7Dc3APRi5s-] disk not present in database, Submit result: iJZRa3trYjHemKYj.7Dc3APRi5s- has been uploaded
==== Log checksum EA473302E1CD1941977F2C2C6CAA99ECB72B8AEC6C849CD7F5A041D46288E154 ====
Содержание индексной карты (.CUE)
REM GENRE Jazz
REM DATE 2014
REM DISCID 450C2D05
REM COMMENT "ExactAudioCopy v1.0b3"
CATALOG 0081227959043
PERFORMER "Herbie Hancock"
TITLE "The Warner Bros. Years (1969-1972) CD3"
FILE "01 - Sleeping Giant.wav" WAVE
TRACK 01 AUDIO
TITLE "Sleeping Giant"
PERFORMER "Herbie Hancock"
ISRC USWB10103785
INDEX 01 00:00:00
FILE "02 - Quasar.wav" WAVE
TRACK 02 AUDIO
TITLE "Quasar"
PERFORMER "Herbie Hancock"
ISRC USWB10103786
INDEX 01 00:00:00
FILE "03 - Water Torture.wav" WAVE
TRACK 03 AUDIO
TITLE "Water Torture"
PERFORMER "Herbie Hancock"
ISRC USWB10103787
INDEX 01 00:00:00
FILE "04 - Crossings (Stereo).wav" WAVE
TRACK 04 AUDIO
TITLE "Crossings (Stereo)"
PERFORMER "Herbie Hancock"
ISRC USWB11400716
INDEX 01 00:00:00
FILE "05 - Water Torture (Stereo).wav" WAVE
TRACK 05 AUDIO
TITLE "Water Torture (Stereo)"
PERFORMER "Herbie Hancock"
ISRC USWB11400717
INDEX 01 00:00:00
Review by Thom Jurek
Herbie Hancock's three albums for Warner Bros have been compiled before, most notably in Mwandishi: The Complete Warner Bros. Recordings in 1994. The individual titles have been reissued in various editions and formats since that time. There are several things that separate this volume (issued by Rhino) from its predecessor. The first is the package. The clamshell case contains each disc in its own cardboard sleeve with original artwork. It also contains a lengthy essay by Bob Gluck, author of You'll Know When You Get There: Herbie Hancock & the Mwandishi Band. This set compiles not only the recordings proper, but also alternate takes, promo edits -- both Mwandishi and Crossings contained three long tracks each -- and a bonus track. Fat Albert Rotunda -- developed from a handful of tracks cut for Bill Cosby's Fat Albert cartoon show -- contains alternates of "Wiggle Waggle" and "Fat Mama." Issued in 1969, this funky soul-jazz session featured saxophonist Joe Henderson, trumpeter Johnny Coles, trombonist Garnett Brown, bassist Buster Williams, and Albert "Tootie" Heath on drums in the main group, with trumpeter Joe Newman, saxophonist Joe Farrell, guitarist Eric Gale, and drummer Bernard Purdie guesting on several cuts. Disc two is the Mwandishi Band proper on its self-titled debut from 1970: only Williams and Hancock return from the previous date, joined by Bennie Maupin on reeds and winds, trumpeter Eddie Henderson, trombonist Julian Priester, and drummer Billy Hart. Various guitarists -- including Ronnie Montrose and Leon "Ndugu" Chancler -- also guest. This disc includes promo edits for "Ostinato (Suite for Angela)" and "You'll Know When You Get There" as bonus cuts. Crossings, issued in 1972, added a further bandmember in synth player Dr. Patrick Gleeson -- originally intended as a sideman, Hancock was so impressed with his contributions he asked him to join, though he only remained for this recording. The bonus material features the heavily edited (though no less hip) single version of "Water Torture" and the set's treasure piece: the rare, non-album promo single "Crossings," a spacy, funky groover that revealed the future direction of the band which would record Sextant for Columbia a year later. This is the first time the bonus material from Mwandishi and Crossings has been made available. While Fat Albert Rotunda is a blast in terms of its groove quotient, the final two recordings, with their more complex, dissonant, and open explorations, are essential not only for any Hancock fan, but for lovers of '70s electric jazz. The recordings are still the most under-celebrated classics in the artist's catalog.
Download
Для скачивания .torrent файлов необходима регистрация
Сайт не распространяет и не хранит электронные версии произведений, а лишь предоставляет доступ к создаваемому пользователями каталогу ссылок на торрент-файлы, которые содержат только списки хеш-сумм
[Профиль]  [ЛС] 
 
Ответить
Loading...
Error