Gov't Mule ‎– Dub Side Of The Mule 2006 [2015, Rock, Reggae, DVD5]

Страницы:  1

Ответить
Автор
Сообщение

Bloodclaw

Стаж: 9 лет 1 месяц

Сообщений: 419

Bloodclaw · 17-Май-15 20:15 (2 года 6 месяцев назад)

Gov't Mule ‎– Dub Side Of The Mule 2006
Страна: USA
Жанр: Rock, Reggae
Продолжительность: 01:12:38min
Год выпуска: 2015 г.
Лейбл: Provogue
Описание:
Warren Haynes - Guitar, Vocals
Matt Abts - Drums
Danny Louis - Keyboards
Andy Hess - Bass
'Dub Side Of The Mule' guest artists:
Gordie Johnson - Guitar, Vocals
Machan - Vocals
Elaine Caswell - Vocals
Buford O'Sullivan - Trombone
Pam Fleming - Trumpet
Jenny Hill - Saxophone
Sean Pelton - Percussion
Треклист:
1. I'm A Ram
2. 54-46 Was My Number
3. Hard To Handle
4. True Love Is Hard To Find
5. Pressure Drop
6. Let Down
7. I've Got Dreams To Remember
8. Reggae Got Soul
9. Hard Road
10. Happy New Year
11. Turn On Your Love Light
12. Reggae Soulshine
Доп. информация: Специальный Выпуск на 3CD + DVD на ранее официально не выходившего концерта группы, представляет запись новогоднего концерта 2006 года, состоявшегося в Нью Йорке, Beacon Theatre.
Разбивка на главы по трекам: есть
Качество : DVD5
Формат: DVD video
Видео кодек: MPEG2
Аудио кодек: AC3
Видео: NTSC, 720x480 pixels, (16:9), 29.970 fps, 7787 kbps
Аудио: AC-3, 192 Kbps, 2 channels
Аудио2: AC-3, 448 Kbps, 6 channels
DVDinfo
Title: Gov't Mule - Dub Side Of The Mule (2015)
Size: 3.95 Gb ( 4 142 702,00 KBytes ) - DVD-5
Enabled regions: 1, 2, 3, 4, 5, 6, 7, 8
VTS_01 :
Play Length: 01:12:38+{00:01:09}+{00:06:37}+{00:05:27}+{00:05:42}+{00:04:23}+{00:03:17}+{00:05:24}+{00:07:18}+{00:09:44}+{00:11:39}+{00:00:19}+{00:05:06}+{00:06:18}
Video: NTSC 16:9 (720x480) VBR, Auto Letterboxed
Audio:
English (Dolby AC3, 2 ch)
Espanol (Dolby AC3, 6 ch)
General
Complete name : F:\Gov't Mule - Dub Side Of The Mule (2015)\VIDEO_TS\VTS_01_0.IFO
Format : DVD Video
Format profile : Program
File size : 80.0 KiB
Duration : 1h 12mn
Overall bit rate mode : Variable
Overall bit rate : 150 bps
Video
ID : 224 (0xE0)
Format : MPEG Video
Format version : Version 2
Duration : 1h 12mn
Bit rate mode : Variable
Width : 720 pixels
Height : 480 pixels
Display aspect ratio : 16:9
Frame rate : 29.970 fps
Standard : NTSC
Compression mode : Lossy
Audio #1
ID : 128 (0x80)
Format : AC-3
Format/Info : Audio Coding 3
Duration : 1h 12mn
Channel(s) : 2 channels
Sampling rate : 48.0 KHz
Compression mode : Lossy
Language : English
Audio #2
ID : 129 (0x81)
Format : AC-3
Format/Info : Audio Coding 3
Duration : 1h 12mn
Channel(s) : 6 channels
Sampling rate : 48.0 KHz
Compression mode : Lossy
Language : Spanish
Menu #1
Duration : 1h 12mn
00:00:00.000 : Chapter 1
00:00:12.500 : Chapter 2
00:05:40.000 : Chapter 3
00:11:22.000 : Chapter 4
00:16:28.500 : Chapter 5
00:22:46.500 : Chapter 6
00:27:10.000 : Chapter 7
00:30:27.000 : Chapter 8
00:35:51.000 : Chapter 9
00:43:09.000 : Chapter 10
00:52:53.000 : Chapter 11
00:54:02.000 : Chapter 12
01:00:39.500 : Chapter 13
01:12:19.000 : Chapter 14
01:12:38.200 : Chapter 15
General
Complete name : F:\Gov't Mule - Dub Side Of The Mule (2015)\VIDEO_TS\VTS_01_1.VOB
Format : MPEG-PS
File size : 1 024 MiB
Duration : 18mn 24s
Overall bit rate mode : Variable
Overall bit rate : 7 779 Kbps
Video
ID : 224 (0xE0)
Format : MPEG Video
Format version : Version 2
Format profile : [email protected]
Format settings, BVOP : Yes
Format settings, Matrix : Default
Format settings, GOP : M=3, N=15
Format settings, picture structure : Frame
Duration : 18mn 24s
Bit rate mode : Variable
Bit rate : 6 984 Kbps
Maximum bit rate : 9 000 Kbps
Width : 720 pixels
Height : 480 pixels
Display aspect ratio : 16:9
Frame rate : 29.970 fps
Standard : NTSC
Color space : YUV
Chroma subsampling : 4:2:0
Bit depth : 8 bits
Scan type : Interlaced
Scan order : Top Field First
Compression mode : Lossy
Bits/(Pixel*Frame) : 0.674
Time code of first frame : 00:00:00;00
Time code source : Group of pictures header
GOP, Open/Closed : Closed
Stream size : 919 MiB (90%)
Audio #1
ID : 189 (0xBD)-128 (0x80)
Format : AC-3
Format/Info : Audio Coding 3
Mode extension : CM (complete main)
Format settings, Endianness : Big
Muxing mode : DVD-Video
Duration : 18mn 24s
Bit rate mode : Constant
Bit rate : 192 Kbps
Channel(s) : 2 channels
Channel positions : Front: L R
Sampling rate : 48.0 KHz
Bit depth : 16 bits
Compression mode : Lossy
Stream size : 25.3 MiB (2%)
Audio #2
ID : 189 (0xBD)-129 (0x81)
Format : AC-3
Format/Info : Audio Coding 3
Mode extension : CM (complete main)
Format settings, Endianness : Big
Muxing mode : DVD-Video
Duration : 18mn 24s
Bit rate mode : Constant
Bit rate : 448 Kbps
Channel(s) : 6 channels
Channel positions : Front: L C R, Side: L R, LFE
Sampling rate : 48.0 KHz
Bit depth : 16 bits
Compression mode : Lossy
Stream size : 59.0 MiB (6%)
Menu
Скриншоты меню
Скриншоты
Download
Для скачивания .torrent файлов необходима регистрация
Сайт не распространяет и не хранит электронные версии произведений, а лишь предоставляет доступ к создаваемому пользователями каталогу ссылок на торрент-файлы, которые содержат только списки хеш-сумм
[Профиль]  [ЛС] 

Vurduchay

Стаж: 7 лет 11 месяцев

Сообщений: 730

Vurduchay · 17-Май-15 21:12 (спустя 57 мин.)

[Цитировать] 

Ну и как? Чего молчим?
[Профиль]  [ЛС] 

Подлинный Cмазчик Бoб

Стаж: 5 лет 11 месяцев

Сообщений: 164


Подлинный Cмазчик Бoб · 18-Май-15 00:01 (спустя 2 часа 48 мин.)

[Цитировать] 

Цитата:
Ну и как?
25
[Профиль]  [ЛС] 

Vurduchay

Стаж: 7 лет 11 месяцев

Сообщений: 730

Vurduchay · 18-Май-15 15:21 (спустя 15 часов)

[Цитировать] 

Подлинный Cмазчик Бoб писал(а):
67814683
Цитата:
Ну и как?
25
Понял, зафиксировал
[Профиль]  [ЛС] 

Bloodclaw

Стаж: 9 лет 1 месяц

Сообщений: 419

Bloodclaw · 19-Май-15 09:31 (спустя 18 часов, ред. 19-Май-15 09:31)

[Цитировать] 

DVD:
скрытый текст
скрытый текст
[Профиль]  [ЛС] 

perilius

Стаж: 7 лет 9 месяцев

Сообщений: 72

perilius · 21-Май-15 16:03 (спустя 2 дня 6 часов)

[Цитировать] 

Спасибо! Как я давно ждал какое-нибудь новое видео своей любимой группы!
[Профиль]  [ЛС] 

seaman in desert

Стаж: 6 лет 8 месяцев

Сообщений: 28


seaman in desert · 05-Июн-15 20:00 (спустя 15 дней)

[Цитировать] 

а причем тут растаман Боб Марли???
[Профиль]  [ЛС] 

eisler444

Стаж: 7 лет 11 месяцев

Сообщений: 153

eisler444 · 19-Ноя-17 22:34 (спустя 2 года 5 месяцев)

[Цитировать] 

Помогите пожалуйста скачать!
[Профиль]  [ЛС] 
 
Ответить
Loading...
Error