(Neo Progressive) [CD] It - Discography (5 albums/5 CDs: 1994-2017), FLAC (image+.cue+artwork), lossless

Страницы:  1
Ответить
Автор
Сообщение

wurensh

Moderator

Стаж: 9 лет 7 месяцев

Сообщений: 6223

wurensh · 27-Июн-15 20:09 (4 года 1 месяц назад, ред. 08-Июн-17 22:06)

It

Discography (1994-2017)
Жанр: Neo Progressive | Страна: UK | Годы издания дисков: 1994-2017
Label: Spacehouse/Sonic Vista/Progressive Gears | Тип рипа: image+.cue (test&copy) | Битрейт аудио: lossless
Продолжительность: 47:03 + 49:01 + 53:02 + 46:41 + 56:58 | Источник (автор рипа): свои рипы
It biography
IT (pronounced it not I.T.) was formed in 1994 by Nick Jackson as a psychedelic and multi-media band based in both London, England and Sault Ste. Marie, Canada. The band released it first full-length album, "The Stranger Inside the Self" the same year. At this point, IT was purely Nick Jackson's vehicle as he was the only full member of the band. Guest musicians were used to provide additional instrumentation for the album. During IT's live shows promoting the album, the band began to use multi-media techniques, such as playing short films behind the band on stage. IT's second album, "Two Worlds" was released early the following year. For this album, the band was expanded to include accoustic guitarist James Johnson and bassist/guitarist Andy Jackson. The band also appeared on the James Whale TV Show, a show which promoted new bands.
After the release of their second album, Nick Jackson took some time to build his own studio called Spacehouse Studios between 1996 and 1998 and every subsequent IT album has been recorded there. The band ended their recording hiatus in 2002 with the release of the band's third album, a concept album titled "Over & Out". For "Over & Out" the band was joined by drummer Damian Kenley. During live promotion for this album, where the band toured both England and Canada, the band played the album in its entirety accompanied by projected visual montages created by Nick Jackson.
Near the end of the tour promoting "Over & Out", guitarist James Johnson left the band in order to get married and begin family life, and Andy Jackson left the band as well. They were replaced by Andy Rowberry, on lead guitar, and James Dunn on bass guitar. The addition of keyboardist Rob Archibald and drummer Alex Inglis rounded out the lineup for their new lineup. In 2008, IT signed to Sonic Vista Music and released their fourth album, "Departure" on that label in 2009. The release of the album combined the CD with a DVD, the bands first, which included two videos, a documentary and several live tracks. Several guests appeared on the album from several diverse genres, including bluegrass and heavy metal. A European tour to promote "Departure" is currently in the works.
The band finished recording of the brand new album "We’re All In This Together" by the end of 2016, released by Progressive Gears on CD in spring 2017.
1994 - The Stranger Inside the Self (CD 2004) [SP-CD-RE-001]
Трэклист:
1. The Stranger Inside The Self (4:21)
2. I Won't Pray On Sunday (4:24)
3. More(5:00)
4. Waiting For The World (3:48)
5. Until The Children Come Home (4:15)
6. Something To Say (4:15)
7. The Last Of November (4:51)
8. To Have And To Hold (4:56)
9. When We All Fall Down (4:34)
10.Round And Round (6:37)
Total Time: 47:03
Музыканты
Nick Jackson - Vocals and Guitar
Guest Musicians:
Desmond Lambert - Keyboards
Chris Stopa - Backing Vocals
Jane Jelinek - Backing Vocals
EAC log
Exact Audio Copy V1.0 beta 4 from 7. December 2014
EAC extraction logfile from 14. March 2015, 20:31
It / The Stranger Inside The Self
Used drive : ASUS DRW-24B1LT Adapter: 1 ID: 2
Read mode : Secure
Utilize accurate stream : Yes
Defeat audio cache : Yes
Make use of C2 pointers : No
Read offset correction : 6
Overread into Lead-In and Lead-Out : No
Fill up missing offset samples with silence : Yes
Delete leading and trailing silent blocks : No
Null samples used in CRC calculations : Yes
Used interface : Native Win32 interface for Win NT & 2000
Used output format : User Defined Encoder
Selected bitrate : 1024 kBit/s
Quality : High
Add ID3 tag : Yes
Command line compressor : C:\Program Files (x86)\FLAC_1.3.1\win64\flac.exe
Additional command line options : -6 -V -T "ARTIST=%artist%" -T "TITLE=%title%" -T "ALBUM=%albumtitle%" -T "DATE=%year%" -T "TRACKNUMBER=%tracknr%" -T "GENRE=%genre%" -T "COMMENT=ripped by wurensh for rutracker.org" %source% -o %dest%
TOC of the extracted CD
Track | Start | Length | Start sector | End sector
---------------------------------------------------------
1 | 0:00.00 | 4:21.02 | 0 | 19576
2 | 4:21.02 | 4:24.15 | 19577 | 39391
3 | 8:45.17 | 5:00.24 | 39392 | 61915
4 | 13:45.41 | 3:47.63 | 61916 | 79003
5 | 17:33.29 | 4:15.31 | 79004 | 98159
6 | 21:48.60 | 4:15.25 | 98160 | 117309
7 | 26:04.10 | 4:51.01 | 117310 | 139135
8 | 30:55.11 | 4:56.24 | 139136 | 161359
9 | 35:51.35 | 4:34.30 | 161360 | 181939
10 | 40:25.65 | 6:36.59 | 181940 | 211698
Range status and errors
Selected range
Filename Y:\EAC\wurensh\It\It - The Stranger Inside The Self.wav
Peak level 99.8 %
Extraction speed 8.5 X
Range quality 99.9 %
Test CRC 551E20C2
Copy CRC 551E20C2
Copy OK
No errors occurred
AccurateRip summary
Track 1 accurately ripped (confidence 1) [18C99AE6] (AR v2)
Track 2 accurately ripped (confidence 1) [8080E96E] (AR v2)
Track 3 accurately ripped (confidence 1) [E05D5017] (AR v2)
Track 4 accurately ripped (confidence 1) [B5891D26] (AR v2)
Track 5 accurately ripped (confidence 1) [CD46F916] (AR v2)
Track 6 accurately ripped (confidence 1) [8E7C20E3] (AR v2)
Track 7 accurately ripped (confidence 1) [14B23F16] (AR v2)
Track 8 accurately ripped (confidence 1) [BC2306E4] (AR v2)
Track 9 accurately ripped (confidence 1) [2F6AED1A] (AR v2)
Track 10 accurately ripped (confidence 1) [6FA0D9F2] (AR v2)
All tracks accurately ripped
End of status report
---- CUETools DB Plugin V2.1.4
[CTDB TOCID: LUBTWpshb8xZdCFkHcU0XEH5NbQ-] disk not present in database
Submit result: LUBTWpshb8xZdCFkHcU0XEH5NbQ- has been uploaded
==== Log checksum 65D025D3697FF97CCE6BAFFE647C82930D5FF6B26C2C7FB406EC92F829E8BDEB ====
CUE sheet
REM GENRE "Progressive Rock"
REM DATE 1994
REM DISCID 7D0B060A
REM COMMENT "ExactAudioCopy v1.0b4"
PERFORMER "It"
TITLE "The Stranger Inside The Self"
FILE "It - The Stranger Inside The Self.flac" WAVE
TRACK 01 AUDIO
TITLE "The Stranger Inside The Self"
PERFORMER "It"
INDEX 01 00:00:00
TRACK 02 AUDIO
TITLE "I Won't Pray On Sunday"
PERFORMER "It"
INDEX 01 04:21:02
TRACK 03 AUDIO
TITLE "More"
PERFORMER "It"
INDEX 01 08:45:17
TRACK 04 AUDIO
TITLE "Waiting For The World"
PERFORMER "It"
INDEX 01 13:45:41
TRACK 05 AUDIO
TITLE "Until The Children Come Home"
PERFORMER "It"
INDEX 01 17:33:29
TRACK 06 AUDIO
TITLE "Something To Say"
PERFORMER "It"
INDEX 01 21:48:60
TRACK 07 AUDIO
TITLE "The Last Of November"
PERFORMER "It"
INDEX 01 26:04:10
TRACK 08 AUDIO
TITLE "To Have And To Hold"
PERFORMER "It"
INDEX 01 30:55:11
TRACK 09 AUDIO
TITLE "When We All Fall Down"
PERFORMER "It"
INDEX 01 35:51:35
TRACK 10 AUDIO
TITLE "Round And Round"
PERFORMER "It"
INDEX 01 40:25:65
DRM log
foobar2000 1.3.8 / Dynamic Range Meter 1.1.1
log date: 2017-06-08 21:46:29
--------------------------------------------------------------------------------
Analyzed: It / The Stranger Inside The Self
--------------------------------------------------------------------------------
DR Peak RMS Duration Track
--------------------------------------------------------------------------------
DR8 -0.03 dB -10.69 dB 4:21 01-The Stranger Inside The Self
DR7 -0.03 dB -9.07 dB 4:24 02-I Won't Pray On Sunday
DR11 -0.04 dB -13.25 dB 5:00 03-More
DR9 -0.02 dB -10.80 dB 3:48 04-Waiting For The World
DR9 -0.04 dB -12.13 dB 4:15 05-Until The Children Come Home
DR6 -0.03 dB -9.28 dB 4:15 06-Something To Say
DR10 -0.03 dB -12.34 dB 4:51 07-The Last Of November
DR9 -0.03 dB -12.34 dB 4:56 08-To Have And To Hold
DR8 -0.06 dB -11.88 dB 4:34 09-When We All Fall Down
DR8 -0.01 dB -10.99 dB 6:37 10-Round And Round
--------------------------------------------------------------------------------
Number of tracks: 10
Official DR value: DR9
Samplerate: 44100 Hz
Channels: 2
Bits per sample: 16
Bitrate: 946 kbps
Codec: FLAC
================================================================================
Accurate rip/CUEtools log
[CUETools log; Date: 27.06.2015 18:10:27; Version: 2.1.4]
[CTDB TOCID: LUBTWpshb8xZdCFkHcU0XEH5NbQ-] found.
Track | CTDB Status
1 | (1/1) Accurately ripped
2 | (1/1) Accurately ripped
3 | (1/1) Accurately ripped
4 | (1/1) Accurately ripped
5 | (1/1) Accurately ripped
6 | (1/1) Accurately ripped
7 | (1/1) Accurately ripped
8 | (1/1) Accurately ripped
9 | (1/1) Accurately ripped
10 | (1/1) Accurately ripped
[AccurateRip ID: 0010edf6-008829aa-7d0b060a] found.
Track [ CRC | V2 ] Status
01 [00dab042|18c99ae6] (0+2/2) Accurately ripped
02 [d031d7b9|8080e96e] (0+2/2) Accurately ripped
03 [15b34908|e05d5017] (0+2/2) Accurately ripped
04 [6ed3654a|b5891d26] (0+2/2) Accurately ripped
05 [14b78c9b|cd46f916] (0+2/2) Accurately ripped
06 [bb2d27a7|8e7c20e3] (0+2/2) Accurately ripped
07 [0ef32508|14b23f16] (0+2/2) Accurately ripped
08 [6faf1267|bc2306e4] (0+2/2) Accurately ripped
09 [18df64d6|2f6aed1a] (0+2/2) Accurately ripped
10 [fbd4a522|6fa0d9f2] (0+2/2) Accurately ripped
Track Peak [ CRC32 ] [W/O NULL] [ LOG ]
-- 99,8 [551E20C2] [43F09057] CRC32
01 99,6 [447334FA] [17E0F079]
02 99,6 [09C63738] [EBD6FFEB]
03 99,5 [4D31F578] [B3CD4235]
04 99,8 [B552075A] [384F003C]
05 99,6 [693A1D3C] [6BF1CDB9]
06 99,6 [E9305DB1] [7E3C23D2]
07 99,6 [9B200A45] [22974900]
08 99,6 [AA45C162] [A1CCE514]
09 99,3 [3F509B0A] [F1119785]
10 99,8 [97FD1416] [4E89E32E]
TAU data
1995 - Two worlds (CD 2004) [SP-CD-RE-002]
Трэклист:
1. Two Worlds (3:45)
2. Is There Anybody Out There? (4:35)
3. Once Upon A Time (5:46)
4. Turn On Time Off (6:01)
5. Lost Inside (6:16)
6. Manufacturing Consent (3:09)
7. Open Changes (3:43)
8. Soldier Of Misfortune (8:26)
9. When Our Two Worlds Collide (7:21)
Total Time: 49:01
Музыканты
Nick Jackson - Vocals and Guitar
Andy Jackson - Bass Guitar and Lead Guitar
James Johnson - Accoustic Guitar
Guest Musicians:
Desmond Lambert - Keyboards
Jane Jelinek - Backing Vocals
EAC log
Exact Audio Copy V1.0 beta 6 from 9. April 2015
EAC extraction logfile from 27. June 2015, 18:26
It / Two Worlds
Used drive : ASUS DRW-24B1LT Adapter: 1 ID: 2
Read mode : Secure
Utilize accurate stream : Yes
Defeat audio cache : Yes
Make use of C2 pointers : No
Read offset correction : 6
Overread into Lead-In and Lead-Out : No
Fill up missing offset samples with silence : Yes
Delete leading and trailing silent blocks : No
Null samples used in CRC calculations : Yes
Used interface : Native Win32 interface for Win NT & 2000
Used output format : User Defined Encoder
Selected bitrate : 1024 kBit/s
Quality : High
Add ID3 tag : Yes
Command line compressor : C:\Program Files (x86)\FLAC_1.3.1\win64\flac.exe
Additional command line options : -6 -V -T "ARTIST=%artist%" -T "TITLE=%title%" -T "ALBUM=%albumtitle%" -T "DATE=%year%" -T "TRACKNUMBER=%tracknr%" -T "GENRE=%genre%" -T "COMMENT=ripped by wurensh for rutracker.org" %source% -o %dest%
TOC of the extracted CD
Track | Start | Length | Start sector | End sector
---------------------------------------------------------
1 | 0:00.00 | 3:44.74 | 0 | 16873
2 | 3:44.74 | 4:34.51 | 16874 | 37474
3 | 8:19.50 | 5:46.07 | 37475 | 63431
4 | 14:05.57 | 6:00.39 | 63432 | 90470
5 | 20:06.21 | 6:15.62 | 90471 | 118657
6 | 26:22.08 | 3:08.43 | 118658 | 132800
7 | 29:30.51 | 3:43.27 | 132801 | 149552
8 | 33:14.03 | 8:25.60 | 149553 | 187487
9 | 41:39.63 | 7:21.32 | 187488 | 220594
Range status and errors
Selected range
Filename Y:\EAC\wurensh\It\It - Two Worlds.wav
Peak level 100.0 %
Extraction speed 8.8 X
Range quality 100.0 %
Test CRC 6AC6E63D
Copy CRC 6AC6E63D
Copy OK
No errors occurred
AccurateRip summary
Track 1 accurately ripped (confidence 1) [831029D5] (AR v2)
Track 2 accurately ripped (confidence 1) [581D67F9] (AR v2)
Track 3 accurately ripped (confidence 1) [C81B17C8] (AR v2)
Track 4 accurately ripped (confidence 1) [1B1EA197] (AR v2)
Track 5 accurately ripped (confidence 1) [7160B57A] (AR v2)
Track 6 accurately ripped (confidence 1) [84AB1B90] (AR v2)
Track 7 accurately ripped (confidence 1) [579FF2DD] (AR v2)
Track 8 accurately ripped (confidence 1) [AFB2085E] (AR v2)
Track 9 accurately ripped (confidence 1) [7DE3147E] (AR v2)
All tracks accurately ripped
End of status report
---- CUETools DB Plugin V2.1.6
[CTDB TOCID: 6.MQZSvi9IgmY7PmYBSjENc2C5M-] disk not present in database
Submit result: 6.MQZSvi9IgmY7PmYBSjENc2C5M- has been uploaded
==== Log checksum A516FE532D7D268F8E8ED3C92FE5B798CD7FA8C8A3C714E72B4F37CA587A3172 ====
CUE sheet
REM GENRE "Neo progressive"
REM DATE 1995
REM DISCID 740B7D09
REM COMMENT "ExactAudioCopy v1.0b6"
PERFORMER "It"
TITLE "Two Worlds"
FILE "It - Two Worlds.flac" WAVE
TRACK 01 AUDIO
TITLE "Two Worlds"
PERFORMER "It"
INDEX 01 00:00:00
TRACK 02 AUDIO
TITLE "Is There Anybody Out There?"
PERFORMER "It"
INDEX 01 03:44:74
TRACK 03 AUDIO
TITLE "Once Upon A Time"
PERFORMER "It"
INDEX 01 08:19:50
TRACK 04 AUDIO
TITLE "Turn On Time Off"
PERFORMER "It"
INDEX 01 14:05:57
TRACK 05 AUDIO
TITLE "Lost Inside"
PERFORMER "It"
INDEX 01 20:06:21
TRACK 06 AUDIO
TITLE "Manufacturing Consent"
PERFORMER "It"
INDEX 01 26:22:08
TRACK 07 AUDIO
TITLE "Open Changes"
PERFORMER "It"
INDEX 01 29:30:51
TRACK 08 AUDIO
TITLE "Soldier Of Misfortune"
PERFORMER "It"
INDEX 01 33:14:03
TRACK 09 AUDIO
TITLE "When Our Two Worlds Collide"
PERFORMER "It"
INDEX 01 41:39:63
DRM log
foobar2000 1.3.8 / Dynamic Range Meter 1.1.1
log date: 2017-06-08 21:45:18
--------------------------------------------------------------------------------
Analyzed: It / Two Worlds
--------------------------------------------------------------------------------
DR Peak RMS Duration Track
--------------------------------------------------------------------------------
DR10 -0.23 dB -13.92 dB 3:45 01-Two Worlds
DR7 -2.88 dB -12.15 dB 4:35 02-Is There Anybody Out There?
DR7 -0.85 dB -12.73 dB 5:46 03-Once Upon A Time
DR9 -0.19 dB -13.36 dB 6:01 04-Turn On Time Off
DR10 0.00 dB -11.60 dB 6:16 05-Lost Inside
DR8 0.00 dB -9.32 dB 3:09 06-Manufacturing Consent
DR10 0.00 dB -11.95 dB 3:43 07-Open Changes
DR8 -0.85 dB -10.57 dB 8:26 08-Soldier Of Misfortune
DR9 -0.38 dB -13.05 dB 7:21 09-When Our Two Worlds Collide
--------------------------------------------------------------------------------
Number of tracks: 9
Official DR value: DR9
Samplerate: 44100 Hz
Channels: 2
Bits per sample: 16
Bitrate: 925 kbps
Codec: FLAC
================================================================================
Accurate rip/CUEtools log
[CUETools log; Date: 27.06.2015 18:31:04; Version: 2.1.4]
[CTDB TOCID: 6.MQZSvi9IgmY7PmYBSjENc2C5M-] found.
Track | CTDB Status
1 | (1/1) Accurately ripped
2 | (1/1) Accurately ripped
3 | (1/1) Accurately ripped
4 | (1/1) Accurately ripped
5 | (1/1) Accurately ripped
6 | (1/1) Accurately ripped
7 | (1/1) Accurately ripped
8 | (1/1) Accurately ripped
9 | (1/1) Accurately ripped
[AccurateRip ID: 000f8603-0073b75a-740b7d09] found.
Track [ CRC | V2 ] Status
01 [01f623bd|831029d5] (1+1/2) Accurately ripped
02 [501e0c73|581d67f9] (1+1/2) Accurately ripped
03 [acf135a1|c81b17c8] (1+1/2) Accurately ripped
04 [84458a81|1b1ea197] (1+1/2) Accurately ripped
05 [bed6ee27|7160b57a] (1+1/2) Accurately ripped
06 [7b60757c|84ab1b90] (1+1/2) Accurately ripped
07 [c261d5e7|579ff2dd] (1+1/2) Accurately ripped
08 [2c47e761|afb2085e] (1+1/2) Accurately ripped
09 [1b5205a8|7de3147e] (0+1/2) Accurately ripped
Track Peak [ CRC32 ] [W/O NULL] [ LOG ]
-- 100,0 [6AC6E63D] [0C0B0BF1] CRC32
01 97,3 [B6F53427] [51108F1A]
02 71,7 [11A7ACFA] [4A2FAFC7]
03 90,6 [5ABCEDC7] [F90D78B6]
04 97,8 [9AA00516] [2E581F9B]
05 100,0 [DE4DCD19] [3BF126B0]
06 100,0 [4FB85C29] [1755ADD7]
07 100,0 [BF828C38] [AAB4EED7]
08 90,7 [0297CADA] [C5C83082]
09 95,7 [1D54369D] [D3D54779]
TAU data
2002 - Over And Out [SP-CD-001]
Трэклист:
1. Tuning In (4:46)
2. Good Morning America (8:20)
3. Hang On Tom (5:32)
4. Stay Tuned (3:41)
5. News Live (3:12)
6. Leaving The Planet (5:09)
7. Space Cadet Pt. 1 (3:14)
8. Space Cadet Pt. 2 (6:01)
9. Stranded (7:04)
10.Re-Entry (1:50)
11.Coming Home (4:11)
Total Time: 53:02
Музыканты
Nick Jackson - Vocals, Guitar and Keyboards
Andy Jackson - Bass Guitar and Lead Guitar
James Johnson - Accoustic Guitar
Damian Kenley - Drums
Guest Musicians:
Ollie Taylor - Drums
Desmond Lambert - Keyboards
Rupert Greenall - Keyboards
Pete Back - Saxophone
George Varos - Percussion
Backing Vocals by: Lara Mackie, Michelle April, Catherine Arthurs, Desmond Lambert, Jane Jelinek, Becky Jackson, Mike Winterburn.
EAC log
Exact Audio Copy V1.0 beta 6 from 9. April 2015
EAC extraction logfile from 27. June 2015, 18:46
It / Over & Out
Used drive : ASUS DRW-24B1LT Adapter: 1 ID: 2
Read mode : Secure
Utilize accurate stream : Yes
Defeat audio cache : Yes
Make use of C2 pointers : No
Read offset correction : 6
Overread into Lead-In and Lead-Out : No
Fill up missing offset samples with silence : Yes
Delete leading and trailing silent blocks : No
Null samples used in CRC calculations : Yes
Used interface : Native Win32 interface for Win NT & 2000
Used output format : User Defined Encoder
Selected bitrate : 1024 kBit/s
Quality : High
Add ID3 tag : Yes
Command line compressor : C:\Program Files (x86)\FLAC_1.3.1\win64\flac.exe
Additional command line options : -6 -V -T "ARTIST=%artist%" -T "TITLE=%title%" -T "ALBUM=%albumtitle%" -T "DATE=%year%" -T "TRACKNUMBER=%tracknr%" -T "GENRE=%genre%" -T "COMMENT=ripped by wurensh for rutracker.org" %source% -o %dest%
TOC of the extracted CD
Track | Start | Length | Start sector | End sector
---------------------------------------------------------
1 | 0:00.00 | 4:46.35 | 0 | 21484
2 | 4:46.35 | 8:20.21 | 21485 | 59005
3 | 13:06.56 | 5:32.37 | 59006 | 83942
4 | 18:39.18 | 3:41.07 | 83943 | 100524
5 | 22:20.25 | 3:12.00 | 100525 | 114924
6 | 25:32.25 | 5:09.31 | 114925 | 138130
7 | 30:41.56 | 3:13.58 | 138131 | 152663
8 | 33:55.39 | 6:00.74 | 152664 | 179737
9 | 39:56.38 | 7:04.12 | 179738 | 211549
10 | 47:00.50 | 1:49.61 | 211550 | 219785
11 | 48:50.36 | 4:11.27 | 219786 | 238637
Range status and errors
Selected range
Filename Y:\EAC\wurensh\It\It - Over & Out.wav
Peak level 100.0 %
Extraction speed 8.1 X
Range quality 99.9 %
Test CRC 5D5A2424
Copy CRC 5D5A2424
Copy OK
No errors occurred
AccurateRip summary
Track 1 accurately ripped (confidence 2) [C2C3D5D5] (AR v2)
Track 2 accurately ripped (confidence 2) [E8E1595D] (AR v2)
Track 3 accurately ripped (confidence 2) [DB9678AA] (AR v2)
Track 4 accurately ripped (confidence 2) [A4A6977F] (AR v2)
Track 5 accurately ripped (confidence 2) [1B0F2E10] (AR v2)
Track 6 accurately ripped (confidence 2) [B874C26B] (AR v2)
Track 7 accurately ripped (confidence 2) [B5561DD8] (AR v2)
Track 8 accurately ripped (confidence 2) [E36BC02E] (AR v2)
Track 9 accurately ripped (confidence 2) [6F3C831B] (AR v2)
Track 10 accurately ripped (confidence 2) [F5B39154] (AR v2)
Track 11 accurately ripped (confidence 2) [EA1BFD93] (AR v2)
All tracks accurately ripped
End of status report
---- CUETools DB Plugin V2.1.6
[CTDB TOCID: bUE5NorXvODF6wm9JxNXXg7TKrw-] found
Submit result: bUE5NorXvODF6wm9JxNXXg7TKrw- has been confirmed
Track | CTDB Status
1 | (1/1) Accurately ripped
2 | (1/1) Accurately ripped
3 | (1/1) Accurately ripped
4 | (1/1) Accurately ripped
5 | (1/1) Accurately ripped
6 | (1/1) Accurately ripped
7 | (1/1) Accurately ripped
8 | (1/1) Accurately ripped
9 | (1/1) Accurately ripped
10 | (1/1) Accurately ripped
11 | (1/1) Accurately ripped
==== Log checksum B0E4C22D5C525722DD7BEB3AF4DD3A8795F6AAE336718A20755F15E8B8C23C51 ====
CUE sheet
REM GENRE "Progressive Rock"
REM DATE 2002
REM DISCID 970C6D0B
REM COMMENT "ExactAudioCopy v1.0b6"
PERFORMER "It"
TITLE "Over & Out"
FILE "It - Over & Out.flac" WAVE
TRACK 01 AUDIO
TITLE "Tuning in"
PERFORMER "It"
INDEX 01 00:00:00
TRACK 02 AUDIO
TITLE "Good Morning America"
PERFORMER "It"
INDEX 01 04:46:35
TRACK 03 AUDIO
TITLE "Hang on Tom"
PERFORMER "It"
INDEX 01 13:06:56
TRACK 04 AUDIO
TITLE "Stay tuned"
PERFORMER "It"
INDEX 01 18:39:18
TRACK 05 AUDIO
TITLE "News live"
PERFORMER "It"
INDEX 01 22:20:25
TRACK 06 AUDIO
TITLE "Leaving the planet"
PERFORMER "It"
INDEX 01 25:32:25
TRACK 07 AUDIO
TITLE "Space cadet pt. 1"
PERFORMER "It"
INDEX 01 30:41:56
TRACK 08 AUDIO
TITLE "Space cadet pt. 2"
PERFORMER "It"
INDEX 01 33:55:39
TRACK 09 AUDIO
TITLE "Stranded"
PERFORMER "It"
INDEX 01 39:56:38
TRACK 10 AUDIO
TITLE "Re-entry"
PERFORMER "It"
INDEX 01 47:00:50
TRACK 11 AUDIO
TITLE "Coming Home"
PERFORMER "It"
INDEX 01 48:50:36
DRM log
foobar2000 1.3.8 / Dynamic Range Meter 1.1.1
log date: 2017-06-08 21:47:31
--------------------------------------------------------------------------------
Analyzed: It / Over & Out
--------------------------------------------------------------------------------
DR Peak RMS Duration Track
--------------------------------------------------------------------------------
DR11 -0.07 dB -14.55 dB 4:46 01-Tuning in
DR9 0.00 dB -12.39 dB 8:20 02-Good Morning America
DR12 0.00 dB -14.04 dB 5:32 03-Hang on Tom
DR7 0.00 dB -9.48 dB 3:41 04-Stay tuned
DR21 -3.10 dB -30.22 dB 3:12 05-News live
DR13 -0.04 dB -16.27 dB 5:09 06-Leaving the planet
DR10 0.00 dB -11.76 dB 3:14 07-Space cadet pt. 1
DR11 0.00 dB -13.88 dB 6:01 08-Space cadet pt. 2
DR12 0.00 dB -15.12 dB 7:04 09-Stranded
DR7 -5.87 dB -14.86 dB 1:50 10-Re-entry
DR12 0.00 dB -15.47 dB 4:11 11-Coming Home
--------------------------------------------------------------------------------
Number of tracks: 11
Official DR value: DR11
Samplerate: 44100 Hz
Channels: 2
Bits per sample: 16
Bitrate: 822 kbps
Codec: FLAC
================================================================================
Accurate rip/CUEtools log
[CUETools log; Date: 27.06.2015 18:47:04; Version: 2.1.4]
[CTDB TOCID: bUE5NorXvODF6wm9JxNXXg7TKrw-] found.
Track | CTDB Status
1 | (2/2) Accurately ripped
2 | (2/2) Accurately ripped
3 | (2/2) Accurately ripped
4 | (2/2) Accurately ripped
5 | (2/2) Accurately ripped
6 | (2/2) Accurately ripped
7 | (2/2) Accurately ripped
8 | (2/2) Accurately ripped
9 | (2/2) Accurately ripped
10 | (2/2) Accurately ripped
11 | (2/2) Accurately ripped
[AccurateRip ID: 00173307-00c59c51-970c6d0b] found.
Track [ CRC | V2 ] Status
01 [9522d790|c2c3d5d5] (2+2/4) Accurately ripped
02 [f6e2ab1c|e8e1595d] (2+2/4) Accurately ripped
03 [12654e65|db9678aa] (2+2/4) Accurately ripped
04 [da60f34b|a4a6977f] (2+2/4) Accurately ripped
05 [1308835d|1b0f2e10] (2+2/4) Accurately ripped
06 [2a6a00ac|b874c26b] (2+2/4) Accurately ripped
07 [3bef2c43|b5561dd8] (2+2/4) Accurately ripped
08 [1252e8d6|e36bc02e] (2+2/4) Accurately ripped
09 [fdabc13b|6f3c831b] (2+2/4) Accurately ripped
10 [2c9296a1|f5b39154] (2+2/4) Accurately ripped
11 [56f712d8|ea1bfd93] (2+2/4) Accurately ripped
Track Peak [ CRC32 ] [W/O NULL] [ LOG ]
-- 100,0 [5D5A2424] [38BE6DF9] CRC32
01 99,2 [5984EAD2] [60BF29C6]
02 100,0 [1DAF26F1] [14F717C5]
03 100,0 [3F871FE4] [476BBFF2]
04 100,0 [4A80DC71] [267739EF]
05 70,0 [C2FA9E32] [FB0ACDBD]
06 99,5 [0701F925] [464EA752]
07 100,0 [215BB92B] [E0C97F84]
08 99,9 [BC2A78BD] [D6B6DDA1]
09 100,0 [FB4FCE8A] [43CAF8E2]
10 51,1 [828B3081] [1D761C36]
11 100,0 [ED8310A4] [BE7892EA]
TAU data
2009 - Departure (CD+DVD) [SVRCD10]
Трэклист:
1. God is Dead (3:25)
2. Departure (4:19)
3. Killing Me (3:44)
4. Car Crash (4:41)
5. Fighting For Freedom (6:12)
6. Burn Part 1 (3:39)
7. Burn Part 2 (3:16)
8. Safe (5:07)
9. Standback Part 1 (3:54)
10.Standback Part 2 (2:26)
11.Disappear (5:59)
Total Time: 47:03
Музыканты
Nick Jackson - Vocals, Guitar, Bass and Keyboards
Andy Rowberry - Lead Guitar
Rob Archibald - Keyboards
James Dunn - Bass Guitar
Alex Inglis - Drums
Guest Musicians:
Craig West - Bass on "God Is Dead", end guitar solo on "Fighting For Freedom"
Andy Jackson - Guitar solo on "God Is Dead" and "Disappear"
Matt Connors - Preacher on "God Is Dead"
Ben Piner - Drums on "Departure", "Burn", "Safe"
Gavin Lambert - Bass on "Fighting For Freedom"
Al Wood - Harmonica on "Fighting For Freedom"
Lindsay Pugh - Pedal Stell on "Burn"
Rupert Greenall - Banjo on "Burn"
Ed Young - Percussion on "Standback"
Backing Vocals by: Reyhan Yusuf, Shernette May, Craig West, Ed Young, Ryan Brunton, Desmond Lambert, Rupert and William Greenall, and Cy Curnin.
Trauma EP Musicians:
Nick Jackson - Vocals, Guitar, Keyboards
Craig West - Bass, Guitar, Lead Vocals on "Time and Place" and "Taking On Sand"
Rupert Greenall - Keyboards
Andy Jackson - Bass and Guitar
Ed Young - Drums
Andy Rowberry - Guitars
Rob Archibald - Keyboards
Bryan Belleau - Guitar on "Underfire"
EAC log
Exact Audio Copy V1.0 beta 4 from 7. December 2014
EAC extraction logfile from 25. January 2015, 13:40
It / Departure
Used drive : ASUS DRW-24B1LT Adapter: 1 ID: 2
Read mode : Secure
Utilize accurate stream : Yes
Defeat audio cache : Yes
Make use of C2 pointers : No
Read offset correction : 6
Overread into Lead-In and Lead-Out : No
Fill up missing offset samples with silence : Yes
Delete leading and trailing silent blocks : No
Null samples used in CRC calculations : Yes
Used interface : Native Win32 interface for Win NT & 2000
Used output format : User Defined Encoder
Selected bitrate : 1024 kBit/s
Quality : High
Add ID3 tag : Yes
Command line compressor : C:\Program Files (x86)\FLAC_1.3.1\win64\flac.exe
Additional command line options : -6 -V -T "ARTIST=%artist%" -T "TITLE=%title%" -T "ALBUM=%albumtitle%" -T "DATE=%year%" -T "TRACKNUMBER=%tracknr%" -T "GENRE=%genre%" -T "COMMENT=%comment%" %source% -o %dest%
TOC of the extracted CD
Track | Start | Length | Start sector | End sector
---------------------------------------------------------
1 | 0:00.00 | 3:25.01 | 0 | 15375
2 | 3:25.01 | 4:18.42 | 15376 | 34767
3 | 7:43.43 | 3:43.61 | 34768 | 51553
4 | 11:27.29 | 4:40.71 | 51554 | 72624
5 | 16:08.25 | 6:12.29 | 72625 | 100553
6 | 22:20.54 | 3:38.53 | 100554 | 116956
7 | 25:59.32 | 3:16.06 | 116957 | 131662
8 | 29:15.38 | 5:07.16 | 131663 | 154703
9 | 34:22.54 | 3:53.50 | 154704 | 172228
10 | 38:16.29 | 2:26.03 | 172229 | 183181
11 | 40:42.32 | 5:58.47 | 183182 | 210078
Range status and errors
Selected range
Filename Y:\EAC\wurensh\It\It - Departure.wav
Peak level 99.8 %
Extraction speed 7.8 X
Range quality 100.0 %
Test CRC F6B6F85E
Copy CRC F6B6F85E
Copy OK
No errors occurred
AccurateRip summary
Track 1 accurately ripped (confidence 1) [5C6895E2] (AR v2)
Track 2 accurately ripped (confidence 1) [0EBCB0AA] (AR v2)
Track 3 accurately ripped (confidence 1) [F4B6E667] (AR v2)
Track 4 accurately ripped (confidence 1) [5F5CEC83] (AR v2)
Track 5 accurately ripped (confidence 1) [813A9679] (AR v2)
Track 6 accurately ripped (confidence 1) [10AE1F85] (AR v2)
Track 7 accurately ripped (confidence 1) [BC97681F] (AR v2)
Track 8 accurately ripped (confidence 1) [94ECB8D0] (AR v2)
Track 9 accurately ripped (confidence 1) [4C3209F0] (AR v2)
Track 10 accurately ripped (confidence 1) [878AF3A7] (AR v2)
Track 11 accurately ripped (confidence 1) [0FD74F4B] (AR v2)
All tracks accurately ripped
End of status report
---- CUETools DB Plugin V2.1.4
[CTDB TOCID: gdUB5s88DuZwSKJn1cjWEhmY9jM-] disk not present in database
Submit result: gdUB5s88DuZwSKJn1cjWEhmY9jM- has been uploaded
==== Log checksum 758375D6305D6FB645C3707766F90464CB2EB9DEED88F26AFD0E7F3F44295B9A ====
CUE sheet
REM GENRE "Neo Progressive"
REM DATE 2009
REM DISCID 9B0AF10B
REM COMMENT "ExactAudioCopy v1.0b4"
PERFORMER "It"
TITLE "Departure"
FILE "It - Departure.flac" WAVE
TRACK 01 AUDIO
TITLE "God is Dead"
PERFORMER "It"
INDEX 01 00:00:00
TRACK 02 AUDIO
TITLE "Departure"
PERFORMER "It"
INDEX 01 03:25:01
TRACK 03 AUDIO
TITLE "Killing Me"
PERFORMER "It"
INDEX 01 07:43:43
TRACK 04 AUDIO
TITLE "Car Crash"
PERFORMER "It"
INDEX 01 11:27:29
TRACK 05 AUDIO
TITLE "Fighting For Freedom"
PERFORMER "It"
INDEX 01 16:08:25
TRACK 06 AUDIO
TITLE "Burn Pt.1"
PERFORMER "It"
INDEX 01 22:20:54
TRACK 07 AUDIO
TITLE "Burn Pt.2"
PERFORMER "It"
INDEX 01 25:59:32
TRACK 08 AUDIO
TITLE "Safe"
PERFORMER "It"
INDEX 01 29:15:38
TRACK 09 AUDIO
TITLE "Standback Pt.1"
PERFORMER "It"
INDEX 01 34:22:54
TRACK 10 AUDIO
TITLE "Standback Pt.2"
PERFORMER "It"
INDEX 01 38:16:29
TRACK 11 AUDIO
TITLE "Disappear"
PERFORMER "It"
INDEX 01 40:42:32
DRM log
foobar2000 1.3.8 / Dynamic Range Meter 1.1.1
log date: 2017-06-08 21:48:48
--------------------------------------------------------------------------------
Analyzed: It / Departure
--------------------------------------------------------------------------------
DR Peak RMS Duration Track
--------------------------------------------------------------------------------
DR8 -0.01 dB -9.38 dB 3:25 01-God is Dead
DR8 -0.01 dB -9.41 dB 4:19 02-Departure
DR7 -0.01 dB -8.58 dB 3:44 03-Killing Me
DR9 -0.01 dB -10.07 dB 4:41 04-Car Crash
DR7 -0.01 dB -10.57 dB 6:12 05-Fighting For Freedom
DR6 -0.01 dB -7.91 dB 3:39 06-Burn Pt.1
DR7 -0.01 dB -9.50 dB 3:16 07-Burn Pt.2
DR7 -0.01 dB -9.16 dB 5:07 08-Safe
DR10 -0.01 dB -10.64 dB 3:54 09-Standback Pt.1
DR9 -0.01 dB -10.86 dB 2:26 10-Standback Pt.2
DR9 -0.01 dB -10.67 dB 5:59 11-Disappear
--------------------------------------------------------------------------------
Number of tracks: 11
Official DR value: DR8
Samplerate: 44100 Hz
Channels: 2
Bits per sample: 16
Bitrate: 957 kbps
Codec: FLAC
================================================================================
Accurate rip/CUEtools log
[CUETools log; Date: 27.06.2015 18:09:32; Version: 2.1.4]
[CTDB TOCID: gdUB5s88DuZwSKJn1cjWEhmY9jM-] found.
Track | CTDB Status
1 | (1/1) Accurately ripped
2 | (1/1) Accurately ripped
3 | (1/1) Accurately ripped
4 | (1/1) Accurately ripped
5 | (1/1) Accurately ripped
6 | (1/1) Accurately ripped
7 | (1/1) Accurately ripped
8 | (1/1) Accurately ripped
9 | (1/1) Accurately ripped
10 | (1/1) Accurately ripped
11 | (1/1) Accurately ripped
[AccurateRip ID: 0012fa2b-00a541dd-9b0af10b] found.
Track [ CRC | V2 ] Status
01 [23f4a39d|5c6895e2] (0+2/2) Accurately ripped
02 [5fa7672c|0ebcb0aa] (0+2/2) Accurately ripped
03 [2a5afbc8|f4b6e667] (0+2/2) Accurately ripped
04 [90aebf85|5f5cec83] (0+2/2) Accurately ripped
05 [bd5a503d|813a9679] (0+2/2) Accurately ripped
06 [efcc9493|10ae1f85] (0+2/2) Accurately ripped
07 [e79fcf0b|bc97681f] (0+2/2) Accurately ripped
08 [88df845a|94ecb8d0] (0+2/2) Accurately ripped
09 [2fd07a88|4c3209f0] (0+2/2) Accurately ripped
10 [0ea2815f|878af3a7] (0+2/2) Accurately ripped
11 [b94b038b|0fd74f4b] (0+2/2) Accurately ripped
Track Peak [ CRC32 ] [W/O NULL] [ LOG ]
-- 99,8 [F6B6F85E] [9656BD2F] CRC32
01 99,8 [6C6632F7] [2D53F940]
02 99,8 [B9DCCFEC] [B84152E0]
03 99,8 [DE8C7C84] [06894B6B]
04 99,8 [B827BF4B] [E49DF1E4]
05 99,8 [095225B1] [5DEFFB43]
06 99,8 [FF7B6549] [CB98E37D]
07 99,8 [64E4F1B4] [AE18E0F5]
08 99,8 [011EF730] [8F4EBBFE]
09 99,8 [991C67C7] [21BCD2E2]
10 99,8 [CFFDEC28] [35C42C10]
11 99,8 [4876C771] [C25DF9BF]
TAU data
2017 - We’re All In This Together (Cardboard sleeve) [PGR-CD0002]
Трэклист:
1. Power (5:30)
2. Born Into Debt (2:47)
3. The Working Man (4:13)
4. Last Chance (5:52)
5. Gamble The Dream (4:10)
6. Voices (5:22)
7. The Path Of Least Resistance (11:49)
8. House (5:39)
9. Down The Hatch (5:44)
10. Revolution (5:52)
Total time: 56:58
Музыканты
- Nick Jackson / lead vocals, electric & acoustic guitars, keyboards, synth, samples, percussion, co-producer & mixing
- Andy Rowberry / guitar, keyboards, backing vocals, co-producer
- Ryan McCaffrey / sax (1,6), piano (3,7,8), organ (5,6,10), Fender Rhodes (7)
- James Hawkins / bass, bass synth (2)
- Will Chism / drums
With:
- Paul Waller / lap steel guitar (4)
- Rupert Greenall / PPG synth (1,3,8), organ & strings (3)
- Rob Archibald / organ (9)
- Alex Fletcher / trumpet (6)
- Henry Bennett / backing vocals (1,6,8,9)
- Jessica Clemmons / backing vocals (1,3-10)
- Reyhan Yusuf / backing vocals (1,3-10)
- Gavin Lambert / backing vocals (3,4,10)
- George Galloway / speech (6)
EAC log
Exact Audio Copy V1.3 from 2. September 2016
EAC extraction logfile from 8. June 2017, 21:23
It / We’re All In This Together
Used drive : ASUS DRW-24B1LT Adapter: 1 ID: 2
Read mode : Secure
Utilize accurate stream : Yes
Defeat audio cache : Yes
Make use of C2 pointers : No
Read offset correction : 6
Overread into Lead-In and Lead-Out : No
Fill up missing offset samples with silence : Yes
Delete leading and trailing silent blocks : No
Null samples used in CRC calculations : Yes
Used interface : Native Win32 interface for Win NT & 2000
Used output format : User Defined Encoder
Selected bitrate : 1024 kBit/s
Quality : High
Add ID3 tag : Yes
Command line compressor : C:\Program Files (x86)\FLAC_1.3.2\win64\flac.exe
Additional command line options : -6 -V -T "ARTIST=%artist%" -T "TITLE=%title%" -T "ALBUM=%albumtitle%" -T "DATE=%year%" -T "TRACKNUMBER=%tracknr%" -T "GENRE=%genre%" -T "COMMENT=ripped by wurensh for rutracker.org" %source% -o %dest%
TOC of the extracted CD
Track | Start | Length | Start sector | End sector
---------------------------------------------------------
1 | 0:00.00 | 5:30.33 | 0 | 24782
2 | 5:30.33 | 2:47.14 | 24783 | 37321
3 | 8:17.47 | 4:13.03 | 37322 | 56299
4 | 12:30.50 | 5:52.32 | 56300 | 82731
5 | 18:23.07 | 4:10.31 | 82732 | 101512
6 | 22:33.38 | 5:22.11 | 101513 | 125673
7 | 27:55.49 | 11:48.61 | 125674 | 178834
8 | 39:44.35 | 5:39.13 | 178835 | 204272
9 | 45:23.48 | 5:43.40 | 204273 | 230037
10 | 51:07.13 | 5:52.19 | 230038 | 256456
Range status and errors
Selected range
Filename Y:\EAC\wurensh\It\It - We’re All In This Together.wav
Peak level 100.0 %
Extraction speed 8.4 X
Range quality 100.0 %
Test CRC E36BD189
Copy CRC E36BD189
Copy OK
No errors occurred
AccurateRip summary
Track 1 not present in database
Track 2 not present in database
Track 3 not present in database
Track 4 not present in database
Track 5 not present in database
Track 6 not present in database
Track 7 not present in database
Track 8 not present in database
Track 9 not present in database
Track 10 not present in database
None of the tracks are present in the AccurateRip database
End of status report
---- CUETools DB Plugin V2.1.6
[CTDB TOCID: FKYizmQU3V9ar5_TCcfFf42C27E-] found
Submit result: FKYizmQU3V9ar5_TCcfFf42C27E- has been confirmed
Track | CTDB Status
1 | (1/1) Accurately ripped
2 | (1/1) Accurately ripped
3 | (1/1) Accurately ripped
4 | (1/1) Accurately ripped
5 | (1/1) Accurately ripped
6 | (1/1) Accurately ripped
7 | (1/1) Accurately ripped
8 | (1/1) Accurately ripped
9 | (1/1) Accurately ripped
10 | (1/1) Accurately ripped
==== Log checksum 48806351545C71CB12A54681D289E75BB2575A0B5DBE25B249386A0780B48592 ====
CUE sheet
REM GENRE "Neo Progressive"
REM DATE 2017
REM DISCID 8D0D5B0A
REM COMMENT "ExactAudioCopy v1.3"
CATALOG 0611677963545
PERFORMER "It"
TITLE "We’re All In This Together"
REM COMPOSER "Lossless Group release"
FILE "It - We’re All In This Together.flac" WAVE
TRACK 01 AUDIO
TITLE "Power"
PERFORMER "It"
REM COMPOSER "Lossless Group release"
INDEX 01 00:00:00
TRACK 02 AUDIO
TITLE "Born into Debt"
PERFORMER "It"
REM COMPOSER "Lossless Group release"
INDEX 01 05:30:33
TRACK 03 AUDIO
TITLE "The Working Man"
PERFORMER "It"
REM COMPOSER "Lossless Group release"
INDEX 01 08:17:47
TRACK 04 AUDIO
TITLE "Last Chance"
PERFORMER "It"
REM COMPOSER "Lossless Group release"
INDEX 01 12:30:50
TRACK 05 AUDIO
TITLE "Gamble the Dream"
PERFORMER "It"
REM COMPOSER "Lossless Group release"
INDEX 01 18:23:07
TRACK 06 AUDIO
TITLE "Voices"
PERFORMER "It"
REM COMPOSER "Lossless Group release"
INDEX 01 22:33:38
TRACK 07 AUDIO
TITLE "The Path of Least Resistance"
PERFORMER "It"
REM COMPOSER "Lossless Group release"
INDEX 01 27:55:49
TRACK 08 AUDIO
TITLE "House"
PERFORMER "It"
REM COMPOSER "Lossless Group release"
INDEX 01 39:44:35
TRACK 09 AUDIO
TITLE "Down the Hatch"
PERFORMER "It"
REM COMPOSER "Lossless Group release"
INDEX 01 45:23:48
TRACK 10 AUDIO
TITLE "Revolution"
PERFORMER "It"
REM COMPOSER "Lossless Group release"
INDEX 01 51:07:13
DRM log
foobar2000 1.3.8 / Dynamic Range Meter 1.1.1
log date: 2017-06-08 21:25:22
--------------------------------------------------------------------------------
Analyzed: It / We’re All In This Together
--------------------------------------------------------------------------------
DR Peak RMS Duration Track
--------------------------------------------------------------------------------
DR7 -0.27 dB -8.82 dB 5:30 01-Power
DR6 0.00 dB -7.74 dB 2:47 02-Born into Debt
DR7 0.00 dB -8.49 dB 4:13 03-The Working Man
DR6 0.00 dB -7.74 dB 5:52 04-Last Chance
DR8 0.00 dB -8.27 dB 4:10 05-Gamble the Dream
DR7 0.00 dB -8.89 dB 5:22 06-Voices
DR7 0.00 dB -9.71 dB 11:49 07-The Path of Least Resistance
DR6 0.00 dB -8.95 dB 5:39 08-House
DR6 0.00 dB -7.95 dB 5:44 09-Down the Hatch
DR7 0.00 dB -9.02 dB 5:52 10-Revolution
--------------------------------------------------------------------------------
Number of tracks: 10
Official DR value: DR7
Samplerate: 44100 Hz
Channels: 2
Bits per sample: 16
Bitrate: 935 kbps
Codec: FLAC
================================================================================
Accurate rip/CUEtools log
[CUETools log; Date: 08.06.2017 21:30:46; Version: 2.1.5]
[CTDB TOCID: FKYizmQU3V9ar5_TCcfFf42C27E-] found.
Track | CTDB Status
1 | (2/2) Accurately ripped
2 | (2/2) Accurately ripped
3 | (2/2) Accurately ripped
4 | (2/2) Accurately ripped
5 | (2/2) Accurately ripped
6 | (2/2) Accurately ripped
7 | (2/2) Accurately ripped
8 | (2/2) Accurately ripped
9 | (2/2) Accurately ripped
10 | (2/2) Accurately ripped
[AccurateRip ID: 0013ce07-00a2f5b5-8d0d5b0a] disk not present in database.
Track Peak [ CRC32 ] [W/O NULL] [ LOG ]
-- 100,0 [E36BD189] [B475C638] CRC32
01 96,9 [CA441DEB] [3082693D]
02 100,0 [97ED49F6] [ED1693CF]
03 100,0 [747D19B2] [2E38B323]
04 100,0 [B73191C3] [E79C133B]
05 100,0 [8297151E] [A608C524]
06 100,0 [D7F405D1] [F0C3640E]
07 100,0 [707A4424] [9829E55D]
08 100,0 [E72682CE] [A8F37D55]
09 100,0 [FC14A7A2] [693D4534]
10 100,0 [9019C3DC] [DDA58312]
TAU data
Progarchives info
Коврики 300dpi в комплекте для каждого альбома.
Download
Сайт не распространяет и не хранит электронные версии произведений, а лишь предоставляет доступ к создаваемому пользователями каталогу ссылок на торрент-файлы, которые содержат только списки хеш-сумм
Как скачивать? (для скачивания .torrent файлов необходима регистрация)
[Профиль]  [ЛС] 

neTyxoBo

Стаж: 10 лет 1 месяц

Сообщений: 947

neTyxoBo · 27-Июн-15 20:47 (спустя 37 мин.)

wurensh
Спасибо за дискографию!
It - хорошая команда, слышал и знаю, а вот Medea как то не припомню и с удовольствием ознакомлюсь, Netherlands - е группы редко разочаровывали! Ещё раз БОЛЬШОЕ СПАСИБО за Ваши труды!!!
[Профиль]  [ЛС] 

mark092

Стаж: 9 лет 2 месяца

Сообщений: 57

mark092 · 03-Июл-15 19:28 (спустя 5 дней, ред. 03-Июл-15 19:28)

Спасибо wurensh !!!
Отличная группа !!!
Альбом - 2002 - Over And Out - лучший ...
[Профиль]  [ЛС] 

vallaad

Стаж: 5 лет 9 месяцев

Сообщений: 31

vallaad · 14-Июл-15 11:55 (спустя 10 дней)

Отлично, спасибо за дискографию!
[Профиль]  [ЛС] 

DanFi

Стаж: 12 лет

Сообщений: 347

DanFi · 06-Янв-16 14:13 (спустя 5 месяцев 23 дня)

Отличная команда! Спасибо.
[Профиль]  [ЛС] 

VOSC

Стаж: 9 лет 8 месяцев

Сообщений: 47


VOSC · 02-Фев-16 16:32 (спустя 27 дней, ред. 02-Фев-16 16:32)

Цитата:
Альбом - 2002 - Over And Out - лучший ...
Альбом сочинен явно под впечатлением от Radio KAOS (в хорошем смысле)
[Профиль]  [ЛС] 

dhyanesh

Стаж: 9 лет 2 месяца

Сообщений: 22

dhyanesh · 15-Июн-16 02:21 (спустя 4 месяца 12 дней)

VOSC писал(а):
69913196
Цитата:
Альбом - 2002 - Over And Out - лучший ...
Альбом сочинен явно под впечатлением от Radio KAOS (в хорошем смысле)
Тоже залип на этом альбоме.Впервые среди современных прог групп услышал что-то настолько похожее на флойд.
[Профиль]  [ЛС] 

litraett

Стаж: 6 лет 2 месяца

Сообщений: 50


litraett · 16-Июн-16 23:21 (спустя 1 день 20 часов)

В сканах на 2009 отсутствует скан наружней стороны tray - внутрений есть, а внешнего нэт ... абыдно...
[Профиль]  [ЛС] 

wurensh

Moderator

Стаж: 9 лет 7 месяцев

Сообщений: 6223

wurensh · 08-Июл-16 12:09 (спустя 21 день, ред. 08-Июл-16 12:09)

Проверил. Действительно. Я его просто, почему-то, забыл отсканить.

8 июля 2016 г. в раздачу добавлен недостающий скан задника альбома 2009 года.

Заинтересованным лицам предлагается скачать новый торрент-файл и продолжить раздачу, сделав re-check содержимого.
[Профиль]  [ЛС] 

lazulli1

Стаж: 5 лет 1 месяц

Сообщений: 1394

lazulli1 · 08-Июл-16 12:32 (спустя 22 мин.)

Super Thank You Dear Friend Wurensh
[Профиль]  [ЛС] 

wurensh

Moderator

Стаж: 9 лет 7 месяцев

Сообщений: 6223

wurensh · 09-Дек-16 13:43 (спустя 5 месяцев 1 день)

Как известно, группа записала новый альбом, который готовится к выходу в конце февраля 2017 года.
IT - We're All In This Together
Label: Progressive Gears

Release date: February 24, 2017
Tracklist:
01 Power
02 Born Into Debt
03 The Working Man
04 Last Chance
05 Gamble The Dream
06 Voices
07 The Path of Least Resistance
08 House
09 Down The Hatch
10 Revolution

Line-up
:
Nick Jackson - Vocals, Guitar
Andy Rowberry - Guitar
Will Chism - Drums
James Hawkins - Bass
Ryan McCaffrey - Keyboards
[Профиль]  [ЛС] 

Шибкий мужик

Стаж: 7 лет 6 месяцев

Сообщений: 1445

Шибкий мужик · 21-Дек-16 20:48 (спустя 12 дней)

wurensh писал(а):
71993305Как известно, группа записала новый альбом, который готовится к выходу в конце февраля 2017 года.
Revolution
[Профиль]  [ЛС] 

lazulli1

Стаж: 5 лет 1 месяц

Сообщений: 1394

lazulli1 · 19-Янв-17 05:34 (спустя 28 дней)

Yes We know dearest Wurensh ... will be super album
Marek
[Профиль]  [ЛС] 

CynepBupyC

Стаж: 8 лет 8 месяцев

Сообщений: 862


CynepBupyC · 11-Мар-17 17:28 (спустя 1 месяц 23 дня)

Вадик,спасибо! Я эту раздачу и не видел.
[Профиль]  [ЛС] 

wurensh

Moderator

Стаж: 9 лет 7 месяцев

Сообщений: 6223

wurensh · 08-Июн-17 22:10 (спустя 2 месяца 28 дней)

Раздача обновлена 8 июня 2017 г.
Добавлен новый альбом We’re All In This Together, изменены названия папок, добавлены логи замера динамического диапазона для каждого рипа.
[Профиль]  [ЛС] 

ArcticStan

Стаж: 8 лет 8 месяцев

Сообщений: 2321

ArcticStan · 06-Дек-18 00:21 (спустя 1 год 5 месяцев, ред. 06-Дек-18 00:21)

neTyxoBo писал(а):
68145428Netherlands - е группы редко разочаровывали!
Тоже очень люблю голландскую музыку, поэтому я бы даже и категоричнее выразился: они (нидерландские команды) вообще никогда не разочаровывали.
За исключением откровенно коммерческих проектов (хотя и коммерческие проекты тоже разные бывают), но их в любой стране как грязи.
Нидерланды всегда были и есть "проговой" страной. И да поможет нам Тийс Ван Леер!
[Профиль]  [ЛС] 

вячеслав 12071969

Стаж: 7 лет 2 месяца

Сообщений: 258

вячеслав 12071969 · 13-Июл-19 13:30 (спустя 7 месяцев, ред. 13-Июл-19 13:30)

Благодарствую! Случайно забрёл и похоже не зря.
[Профиль]  [ЛС] 
 
Ответить
Loading...
Error