XX съезд. Годовщина (Николай Сванидзе) [2016, Документальное кино, HDTV 1080i]

Страницы:  1

Ответить
Автор
Сообщение

Scorpman

VIP (Заслуженный)

Стаж: 10 лет 3 месяца

Сообщений: 3231

Scorpman · 26-Фев-16 07:31 (1 год 9 месяцев назад, ред. 26-Фев-16 16:16)

XX съезд. Годовщина
Дата/Год выпуска: 2016
Страна: Россия
Жанр: Документальное кино
Продолжительность: 00:52:08
Перевод: Не требуется
Русские субтитры: нет
Режиссер: Николай Сванидзе
Описание: Что происходит со страной после ухода диктатора? Почему у населения запроса на десталинизацию нет, а у власти он есть? Как ведет себя политическая верхушка после смерти тирана? Личная, субъективная мотивация Хрущева и объективная польза для страны. Как сохранить старую систему без нового террора? Почему так мало желающих занять первый пост в стране после Сталина? Каковы реальные масштабы десталинизации? Как относилась политическая элита, военные, интеллигенция и обыватели к развенчанию культа в 1956 году? Как обсуждали доклад и как власть реагировала на результаты этого обсуждения? Своими воспоминаниями о событиях перед и после XX съезда делятся востоковед и политолог Георгий Мирский (последнее интервью перед уходом из жизни), сын поэта Константина Симонова - журналист и кинорежиссер Алексей Симонов, репатриант 1948 года, писатель, переводчик и публицист Никита Кривошеин.
Качество: HDTV 1080i
Формат: MPEG-TS
Видео кодек: H.264
Аудио кодек: MP2
Видео: MPEG4 Video (H264) 1920x1080, 25fps, ~11.9 Mbps
Аудио: 192 Kbps : 2сн : 48,0 КГц
MediaInfo
General
ID : 1 (0x1)
Complete name : D:\XX съезд. Годовщина _bySat.ts
Format : MPEG-TS
File size : 4.62 GiB
Duration : 52mn 8s
Overall bit rate mode : Variable
Overall bit rate : 12.7 Mbps
Video
ID : 306 (0x132)
Menu ID : 1 (0x1)
Format : AVC
Format/Info : Advanced Video Codec
Format profile : [email protected]
Format settings, CABAC : Yes
Format settings, ReFrames : 4 frames
Format settings, GOP : M=4, N=28
Codec ID : 27
Duration : 52mn 8s
Bit rate : 11.9 Mbps
Width : 1 920 pixels
Height : 1 080 pixels
Display aspect ratio : 16:9
Frame rate : 25.000 fps
Standard : Component
Color space : YUV
Chroma subsampling : 4:2:0
Bit depth : 8 bits
Scan type : Interlaced
Scan order : Top Field First
Bits/(Pixel*Frame) : 0.229
Stream size : 4.32 GiB (94%)
Color primaries : BT.709
Transfer characteristics : BT.709
Matrix coefficients : BT.709
Audio
ID : 406 (0x196)
Menu ID : 1 (0x1)
Format : MPEG Audio
Format version : Version 1
Format profile : Layer 2
Codec ID : 3
Duration : 52mn 8s
Bit rate mode : Constant
Bit rate : 192 Kbps
Channel(s) : 2 channels
Sampling rate : 48.0 KHz
Compression mode : Lossy
Stream size : 71.6 MiB (2%)
Language : English
Скриншоты
Ввиду энергетической блокады Крыма раздача может "раздаваться"с перерывами.
Download
Для скачивания .torrent файлов необходима регистрация
Сайт не распространяет и не хранит электронные версии произведений, а лишь предоставляет доступ к создаваемому пользователями каталогу ссылок на торрент-файлы, которые содержат только списки хеш-сумм
[Профиль]  [ЛС] 
 
Ответить
Loading...
Error