Расцвет древних цивилизаций (1-3 серии из 3) / The Ascent of Civilisation (Cristina Trebbi / Кристина Требби) [2014, Документально-постановочный, история, HDTVRip 720p]

Страницы:  1

Ответить
Автор
Сообщение

kyba62

Top Bonus 05* 10TB

Стаж: 9 лет 7 месяцев

Сообщений: 459

kyba62 · 08-Мар-16 12:35 (1 год 9 месяцев назад, ред. 08-Мар-16 15:21)

Расцвет древних цивилизаций / The Ascent of Civilisation
Год выпуска: 2014
Страна: Германия
Студия: Gruppe 5 Filmproduktion for ZDF Enterprises
Жанр: Документально-постановочный, история
Продолжительность: 3 х ~ 00:50:00
Перевод: Одноголосый закадровый
Доп. инфо о переводе: студия SDI Media, перевод Анны Заславской, текст читает Юрий Большаков
Режиссер: Cristina Trebbi / Кристина Требби
Описание: Какими на самом деле были викинги? Чего достигли римляне? И как повлияли достижения греков на современный мир? Программа развенчивает мифы и стереотипы о викингах, а также о таких древних цивилизациях, как греческая и римская. Программа поможет по-новому взглянуть на эти выдающиеся культуры и, возможно, изменит наше представление о них.
Сэмпл: Один Два Три
Тип релиза: HDTVRip 720p
Контейнер: MKV
Видео: MPEG-4 AVC, 4000 Кбит/с, 1280x720, 16:9, 25.000 fps
Аудио: Русский, AC3, 2 ch, 128 Кбит/с, 48.0 KHz
Аудио 2: Английский, AC3, 2 ch, 128 Кбит/с, 48.0 KHz
Содержание
01. Как греки изменили мир / How the Greeks Changed the World
Древняя Греция - колыбель современной Европы. Около 3000 лет назад здесь, на берегах Средиземного моря, были заложены основы культуры западной цивилизации . Это родина демократии, где великие мыслители создавали начала научного мышления, где театр был превращен в массовые развлечения, и где начались Олимпийские игры. В этой серии у нас появится возможность по-новому взглянуть на древнюю Грецию и понять, каким образом достижения этой выдающейся цивилизации повлияли на современное западное общество.
02. Как римляне изменили мир / How the Romans Changed the World
Римляне создали одну из самых больших империй в истории, построенную с помощью могущественной армии из профессиональных легионеров и хорошо отлаженной политической машины.
На вершине империи несколько сотен человек управляли пятой часть человечества и территорий, простирающейся от Великобритании в Сирию и от Гибралтара до Евфрата.
Они осуществили многие из самых амбициозных строительных проектов своего времени: бесконечные дороги, мосты и гигантские внушительные акведуки, образовав сложную инфраструктуру и оставили неизгладимое наследие.
Этот фильм - откровение и уникальное путешествие в мир Древнего Рима.
03. Как викинги изменил мир / How the Vikings Changed the World
Нация моряков и купцов, викинги произвели революцию в торговли в средние века и открыли Америку за 500 лет до Колумба. Это захватывающий фильм развенчивает плохую репутацию скандинавов как диких, жестоких убийц и грабителей и показывает поразительно толерантных людей со сложной торговой сетью, которая простиралась через всю Европу. Мы увидим их как лучших моряков своего времени, смелых, исследователей и экспертов, толерантных торговцев, они установили новые стандарты и оставил свой след во всем мире.едователей и экспертов, толерантных торговцев, они установили новые стандарты и оставил свой след во всем мире.
MediaInfo
General
Unique ID : 232649045469895331928917411464489116186 (0xAF069389BB21357BA9546E55901EA21A)
Complete name : D:\Торренты\Фильмы\Документальные\Расцвет древних цивилизаций\Расцвет древних цивилизаций 2_720p.mkv
Format : Matroska
Format version : Version 4 / Version 2
File size : 1.51 GiB
Duration : 50mn 39s
Overall bit rate : 4 257 Kbps
Encoded date : UTC 2016-03-08 07:41:43
Writing application : mkvmerge v8.9.0 ('Father Daughter') 64bit
Writing library : libebml v1.3.3 + libmatroska v1.4.4
Video
ID : 1
Format : AVC
Format/Info : Advanced Video Codec
Format profile : [email protected]
Format settings, CABAC : Yes
Format settings, ReFrames : 9 frames
Codec ID : V_MPEG4/ISO/AVC
Duration : 50mn 39s
Bit rate : 4 000 Kbps
Width : 1 280 pixels
Height : 720 pixels
Display aspect ratio : 16:9
Frame rate mode : Constant
Frame rate : 25.000 fps
Color space : YUV
Chroma subsampling : 4:2:0
Bit depth : 8 bits
Scan type : Progressive
Bits/(Pixel*Frame) : 0.174
Stream size : 1.41 GiB (94%)
Writing library : x264 core 148 r2638 7599210
Encoding settings : cabac=1 / ref=9 / deblock=1:-3:-3 / analyse=0x3:0x133 / me=umh / subme=9 / psy=1 / psy_rd=1.00:0.10 / mixed_ref=1 / me_range=32 / chroma_me=1 / trellis=2 / 8x8dct=1 / cqm=0 / deadzone=21,11 / fast_pskip=1 / chroma_qp_offset=-3 / threads=6 / lookahead_threads=1 / sliced_threads=0 / nr=0 / decimate=0 / interlaced=0 / bluray_compat=0 / constrained_intra=0 / bframes=9 / b_pyramid=2 / b_adapt=2 / b_bias=0 / direct=3 / weightb=1 / open_gop=0 / weightp=2 / keyint=250 / keyint_min=23 / scenecut=40 / intra_refresh=0 / rc=2pass / mbtree=0 / bitrate=4000 / ratetol=1.0 / qcomp=0.60 / qpmin=0 / qpmax=69 / qpstep=4 / cplxblur=20.0 / qblur=0.5 / ip_ratio=1.40 / pb_ratio=1.30 / aq=1:1.00
Language : English
Default : Yes
Forced : No
Audio #1
ID : 2
Format : AC-3
Format/Info : Audio Coding 3
Mode extension : CM (complete main)
Format settings, Endianness : Big
Codec ID : A_AC3
Duration : 50mn 39s
Bit rate mode : Constant
Bit rate : 128 Kbps
Channel(s) : 2 channels
Channel positions : Front: L R
Sampling rate : 48.0 KHz
Frame rate : 31.250 fps (1536 spf)
Compression mode : Lossy
Stream size : 46.4 MiB (3%)
Language : Russian
Default : Yes
Forced : Yes
Audio #2
ID : 3
Format : AC-3
Format/Info : Audio Coding 3
Mode extension : CM (complete main)
Format settings, Endianness : Big
Codec ID : A_AC3
Duration : 50mn 39s
Bit rate mode : Constant
Bit rate : 128 Kbps
Channel(s) : 2 channels
Channel positions : Front: L R
Sampling rate : 48.0 KHz
Frame rate : 31.250 fps (1536 spf)
Compression mode : Lossy
Stream size : 46.4 MiB (3%)
Language : English
Default : No
Forced : No
Скриншоты
Дополнительные скриншоты
Download
Для скачивания .torrent файлов необходима регистрация
Сайт не распространяет и не хранит электронные версии произведений, а лишь предоставляет доступ к создаваемому пользователями каталогу ссылок на торрент-файлы, которые содержат только списки хеш-сумм
[Профиль]  [ЛС] 

sasha-rdn

Стаж: 11 лет 4 месяца

Сообщений: 108

sasha-rdn · 18-Янв-17 19:34 (спустя 10 месяцев)

[Цитировать] 

а зачем английская дорожка? оставили ба русскую и оригинальную, немецкую
[Профиль]  [ЛС] 

kyba62

Top Bonus 05* 10TB

Стаж: 9 лет 7 месяцев

Сообщений: 459

kyba62 · 20-Янв-17 16:38 (спустя 1 день 21 час)

[Цитировать] 

sasha-rdn
Её, немецкой и не было.
Заметил, что некоторые документальные фильмы отличаются, по оформлению, времени, даже названию. Как пример
http://rutracker.org/forum/viewtopic.php?p=70239712#70239712
[Профиль]  [ЛС] 

Holy-finik

Стаж: 6 лет 6 месяцев

Сообщений: 1


Holy-finik · 16-Ноя-17 21:10 (спустя 9 месяцев)

[Цитировать] 

Если вы хоть немного помните школьную программу, то нового ничего не узнаете.
Но, посмотрев серию, есть вероятность обнаружить себя читающего статью в какой-нибудь Википедии про Цицерона или Александра Македонского в поисках новой информации по заинтересовавшему периоду в истории. Если это произошло, то цель этого документального сериала достигнута.
[Профиль]  [ЛС] 
 
Ответить
Loading...
Error