Кронштадт 1921 / Серии: 1-2 (из 2) (Екатерина Телегина) [2016, Документальный | Историческая Реконструкция, HDTVRip 720p]

Страницы:  1

Ответить
Автор
Сообщение

plarin

Top Seed 06* 1280r

Стаж: 9 лет 5 месяцев

Сообщений: 3906

plarin · 19-Апр-16 20:45 (1 год 7 месяцев назад, ред. 19-Апр-16 20:50)

Кронштадт 1921
Год выпуска: 2016
Страна: Россия
Телеканал: Первый Канал HD | Star Media
Жанр: Документальный | Историческая Реконструкция
Общая продолжительность: 1:40:09
Режиссер: Екатерина Телегина
Описание: 1921 год. Россия. Позади революция и Гражданская война. Однако пять лет яростной кровавой борьбы не дали народу ни земли, ни заводов, ни гарантий мира и благосостояния. В стране голод и разруха. Единственное место, где жизнь идет более менее благополучно - город Кронштадт на острове Котлин в Финском заливе. Но вскоре моряки Кронштадта решают выступить против существующего бедственного положения в стране...
Автор рипа: lrn
Автор записи: GeneralFilm
Сэмпл: sendfile
Тип релиза: HDTV 720p
Контейнер: MKV
Видео: 1280x720 (16:9), 25,000 fps, H264, ~4000 kbps avg, ~0.174 bit/pixel
Аудио: 48 kHz, AC3 Dolby Digital, 3/2 (L,C,R,l,r) + LFE ch, ~384.00 kbps avg
Продолжительность
Серия №1 (0:48:57)
Серия №2 (0:51:11)
MediaInfo
Kronshtadt.1921.(01).2016.HDTVRip.720p.x264-lrn.mkv
General
Unique ID : 184125027571181624986219118968531498475 (0x8A8530BEC7412041B47F84BEE506B5EB)
Complete name : E:\uTorrent.Temp\Temp\Kronshtadt.1921.2016.HDTVRip.720p.x264-lrn\Kronshtadt.1921.(01).2016.HDTVRip.720p.x264-lrn.mkv
Format : Matroska
Format version : Version 4 / Version 2
File size : 1.50 GiB
Duration : 48mn 57s
Overall bit rate : 4 386 Kbps
Movie name : Kronshtadt.1921.2016.HDTVRip.720p.x264-lrn
Encoded date : UTC 2010-02-22 21:41:31
Writing application : mkvmerge v5.9.0 ('On The Loose') built on Dec 9 2012 15:37:01
Writing library : libebml v1.3.0 + libmatroska v1.4.0
Video
ID : 1
Format : AVC
Format/Info : Advanced Video Codec
Format profile : [email protected]
Format settings, CABAC : Yes
Format settings, ReFrames : 8 frames
Codec ID : V_MPEG4/ISO/AVC
Duration : 48mn 57s
Bit rate : 4 000 Kbps
Width : 1 280 pixels
Height : 720 pixels
Display aspect ratio : 16:9
Frame rate mode : Constant
Frame rate : 25.000 fps
Color space : YUV
Chroma subsampling : 4:2:0
Bit depth : 8 bits
Scan type : Progressive
Bits/(Pixel*Frame) : 0.174
Stream size : 1.34 GiB (89%)
Writing library : x264 core 148 r2638 7599210
Encoding settings : cabac=1 / ref=8 / deblock=1:-3:-3 / analyse=0x3:0x133 / me=umh / subme=9 / psy=1 / psy_rd=1.00:0.00 / mixed_ref=1 / me_range=32 / chroma_me=1 / trellis=2 / 8x8dct=1 / cqm=0 / deadzone=21,11 / fast_pskip=1 / chroma_qp_offset=-2 / threads=12 / lookahead_threads=2 / sliced_threads=0 / nr=0 / decimate=1 / interlaced=0 / bluray_compat=0 / constrained_intra=0 / bframes=8 / b_pyramid=2 / b_adapt=2 / b_bias=0 / direct=3 / weightb=1 / open_gop=0 / weightp=2 / keyint=250 / keyint_min=25 / scenecut=40 / intra_refresh=0 / rc_lookahead=50 / rc=2pass / mbtree=1 / bitrate=4000 / ratetol=1.0 / qcomp=0.60 / qpmin=0 / qpmax=69 / qpstep=4 / cplxblur=20.0 / qblur=0.5 / vbv_maxrate=62500 / vbv_bufsize=78125 / nal_hrd=none / filler=0 / ip_ratio=1.40 / aq=1:1.00
Default : Yes
Forced : No
Statistics Tags Issue : mkvmerge v8.5.2 ('Crosses') 32bit 2016-04-13 15:39:23 / mkvmerge v5.9.0 ('On The Loose') built on Dec 9 2012 15:37:01 2010-02-22 21:41:31
FromStats_BitRate : 4000071
FromStats_Duration : 00:48:57.600000000
FromStats_FrameCount : 73440
FromStats_StreamSize : 1468826161
Audio
ID : 2
Format : AC-3
Format/Info : Audio Coding 3
Mode extension : CM (complete main)
Format settings, Endianness : Big
Codec ID : A_AC3
Duration : 48mn 57s
Bit rate mode : Constant
Bit rate : 384 Kbps
Channel(s) : 6 channels
Channel positions : Front: L C R, Side: L R, LFE
Sampling rate : 48.0 KHz
Frame rate : 31.250 fps (1536 spf)
Compression mode : Lossy
Stream size : 134 MiB (9%)
Language : Russian
Default : Yes
Forced : No
Kronshtadt.1921.(02).2016.HDTVRip.720p.x264-lrn.mkv
General
Unique ID : 186538854076865243507125583442187382257 (0x8C56139493513C64893D032FE32BEDF1)
Complete name : E:\uTorrent.Temp\Temp\Kronshtadt.1921.2016.HDTVRip.720p.x264-lrn\Kronshtadt.1921.(02).2016.HDTVRip.720p.x264-lrn.mkv
Format : Matroska
Format version : Version 4 / Version 2
File size : 1.57 GiB
Duration : 51mn 11s
Overall bit rate : 4 384 Kbps
Movie name : Kronshtadt.1921.2016.HDTVRip.720p.x264-lrn
Encoded date : UTC 2010-02-22 21:41:31
Writing application : mkvmerge v5.9.0 ('On The Loose') built on Dec 9 2012 15:37:01
Writing library : libebml v1.3.0 + libmatroska v1.4.0
Video
ID : 1
Format : AVC
Format/Info : Advanced Video Codec
Format profile : [email protected]
Format settings, CABAC : Yes
Format settings, ReFrames : 8 frames
Codec ID : V_MPEG4/ISO/AVC
Duration : 51mn 11s
Bit rate : 4 000 Kbps
Width : 1 280 pixels
Height : 720 pixels
Display aspect ratio : 16:9
Frame rate mode : Constant
Frame rate : 25.000 fps
Color space : YUV
Chroma subsampling : 4:2:0
Bit depth : 8 bits
Scan type : Progressive
Bits/(Pixel*Frame) : 0.174
Stream size : 1.40 GiB (89%)
Writing library : x264 core 148 r2638 7599210
Encoding settings : cabac=1 / ref=8 / deblock=1:-3:-3 / analyse=0x3:0x133 / me=umh / subme=9 / psy=1 / psy_rd=1.00:0.00 / mixed_ref=1 / me_range=32 / chroma_me=1 / trellis=2 / 8x8dct=1 / cqm=0 / deadzone=21,11 / fast_pskip=1 / chroma_qp_offset=-2 / threads=12 / lookahead_threads=2 / sliced_threads=0 / nr=0 / decimate=1 / interlaced=0 / bluray_compat=0 / constrained_intra=0 / bframes=8 / b_pyramid=2 / b_adapt=2 / b_bias=0 / direct=3 / weightb=1 / open_gop=0 / weightp=2 / keyint=250 / keyint_min=25 / scenecut=40 / intra_refresh=0 / rc_lookahead=50 / rc=2pass / mbtree=1 / bitrate=4000 / ratetol=1.0 / qcomp=0.60 / qpmin=0 / qpmax=69 / qpstep=4 / cplxblur=20.0 / qblur=0.5 / vbv_maxrate=62500 / vbv_bufsize=78125 / nal_hrd=none / filler=0 / ip_ratio=1.40 / aq=1:1.00
Default : Yes
Forced : No
Statistics Tags Issue : mkvmerge v8.5.2 ('Crosses') 32bit 2016-04-19 06:36:49 / mkvmerge v5.9.0 ('On The Loose') built on Dec 9 2012 15:37:01 2010-02-22 21:41:31
FromStats_BitRate : 3998583
FromStats_Duration : 00:51:11.600000000
FromStats_FrameCount : 76790
FromStats_StreamSize : 1535256052
Audio
ID : 2
Format : AC-3
Format/Info : Audio Coding 3
Mode extension : CM (complete main)
Format settings, Endianness : Big
Codec ID : A_AC3
Duration : 51mn 11s
Bit rate mode : Constant
Bit rate : 384 Kbps
Channel(s) : 6 channels
Channel positions : Front: L C R, Side: L R, LFE
Sampling rate : 48.0 KHz
Frame rate : 31.250 fps (1536 spf)
Compression mode : Lossy
Stream size : 141 MiB (9%)
Language : Russian
Default : Yes
Forced : No
x264 log
Kronshtadt.1921.(01).2016.HDTVRip.720p.x264-lrn.mkv
raw [info]: 1280x720p 1:1 @ 25/1 fps (cfr)
x264 [info]: using SAR=1/1
x264 [info]: using cpu capabilities: MMX2 SSE2Fast SSSE3 SSE4.2 AVX
x264 [info]: profile High, level 4.1
x264 [info]: frame I:529 Avg QP:16.24 size:111144
x264 [info]: frame P:21320 Avg QP:19.19 size: 37267
x264 [info]: frame B:51591 Avg QP:21.59 size: 11931
x264 [info]: consecutive B-frames: 4.8% 8.4% 9.1% 55.5% 9.5% 9.3% 1.1% 1.9% 0.5%
x264 [info]: mb I I16..4: 6.1% 83.6% 10.3%
x264 [info]: mb P I16..4: 2.7% 18.9% 1.4% P16..4: 40.2% 14.1% 9.0% 0.3% 0.1% skip:13.3%
x264 [info]: mb B I16..4: 0.3% 3.4% 0.2% B16..8: 32.5% 10.2% 2.2% direct: 7.0% skip:44.2% L0:44.2% L1:45.9% BI: 9.9%
x264 [info]: 8x8 transform intra:83.5% inter:73.9%
x264 [info]: direct mvs spatial:97.1% temporal:2.9%
x264 [info]: coded y,uvDC,uvAC intra: 79.1% 23.3% 7.6% inter: 27.8% 12.6% 0.4%
x264 [info]: i16 v,h,dc,p: 31% 21% 7% 40%
x264 [info]: i8 v,h,dc,ddl,ddr,vr,hd,vl,hu: 13% 10% 7% 8% 12% 13% 12% 12% 13%
x264 [info]: i4 v,h,dc,ddl,ddr,vr,hd,vl,hu: 12% 9% 4% 8% 14% 15% 13% 11% 12%
x264 [info]: i8c dc,h,v,p: 75% 12% 9% 4%
x264 [info]: Weighted P-Frames: Y:16.3% UV:6.1%
x264 [info]: ref P L0: 53.1% 12.0% 14.4% 5.8% 4.5% 3.7% 3.2% 2.4% 0.8% 0.1%
x264 [info]: ref B L0: 75.0% 11.1% 5.8% 3.2% 2.6% 1.6% 0.8%
x264 [info]: ref B L1: 94.3% 5.7%
x264 [info]: kb/s:4000.07
encoded 73440 frames, 13.78 fps, 4000.07 kb/s
Kronshtadt.1921.(02).2016.HDTVRip.720p.x264-lrn.mkv
raw [info]: 1280x720p 1:1 @ 25/1 fps (cfr)
x264 [info]: using SAR=1/1
x264 [info]: using cpu capabilities: MMX2 SSE2Fast SSSE3 SSE4.2 AVX
x264 [info]: profile High, level 4.1
x264 [info]: frame I:538 Avg QP:15.93 size: 92646
x264 [info]: frame P:21674 Avg QP:18.80 size: 33536
x264 [info]: frame B:54578 Avg QP:20.71 size: 13899
x264 [info]: consecutive B-frames: 4.2% 7.5% 8.2% 56.8% 8.8% 10.1% 1.6% 2.3% 0.6%
x264 [info]: mb I I16..4: 5.9% 83.7% 10.4%
x264 [info]: mb P I16..4: 2.8% 19.3% 1.3% P16..4: 42.9% 15.2% 9.3% 0.2% 0.1% skip: 8.9%
x264 [info]: mb B I16..4: 0.3% 4.3% 0.3% B16..8: 35.5% 11.9% 2.4% direct: 8.0% skip:37.3% L0:45.8% L1:45.3% BI: 8.9%
x264 [info]: 8x8 transform intra:84.5% inter:74.9%
x264 [info]: direct mvs spatial:97.8% temporal:2.2%
x264 [info]: coded y,uvDC,uvAC intra: 80.5% 31.1% 8.7% inter: 31.3% 16.7% 0.5%
x264 [info]: i16 v,h,dc,p: 31% 20% 7% 42%
x264 [info]: i8 v,h,dc,ddl,ddr,vr,hd,vl,hu: 13% 11% 6% 8% 11% 13% 13% 12% 14%
x264 [info]: i4 v,h,dc,ddl,ddr,vr,hd,vl,hu: 12% 9% 4% 8% 14% 15% 14% 11% 12%
x264 [info]: i8c dc,h,v,p: 64% 19% 13% 4%
x264 [info]: Weighted P-Frames: Y:17.3% UV:4.8%
x264 [info]: ref P L0: 51.0% 11.1% 15.1% 6.5% 5.0% 4.2% 3.6% 2.6% 0.9% 0.1%
x264 [info]: ref B L0: 71.2% 12.1% 6.9% 3.8% 3.1% 1.9% 0.9%
x264 [info]: ref B L1: 93.3% 6.7%
x264 [info]: kb/s:3998.58
encoded 76790 frames, 11.47 fps, 3998.58 kb/s
Скриншоты
Download
Для скачивания .torrent файлов необходима регистрация
Сайт не распространяет и не хранит электронные версии произведений, а лишь предоставляет доступ к создаваемому пользователями каталогу ссылок на торрент-файлы, которые содержат только списки хеш-сумм
[Профиль]  [ЛС] 

Samorityanin

Стаж: 7 лет 11 месяцев

Сообщений: 1659

Samorityanin · 20-Апр-16 00:02 (спустя 3 часа)

[Цитировать] 

Спасибо!
А версия 1080р планируется?..
[Профиль]  [ЛС] 

plarin

Top Seed 06* 1280r

Стаж: 9 лет 5 месяцев

Сообщений: 3906

plarin · 20-Апр-16 06:53 (спустя 6 часов)

[Цитировать] 

Samorityanin писал(а):
70525051Спасибо!
А версия 1080р планируется?..
От меня - нет.
[Профиль]  [ЛС] 

Samorityanin

Стаж: 7 лет 11 месяцев

Сообщений: 1659

Samorityanin · 20-Апр-16 19:15 (спустя 12 часов)

[Цитировать] 

plarin писал(а):
70525886
Samorityanin писал(а):
70525051Спасибо!
А версия 1080р планируется?..
От меня - нет.
Искренне жаль...
[Профиль]  [ЛС] 
 
Ответить
Loading...
Error