Обреченные. Наша Гражданская война. Корнилов - Троцкий; Марков - Раскольников; Каппель - Чапаев; Слащёв - Фрунзе (Алексей Подгорный и Сергей Жуков) [2016, Документальный, HDTV 1080i]

Страницы:  1

Ответить
Автор
Сообщение

Scorpman

VIP (Заслуженный)

Стаж: 10 лет 3 месяца

Сообщений: 3231

Scorpman · 07-Июл-16 08:22 (1 год 5 месяцев назад, ред. 29-Июл-16 14:45)

Обреченные. Наша Гражданская война. Корнилов - Троцкий; Марков - Раскольников; Каппель - Чапаев; Слащёв - Фрунзе
Год выпуска: 2016
Страна: Россия
Жанр: Документальный
Перевод: Не требуется
Русские субтитры: нет
Режиссер: Алексей Подгорный и Сергей Жуков
Описание: В Гражданской войне не бывает героев. Но она выдвигает лидеров, нащупывает и выносит на поверхность людей лично храбрых, с организационными талантами, с харизмой. Жесточайшими противниками становятся люди, еще вчера ничего не знавшие друг о друге. Корнилов и Троцкий - ключевые персонажи в нашей трагической пред- и послеоктябрьской истории. Два варианта узурпации власти и два варианта диктатуры. Один, связанный с именем Корнилова, - несостоявшейся. Второй, связанный с Троцким, - осуществившийся. Два взгляда на развитие России. Корнилов и Троцкий в документально-публицистическом сериале "Обреченные. Наша Гражданская война" с участием народного артиста РФ Валерия Гаркалина в неожиданной роли.
Тип релиза: HDTV 1080i
Контейнер: TS
1. Корнилов - Троцкий
Продолжительность: 01:27:41
Видео: MPEG4 Video (H264) 1920x1080, 25fps, 5 791 Kbps
Аудио: 224 Kbps : 2сн : 48,0 КГц
MediaInfo
General
ID : 1 (0x1)
Complete name : D:\Обреченные. Наша Гражданская война. Корнилов - Троцкий_Sat.ts
Format : MPEG-TS
File size : 3.88 GiB
Duration : 1h 27mn
Overall bit rate mode : Variable
Overall bit rate : 6 330 Kbps
Video
ID : 1901 (0x76D)
Menu ID : 1 (0x1)
Format : AVC
Format/Info : Advanced Video Codec
Format profile : [email protected]
Format settings, CABAC : Yes
Format settings, ReFrames : 3 frames
Codec ID : 27
Duration : 1h 27mn
Bit rate : 5 791 Kbps
Width : 1 920 pixels
Height : 1 080 pixels
Display aspect ratio : 16:9
Frame rate : 25.000 fps
Standard : Component
Color space : YUV
Chroma subsampling : 4:2:0
Bit depth : 8 bits
Scan type : Interlaced
Scan order : Top Field First
Bits/(Pixel*Frame) : 0.112
Stream size : 3.55 GiB (91%)
Color primaries : BT.709
Transfer characteristics : BT.709
Matrix coefficients : BT.709
Audio
ID : 2901 (0xB55)
Menu ID : 1 (0x1)
Format : MPEG Audio
Format version : Version 1
Format profile : Layer 2
Codec ID : 3
Duration : 1h 27mn
Bit rate mode : Constant
Bit rate : 224 Kbps
Channel(s) : 2 channels
Sampling rate : 48.0 KHz
Compression mode : Lossy
Delay relative to video : -40ms
Stream size : 140 MiB (4%)
Language : Russian
Скриншоты
2. Марков - Раскольников
Продолжительность: 01:25:49
Видео: MPEG4 Video (H264) 1920x1080, 25fps, 10.3 Mbps
Аудио: 192 Kbps : 2сн : 48,0 КГц
MediaInfo
General
ID : 1 (0x1)
Complete name : D:\Обреченные - Наша Гражданская война\Обреченные. Наша Гражданская война. Марков - Раскольников_bySat.ts
Format : MPEG-TS
File size : 6.62 GiB
Duration : 1h 25mn
Overall bit rate mode : Variable
Overall bit rate : 11.0 Mbps
Video
ID : 206 (0xCE)
Menu ID : 1 (0x1)
Format : AVC
Format/Info : Advanced Video Codec
Format profile : [email protected]
Format settings, CABAC : Yes
Format settings, ReFrames : 4 frames
Format settings, GOP : M=4, N=28
Codec ID : 27
Duration : 1h 25mn
Bit rate : 10.3 Mbps
Width : 1 920 pixels
Height : 1 080 pixels
Display aspect ratio : 16:9
Frame rate : 25.000 fps
Color space : YUV
Chroma subsampling : 4:2:0
Bit depth : 8 bits
Scan type : Interlaced
Scan order : Top Field First
Bits/(Pixel*Frame) : 0.199
Stream size : 6.18 GiB (93%)
Color primaries : BT.709
Transfer characteristics : BT.709
Matrix coefficients : BT.709
Audio
ID : 306 (0x132)
Menu ID : 1 (0x1)
Format : MPEG Audio
Format version : Version 1
Format profile : Layer 2
Codec ID : 3
Duration : 1h 25mn
Bit rate mode : Constant
Bit rate : 192 Kbps
Channel(s) : 2 channels
Sampling rate : 48.0 KHz
Compression mode : Lossy
Delay relative to video : -40ms
Stream size : 118 MiB (2%)
Language : Russian
Скриншоты
3. Каппель - Чапаев
Продолжительность: 01:27:00
Видео: MPEG4 Video (H264) 1920x1080, 25fps, 10.1 Mbps
Аудио: 192 Kbps : 2сн : 48,0 КГц
MediaInfo
General
ID : 1 (0x1)
Complete name : D:\Обреченные - Наша Гражданская война\Обреченные. Наша Гражданская война. Каппель - Чапаев_bySat.ts
Format : MPEG-TS
File size : 6.13 GiB
Duration : 1h 27mn
Overall bit rate mode : Variable
Overall bit rate : 10.1 Mbps
Video
ID : 206 (0xCE)
Menu ID : 1 (0x1)
Format : AVC
Format/Info : Advanced Video Codec
Format profile : [email protected]
Format settings, CABAC : Yes
Format settings, ReFrames : 4 frames
Codec ID : 27
Duration : 1h 27mn
Bit rate : 9 393 Kbps
Width : 1 920 pixels
Height : 1 080 pixels
Display aspect ratio : 16:9
Frame rate : 25.000 fps
Color space : YUV
Chroma subsampling : 4:2:0
Bit depth : 8 bits
Scan type : Interlaced
Scan order : Bottom Field First
Bits/(Pixel*Frame) : 0.181
Stream size : 5.71 GiB (93%)
Color primaries : BT.709
Transfer characteristics : BT.709
Matrix coefficients : BT.709
Audio
ID : 306 (0x132)
Menu ID : 1 (0x1)
Format : MPEG Audio
Format version : Version 1
Format profile : Layer 2
Codec ID : 3
Duration : 1h 27mn
Bit rate mode : Constant
Bit rate : 192 Kbps
Channel(s) : 2 channels
Sampling rate : 48.0 KHz
Compression mode : Lossy
Delay relative to video : -40ms
Stream size : 119 MiB (2%)
Language : Russian
Скриншоты
4. Слащёв - Фрунзе
Продолжительность: 01:26:22
Видео: MPEG4 Video (H264) 1920x1080, 25fps, 11.0 Mbps
Аудио: 192 Kbps : 2сн : 48,0 КГц
MediaInfo
General
ID : 1 (0x1)
Complete name : D:\Обреченные - Наша Гражданская война\Обреченные. Наша Гражданская война. Слащёв - Фрунзе_bySat.ts
Format : MPEG-TS
File size : 7.12 GiB
Duration : 1h 26mn
Overall bit rate mode : Variable
Overall bit rate : 11.8 Mbps
Video
ID : 206 (0xCE)
Menu ID : 1 (0x1)
Format : AVC
Format/Info : Advanced Video Codec
Format profile : [email protected]
Format settings, CABAC : Yes
Format settings, ReFrames : 4 frames
Codec ID : 27
Duration : 1h 26mn
Bit rate : 11.0 Mbps
Width : 1 920 pixels
Height : 1 080 pixels
Display aspect ratio : 16:9
Frame rate : 25.000 fps
Color space : YUV
Chroma subsampling : 4:2:0
Bit depth : 8 bits
Scan type : Interlaced
Scan order : Bottom Field First
Bits/(Pixel*Frame) : 0.213
Stream size : 6.66 GiB (93%)
Color primaries : BT.709
Transfer characteristics : BT.709
Matrix coefficients : BT.709
Audio
ID : 306 (0x132)
Menu ID : 1 (0x1)
Format : MPEG Audio
Format version : Version 1
Format profile : Layer 2
Codec ID : 3
Duration : 1h 26mn
Bit rate mode : Constant
Bit rate : 192 Kbps
Channel(s) : 2 channels
Sampling rate : 48.0 KHz
Compression mode : Lossy
Delay relative to video : -40ms
Stream size : 119 MiB (2%)
Language : Russian
Скриншоты
за исходный материал "1. Корнилов - Троцкий" спасибо miha2154заказ Ники -
Альтернативные рипы от plarin HDTVRip-AVC 576p, HDTVRip 720p
Download
Для скачивания .torrent файлов необходима регистрация
Сайт не распространяет и не хранит электронные версии произведений, а лишь предоставляет доступ к создаваемому пользователями каталогу ссылок на торрент-файлы, которые содержат только списки хеш-сумм
[Профиль]  [ЛС] 

antonaprel4

Стаж: 7 лет 9 месяцев

Сообщений: 13

antonaprel4 · 09-Июл-16 11:11 (спустя 2 дня 2 часа)

[Цитировать] 

А поменьше?
[Профиль]  [ЛС] 

diman1cc

Стаж: 9 лет 1 месяц

Сообщений: 64

diman1cc · 12-Июл-16 16:59 (спустя 3 дня)

[Цитировать] 

спасибо!!
следующие серии здесь будут добавляться или отдельные раздачи ждать?
рип поменьше было бы круто, конечно. но некритично
[Профиль]  [ЛС] 

Scorpman

VIP (Заслуженный)

Стаж: 10 лет 3 месяца

Сообщений: 3231

Scorpman · 13-Июл-16 09:19 (спустя 16 часов, ред. 13-Июл-16 09:19)

[Цитировать] 

Добавил: "Марков - Раскольников"
Создайте папку
Код:
Обреченные - Наша Гражданская война
положите в неё имеющийся файл и, скачав новый торрент, укажите на эту папку - так вы присоединитесь с раздаче "пака".
[Профиль]  [ЛС] 

James_Bond_

Стаж: 9 лет 1 месяц

Сообщений: 1196


James_Bond_ · 13-Июл-16 14:57 (спустя 5 часов)

[Цитировать] 

это у меня во втором фильме рассинхрон?
[Профиль]  [ЛС] 

pinozol

Стаж: 9 лет 5 месяцев

Сообщений: 342


pinozol · 13-Июл-16 16:45 (спустя 1 час 48 мин., ред. 13-Июл-16 16:45)

[Цитировать] 

5 791 Kbps vs 10.3 Mbps - вот и "рассинхрон".
[Профиль]  [ЛС] 

James_Bond_

Стаж: 9 лет 1 месяц

Сообщений: 1196


James_Bond_ · 13-Июл-16 19:12 (спустя 2 часа 26 мин.)

[Цитировать] 

pinozol писал(а):
710473855 791 Kbps vs 10.3 Mbps - вот и "рассинхрон".
и что делать?
[Профиль]  [ЛС] 

Doc66

RG Русские сериалы

Стаж: 11 лет 3 месяца

Сообщений: 3382

Doc66 · 13-Июл-16 20:09 (спустя 57 мин.)

[Цитировать] 

По поводу рипов, пишите. Если автор не созреет. Могу отриповать, только нужно определиться за формат
[Профиль]  [ЛС] 

pinozol

Стаж: 9 лет 5 месяцев

Сообщений: 342


pinozol · 13-Июл-16 20:40 (спустя 30 мин.)

[Цитировать] 

Цитата:
и что делать?
Обычно я конвертирую файль в поносимый для моего компа биттрейд.
[Профиль]  [ЛС] 

Scorpman

VIP (Заслуженный)

Стаж: 10 лет 3 месяца

Сообщений: 3231

Scorpman · 13-Июл-16 21:02 (спустя 21 мин.)

[Цитировать] 

James_Bond_ писал(а):
71046822во втором фильме рассинхрон
Рассинхрона нет.
Doc66 писал(а):
71048449автор не созреет
Не созреет - точно!
[Профиль]  [ЛС] 

James_Bond_

Стаж: 9 лет 1 месяц

Сообщений: 1196


James_Bond_ · 13-Июл-16 23:45 (спустя 2 часа 42 мин., ред. 14-Июл-16 07:18)

[Цитировать] 

Scorpman писал(а):
71048734
James_Bond_ писал(а):
71046822во втором фильме рассинхрон
Рассинхрона нет.
конечно нет, для автора всегда все идеально
перекодировал при помощи Xilisoft Video Converter Ultimate ушел рассинхрон по звуку, но осталась другая проблема, в наушниках четкий звук (голос идет поверх музыки), а с колонками все наоборот (музыка идет поверх голоса, ничего не слышно), не видио а муйня какая-то, жаль что альтернативы нормальной нет
[Профиль]  [ЛС] 

Doc66

RG Русские сериалы

Стаж: 11 лет 3 месяца

Сообщений: 3382

Doc66 · 14-Июл-16 17:43 (спустя 17 часов)

[Цитировать] 

Кто ж конвертирует однокнопочными программами? А потом автор виноват)) В общем, вопрос открыт
[Профиль]  [ЛС] 

James_Bond_

Стаж: 9 лет 1 месяц

Сообщений: 1196


James_Bond_ · 14-Июл-16 18:57 (спустя 1 час 13 мин.)

[Цитировать] 

Doc66 писал(а):
71052832Кто ж конвертирует однокнопочными программами? А потом автор виноват)) В общем, вопрос открыт
самое интересное что и исходник с рассинхроном так же работает как и конвертируемый файл
[Профиль]  [ЛС] 

Sergey Sisetskiy

Стаж: 6 лет

Сообщений: 13


Sergey Sisetskiy · 16-Июл-16 13:46 (спустя 1 день 18 часов, ред. 16-Июл-16 13:46)

[Цитировать] 

diman1cc писал(а):
71042323спасибо!!
следующие серии здесь будут добавляться или отдельные раздачи ждать?
рип поменьше было бы круто, конечно. но некритично
Не надо рип по меньше. Нормальный размер. Качество видео и размер экрана важны! Не жмитесь, купите хард на 5-6 терабайт и качайте, что хотите, без заморочек. И смотрите качественную графику не щюрясь и напрягая глаза
[Профиль]  [ЛС] 

Scorpman

VIP (Заслуженный)

Стаж: 10 лет 3 месяца

Сообщений: 3231

Scorpman · 19-Июл-16 09:08 (спустя 2 дня 19 часов)

[Цитировать] 

Добавил: "Каппель - Чапаев"
[Профиль]  [ЛС] 

GolDm71

Стаж: 8 лет 1 месяц

Сообщений: 51

GolDm71 · 23-Июл-16 14:27 (спустя 4 дня)

[Цитировать] 

Было бы здорово номера серий ставить. А то они по алфавиту выстраиваются, и "Каппель - Чапаев" соответственно вместо последнего места на первом стоят.
[Профиль]  [ЛС] 

гыргыргыр

Стаж: 5 лет

Сообщений: 420


гыргыргыр · 24-Июл-16 01:16 (спустя 10 часов)

[Цитировать] 

GolDm71 писал(а):
71101575Было бы здорово номера серий ставить. А то они по алфавиту выстраиваются, и "Каппель - Чапаев" соответственно вместо последнего места на первом стоят.
Это Так важно, какая серия стоит за какой? При некотором знании истории можно и самому выстроить посерийно! А если годы, показанные в этих сериях, пересекаются - так это даже хорошо, т.к. можно проводить определенные "параллели"!...
[Профиль]  [ЛС] 

Scorpman

VIP (Заслуженный)

Стаж: 10 лет 3 месяца

Сообщений: 3231

Scorpman · 26-Июл-16 08:53 (спустя 2 дня 7 часов)

[Цитировать] 

Добавил: "Слащёв - Фрунзе"
GolDm71 писал(а):
71101575Было бы здорово номера серий ставить
Поставлю в описании, чтобы не было проблем с сидами (переименование файлов).
[Профиль]  [ЛС] 

plarin

Top Seed 06* 1280r

Стаж: 9 лет 5 месяцев

Сообщений: 3905

plarin · 26-Июл-16 16:02 (спустя 7 часов, ред. 26-Июл-16 16:02)

[Цитировать] 

antonaprel4 писал(а):
71023511А поменьше?
Я сделаю рип, завтра добавлю, h264, 720р (4000кб) и 576п (1500кб)
[Профиль]  [ЛС] 

Winter 11

Стаж: 2 года 2 месяца

Сообщений: 1

Winter 11 · 26-Июл-16 17:24 (спустя 1 час 21 мин.)

[Цитировать] 

plarin писал(а):
71118135
antonaprel4 писал(а):
71023511А поменьше?
Я сделаю рип, завтра добавлю, h264, 720р (4000кб) и 576п (1500кб)
бум ждать завтра , а то это тяжеловатый вариант
[Профиль]  [ЛС] 

plarin

Top Seed 06* 1280r

Стаж: 9 лет 5 месяцев

Сообщений: 3905

plarin · 27-Июл-16 21:41 (спустя 1 день 4 часа, ред. 27-Июл-16 21:41)

[Цитировать] 

HDTVRip-AVC 576p, HDTVRip 720p. Для 2 серии звук пересобрал.
[Профиль]  [ЛС] 
 
Ответить
Loading...
Error