Случайное счастье милиционера Пешкина (Андрей Житинкин) [2010, комедия, TVRip] Творческое объединение "Дуэт"

Страницы:  1

Ответить
Автор
Сообщение

dmitry2264

VIP (Заслуженный)

Стаж: 10 лет 2 месяца

Сообщений: 7848

dmitry2264 · 16-Июл-16 22:20 (2 года 4 месяца назад, ред. 19-Янв-17 21:41)

Случайное счастье милиционера Пешкина Название театра: Творческое объединение "Дуэт".
Год выпуска: 2010.
Жанр: комедия.
Продолжительность: 01:25:56.
Режиссер: Андрей Житинкин.
Действующие лица и исполнители:
Николай Пешкин, милиционер - народный артист РСФСР Сергей Шакуров,
Валентина Пешкина, его жена - народная артистка СССР
Людмила Гурченко
,
Аня Пешкина, их дочь - Арина Громова,
Харитонов, задержанный - Сергей Фролов.
О спектакле:
Милиционер Пешкин жил себе недурно без всякого искусства, когда вдруг угораздило его по служебной необходимости попасть за кулисы театра, где и был он отравлен навсегда магией сцены.
Вследствие чего он возмечтал немедленно сам стать режиссером и поставить "Ревизора" прямо у себя дома.
Во имя чего тут же была взята в библиотеке пьеса Гоголя, а жене Валентине с дочерью велено приступить к репетициям.
В квартиру Пешкиных является сам Хлестаков в облике задержанного правонарушителя, который выдает себя за родственника министра МВД, а потом таковым и оказывается, – преображая жизнь Пешкиных фантастическим образом.

Дополнительная информация:
Страна: Россия .
Запись сделана в г. Санкт-Петербурге 23 октября 2010 г. в ДК Выборгский.
Автор: Игорь Лысов.
Художник: Юрий Устинов.

Релиз

Качество видео:...TVRip
Формат:.................AVI
Видео:..640x480 (1.33:1), 25 fps, XviD MPEG-4 ~1796 kbps avg, 0.23 bit/pixel
Аудио:..44.100 kHz, MPEG Layer 3, 2 ch, ~128.00 kbps avg
Отчет Media Info
General
Complete name : Sluchainoe.schast'e.milicionera.Peshkina.2010.XviD.TVRip.fenixclub.avi
Format : AVI
Format/Info : Audio Video Interleave
File size : 1.36 GiB
Duration : 1h 40mn
Overall bit rate : 1 934 Kbps
Writing application : VirtualDubModRus 1.5.10.2 (build 2542/release)
Writing library : VirtualDub build 32842/release
Video
ID : 0
Format : MPEG-4 Visual
Format profile : Advanced [email protected]
Format settings, BVOP : 2
Format settings, QPel : No
Format settings, GMC : No warppoints
Format settings, Matrix : Default (H.263)
Codec ID : XVID
Codec ID/Hint : XviD
Duration : 1h 40mn
Bit rate : 1 796 Kbps
Width : 640 pixels
Height : 480 pixels
Display aspect ratio : 4:3
Frame rate : 25.000 fps
Color space : YUV
Chroma subsampling : 4:2:0
Bit depth : 8 bits
Scan type : Progressive
Compression mode : Lossy
Bits/(Pixel*Frame) : 0.234
Stream size : 1.27 GiB (93%)
Writing library : XviD 73
Audio
ID : 1
Format : MPEG Audio
Format version : Version 1
Format profile : Layer 3
Mode : Joint stereo
Mode extension : MS Stereo
Codec ID : 55
Codec ID/Hint : MP3
Duration : 1h 40mn
Bit rate mode : Constant
Bit rate : 128 Kbps
Channel(s) : 2 channels
Sampling rate : 44.1 KHz
Compression mode : Lossy
Delay relative to video : 1s 0ms
Stream size : 92.4 MiB (7%)
Alignment : Split accross interleaves
Interleave, duration : 40 ms (1.00 video frame)
Interleave, preload duratio : 500 ms
Writing library : LAME3.98.2
Скриншоты
Альтернативный хост
Download
Для скачивания .torrent файлов необходима регистрация
Сайт не распространяет и не хранит электронные версии произведений, а лишь предоставляет доступ к создаваемому пользователями каталогу ссылок на торрент-файлы, которые содержат только списки хеш-сумм
[Профиль]  [ЛС] 

LOZKADEGTYA

Стаж: 10 лет 11 месяцев

Сообщений: 365


LOZKADEGTYA · 28-Июл-18 20:36 (спустя 2 года, ред. 28-Июл-18 20:36)

[Цитировать] 

Звук плохой. Гурченко совершенно не было слышно. Микрофоны надо было ставить на сцене, а не в зале. Оператор тоже ученик.
[Профиль]  [ЛС] 
 
Ответить
Loading...
Error