Игра престолов / Game of Thrones / Сезон: 1 / Серии: 1-10 из 10 (Томас МакКарти, Брайан Кирк, Тимоти ван Паттен, Алан Тейлор, Дэниел Минахан, Дэвид Петрарк) [2011, США, Великобритания, фэнтези, драма, приключения, Blu-ray disc 1080p] Dub + Original

Страницы :  1, 2  След.

Ответить
Автор
Сообщение

Тарантиныч

Music Group

Стаж: 10 лет 8 месяцев

Сообщений: 34560

Тарантиныч · 16-Июл-16 23:48 (1 год 4 месяца назад, ред. 21-Июл-16 00:13)


Blu-ray CEE: 1 сезон | 2 сезон | 3 сезон | 4 сезон | 5 сезон

Игра престолов / Game of Thrones
Год выпуска: 2011
Страна: США, Великобритания
Жанр: фэнтези, драма, приключения
Продолжительность: ~00:50:00
Перевод: Профессиональный (дублированный)
Режиссёр: Томас МакКарти, Брайан Кирк, Тимоти ван Паттен, Алан Тейлор, Дэниел Минахан, Дэвид Петрарк
В ролях: Шон Бин, Лена Хиди, Питер Динклейдж, Йен Глен, Мишель Фэйрли, Чарльз Дэнс, Эмилия Кларк, Гарри Ллойд, Марк Эдди, Джеймс Космо, Питер Вон, Кит Харингтон и мн. др.
Описание: К концу подходит время благоденствия, и лето, длившееся несколько десятилетий, угасает. Вокруг средоточия власти Семи королевств, Железного трона, зреет заговор, и в это непростое время король решает искать поддержки у друга юности Эддарда Старка. Между тем, никто не замечает пробуждение тьмы из легенд далеко на Севере — и лишь Стена защищает живых к югу от нее.
Здесь любой может получить нож в спину, и в тоже самое время — последний мерзавец способен на благородный шаг. Между пламенем навсегда ушедших из мира драконов и ледяной Стеной, что воздвигнута забытой магией, разворачивается «Игра престолов» — долгожданная экранизация культовой саги Джорджа Р.Р. Мартина «Песнь льда и пламени».
Ссылка на предыдущие и альтернативные раздачи | Сэмпл
Качество: Blu-ray disc
Контейнер: BDMV
Видео: MPEG-4 AVC Video 25991 kbps 1080p / 23,976 fps / 16:9 / High Profile 4.1
Аудио: DTS Audio Russian 5.1 / 48 kHz / 768 kbps / 24-bit
Аудио 2: DTS-HD Master Audio English 5.1 / 48 kHz / 4069 kbps / 24-bit (DTS Core: 5.1 / 48 kHz / 1509 kbps / 24-bit)
Аудио 3: DTS Audio English 5.1 / 48 kHz / 768 kbps / 24-bit
Аудио 4: DTS Audio Czech 2.0 / 48 kHz / 768 kbps / 24-bit
Аудио 5: DTS Audio Hungarian 2.0 / 48 kHz / 768 kbps / 24-bit
Аудио 6: DTS Audio Portuguese 2.0 / 48 kHz / 768 kbps / 24-bit
Аудио 7: DTS Express English 2.0 / 48 kHz / 192 kbps / 24-bit
Субтитры: Английский, Китайский, Хорватский, Чешский, Греческий, Иврит, Венгерский, Корейский, Португальский, Румынский, Русский, Словенский, Тайский, Турецкий
Список серий
01. Winter Is Coming | Зима близко
02. The Kingsroad | Королевский тракт
03. Lord Snow | Лорд Сноу
04. Cripples, Bastards, and Broken Things | Калеки, бастарды и сломанные вещи
05. The Wolf and the Lion | Волк и Лев
06. A Golden Crown | Золотая корона
07. You Win or You Die | Ты побеждаешь или погибаешь
08. The Pointy End | Острый конец
09. Baelor | Бэйлор
10. Fire and Blood | Пламя и кровь
BDInfo
BDInfo Report: Disc 1
DISC INFO:
Disc Title: Game.of.Thrones.S01.Disc01.HK.Blu-ray.1080p.AVC.DTS-HD.MA.5.1-TTG
Disc Size: 46 782 659 207 bytes
Protection: AACS
BD-Java: Yes
BDInfo: 0.5.8
PLAYLIST REPORT:
Name: 00820.MPLS
Length: 1:01:37.151 (h:m:s.ms)
Size: 17 399 187 456 bytes
Total Bitrate: 37,65 Mbps
VIDEO:
Codec Bitrate Description
----- ------- -----------
MPEG-4 AVC Video 25991 kbps 1080p / 23,976 fps / 16:9 / High Profile 4.1
MPEG-4 AVC Video 1000 kbps 480p / 23,976 fps / 16:9 / High Profile 3.2
AUDIO:
Codec Language Bitrate Description
----- -------- ------- -----------
DTS-HD Master Audio English 4069 kbps 5.1 / 48 kHz / 4069 kbps / 24-bit (DTS Core: 5.1 / 48 kHz / 1509 kbps / 24-bit)
DTS Audio English 768 kbps 5.1 / 48 kHz / 768 kbps / 24-bit
DTS Audio Russian 768 kbps 5.1 / 48 kHz / 768 kbps / 24-bit
DTS Audio Czech 768 kbps 2.0 / 48 kHz / 768 kbps / 24-bit
DTS Audio Hungarian 768 kbps 2.0 / 48 kHz / 768 kbps / 24-bit
DTS Audio Portuguese 768 kbps 2.0 / 48 kHz / 768 kbps / 24-bit
DTS Express English 192 kbps 2.0 / 48 kHz / 192 kbps / 24-bit
SUBTITLES:
Codec Language Bitrate Description
----- -------- ------- -----------
Presentation Graphics English 33,001 kbps
Presentation Graphics Chinese 18,883 kbps
Presentation Graphics Croatian 21,465 kbps
Presentation Graphics Czech 22,333 kbps
Presentation Graphics Greek 27,612 kbps
Presentation Graphics Hebrew 15,196 kbps
Presentation Graphics Hungarian 23,378 kbps
Presentation Graphics Korean 15,065 kbps
Presentation Graphics Portuguese 27,569 kbps
Presentation Graphics Portuguese 25,442 kbps
Presentation Graphics Romanian 22,898 kbps
Presentation Graphics Russian 23,022 kbps
Presentation Graphics Slovenian 21,124 kbps
Presentation Graphics Thai 19,009 kbps
Presentation Graphics Turkish 24,742 kbps
FILES:
Name Time In Length Size Total Bitrate
---- ------- ------ ---- -------------
01018.M2TS 0:00:00.000 1:01:37.151 17 399 187 456 37 649
PLAYLIST REPORT:
Name: 00821.MPLS
Length: 0:55:17.355 (h:m:s.ms)
Size: 15 535 583 232 bytes
Total Bitrate: 37,46 Mbps
VIDEO:
Codec Bitrate Description
----- ------- -----------
MPEG-4 AVC Video 25985 kbps 1080p / 23,976 fps / 16:9 / High Profile 4.1
MPEG-4 AVC Video 1000 kbps 480p / 23,976 fps / 16:9 / High Profile 3.2
AUDIO:
Codec Language Bitrate Description
----- -------- ------- -----------
DTS-HD Master Audio English 3834 kbps 5.1 / 48 kHz / 3834 kbps / 24-bit (DTS Core: 5.1 / 48 kHz / 1509 kbps / 24-bit)
DTS Audio English 768 kbps 5.1 / 48 kHz / 768 kbps / 24-bit
DTS Audio Russian 768 kbps 5.1 / 48 kHz / 768 kbps / 24-bit
DTS Audio Czech 768 kbps 2.0 / 48 kHz / 768 kbps / 24-bit
DTS Audio Hungarian 768 kbps 2.0 / 48 kHz / 768 kbps / 24-bit
DTS Audio Portuguese 768 kbps 2.0 / 48 kHz / 768 kbps / 24-bit
DTS Express English 192 kbps 2.0 / 48 kHz / 192 kbps / 24-bit
SUBTITLES:
Codec Language Bitrate Description
----- -------- ------- -----------
Presentation Graphics English 38,169 kbps
Presentation Graphics Chinese 22,086 kbps
Presentation Graphics Croatian 24,771 kbps
Presentation Graphics Czech 26,060 kbps
Presentation Graphics Greek 32,908 kbps
Presentation Graphics Hebrew 18,222 kbps
Presentation Graphics Hungarian 27,768 kbps
Presentation Graphics Korean 18,228 kbps
Presentation Graphics Portuguese 35,852 kbps
Presentation Graphics Portuguese 30,171 kbps
Presentation Graphics Romanian 24,398 kbps
Presentation Graphics Russian 27,492 kbps
Presentation Graphics Slovenian 24,436 kbps
Presentation Graphics Thai 22,126 kbps
Presentation Graphics Turkish 29,250 kbps
FILES:
Name Time In Length Size Total Bitrate
---- ------- ------ ---- -------------
00002.M2TS 0:00:00.000 0:55:17.355 15 535 583 232 37 465
BDInfo Report: Disc 2
DISC INFO:
Disc Title: Game.of.Thrones.S01.Disc02.HK.Blu-ray.1080p.AVC.DTS-HD.MA.5.1-TTG
Disc Size: 47 585 223 096 bytes
Protection: AACS
BD-Java: Yes
BDInfo: 0.5.8
PLAYLIST REPORT:
Name: 00822.MPLS
Length: 0:57:14.097 (h:m:s.ms)
Size: 12 874 500 096 bytes
Total Bitrate: 29,99 Mbps
VIDEO:
Codec Bitrate Description
----- ------- -----------
MPEG-4 AVC Video 18494 kbps 1080p / 23,976 fps / 16:9 / High Profile 4.1
MPEG-4 AVC Video 1000 kbps 480p / 23,976 fps / 16:9 / High Profile 3.2
AUDIO:
Codec Language Bitrate Description
----- -------- ------- -----------
DTS-HD Master Audio English 4009 kbps 5.1 / 48 kHz / 4009 kbps / 24-bit (DTS Core: 5.1 / 48 kHz / 1509 kbps / 24-bit)
DTS Audio English 768 kbps 5.1 / 48 kHz / 768 kbps / 24-bit
DTS Audio Russian 768 kbps 5.1 / 48 kHz / 768 kbps / 24-bit
DTS Audio Czech 768 kbps 2.0 / 48 kHz / 768 kbps / 24-bit
DTS Audio Hungarian 768 kbps 2.0 / 48 kHz / 768 kbps / 24-bit
DTS Audio Portuguese 768 kbps 2.0 / 48 kHz / 768 kbps / 24-bit
DTS Express English 192 kbps 2.0 / 48 kHz / 192 kbps / 24-bit
SUBTITLES:
Codec Language Bitrate Description
----- -------- ------- -----------
Presentation Graphics English 50,726 kbps
Presentation Graphics Chinese 29,026 kbps
Presentation Graphics Croatian 33,364 kbps
Presentation Graphics Czech 35,789 kbps
Presentation Graphics Greek 44,144 kbps
Presentation Graphics Hebrew 24,866 kbps
Presentation Graphics Hungarian 37,751 kbps
Presentation Graphics Korean 24,882 kbps
Presentation Graphics Portuguese 48,823 kbps
Presentation Graphics Portuguese 40,119 kbps
Presentation Graphics Romanian 38,879 kbps
Presentation Graphics Russian 38,529 kbps
Presentation Graphics Slovenian 33,249 kbps
Presentation Graphics Thai 29,688 kbps
Presentation Graphics Turkish 39,234 kbps
FILES:
Name Time In Length Size Total Bitrate
---- ------- ------ ---- -------------
00002.M2TS 0:00:00.000 0:57:14.097 12 874 500 096 29 992
PLAYLIST REPORT:
Name: 00823.MPLS
Length: 0:55:37.792 (h:m:s.ms)
Size: 12 466 821 120 bytes
Total Bitrate: 29,88 Mbps
VIDEO:
Codec Bitrate Description
----- ------- -----------
MPEG-4 AVC Video 18494 kbps 1080p / 23,976 fps / 16:9 / High Profile 4.1
MPEG-4 AVC Video 1000 kbps 480p / 23,976 fps / 16:9 / High Profile 3.2
AUDIO:
Codec Language Bitrate Description
----- -------- ------- -----------
DTS-HD Master Audio English 3853 kbps 5.1 / 48 kHz / 3853 kbps / 24-bit (DTS Core: 5.1 / 48 kHz / 1509 kbps / 24-bit)
DTS Audio English 768 kbps 5.1 / 48 kHz / 768 kbps / 24-bit
DTS Audio Russian 768 kbps 5.1 / 48 kHz / 768 kbps / 24-bit
DTS Audio Czech 768 kbps 2.0 / 48 kHz / 768 kbps / 24-bit
DTS Audio Hungarian 768 kbps 2.0 / 48 kHz / 768 kbps / 24-bit
DTS Audio Portuguese 768 kbps 2.0 / 48 kHz / 768 kbps / 24-bit
DTS Express English 192 kbps 2.0 / 48 kHz / 192 kbps / 24-bit
SUBTITLES:
Codec Language Bitrate Description
----- -------- ------- -----------
Presentation Graphics English 54,887 kbps
Presentation Graphics Chinese 31,579 kbps
Presentation Graphics Croatian 35,949 kbps
Presentation Graphics Czech 48,359 kbps
Presentation Graphics Greek 47,227 kbps
Presentation Graphics Hebrew 26,797 kbps
Presentation Graphics Hungarian 41,019 kbps
Presentation Graphics Korean 27,403 kbps
Presentation Graphics Portuguese 53,314 kbps
Presentation Graphics Portuguese 43,851 kbps
Presentation Graphics Romanian 35,484 kbps
Presentation Graphics Russian 41,512 kbps
Presentation Graphics Slovenian 35,175 kbps
Presentation Graphics Thai 32,197 kbps
Presentation Graphics Turkish 42,646 kbps
FILES:
Name Time In Length Size Total Bitrate
---- ------- ------ ---- -------------
00003.M2TS 0:00:00.000 0:55:37.792 12 466 821 120 29 880
PLAYLIST REPORT:
Name: 00824.MPLS
Length: 0:54:16.503 (h:m:s.ms)
Size: 11 340 435 456 bytes
Total Bitrate: 27,86 Mbps
VIDEO:
Codec Bitrate Description
----- ------- -----------
MPEG-4 AVC Video 18492 kbps 1080p / 23,976 fps / 16:9 / High Profile 4.1
AUDIO:
Codec Language Bitrate Description
----- -------- ------- -----------
DTS-HD Master Audio English 3950 kbps 5.1 / 48 kHz / 3950 kbps / 24-bit (DTS Core: 5.1 / 48 kHz / 1509 kbps / 24-bit)
DTS Audio Russian 768 kbps 5.1 / 48 kHz / 768 kbps / 24-bit
DTS Audio Czech 768 kbps 2.0 / 48 kHz / 768 kbps / 24-bit
DTS Audio Hungarian 768 kbps 2.0 / 48 kHz / 768 kbps / 24-bit
DTS Audio Portuguese 768 kbps 2.0 / 48 kHz / 768 kbps / 24-bit
SUBTITLES:
Codec Language Bitrate Description
----- -------- ------- -----------
Presentation Graphics English 55,797 kbps
Presentation Graphics Chinese 32,643 kbps
Presentation Graphics Croatian 36,212 kbps
Presentation Graphics Czech 49,232 kbps
Presentation Graphics Greek 47,659 kbps
Presentation Graphics Hebrew 27,298 kbps
Presentation Graphics Hungarian 42,454 kbps
Presentation Graphics Korean 28,034 kbps
Presentation Graphics Portuguese 54,194 kbps
Presentation Graphics Portuguese 44,660 kbps
Presentation Graphics Romanian 42,827 kbps
Presentation Graphics Russian 41,891 kbps
Presentation Graphics Slovenian 35,666 kbps
Presentation Graphics Thai 33,029 kbps
Presentation Graphics Turkish 43,360 kbps
FILES:
Name Time In Length Size Total Bitrate
---- ------- ------ ---- -------------
00004.M2TS 0:00:00.000 0:54:16.503 11 340 435 456 27 859
BDInfo Report: Disc 3
DISC INFO:
Disc Title: Game.of.Thrones.S01.Disc03.HK.Blu-ray.1080p.AVC.DTS-HD.MA.5.1-TTG
Disc Size: 44 528 013 572 bytes
Protection: AACS
BD-Java: Yes
BDInfo: 0.5.8
PLAYLIST REPORT:
Name: 00825.MPLS
Length: 0:52:36.820 (h:m:s.ms)
Size: 16 530 468 864 bytes
Total Bitrate: 41,89 Mbps
VIDEO:
Codec Bitrate Description
----- ------- -----------
MPEG-4 AVC Video 29994 kbps 1080p / 23,976 fps / 16:9 / High Profile 4.1
MPEG-4 AVC Video 1000 kbps 480p / 23,976 fps / 16:9 / High Profile 3.2
AUDIO:
Codec Language Bitrate Description
----- -------- ------- -----------
DTS-HD Master Audio English 4039 kbps 5.1 / 48 kHz / 4039 kbps / 24-bit (DTS Core: 5.1 / 48 kHz / 1509 kbps / 24-bit)
DTS Audio English 768 kbps 5.1 / 48 kHz / 768 kbps / 24-bit
DTS Audio Russian 768 kbps 5.1 / 48 kHz / 768 kbps / 24-bit
DTS Audio Czech 768 kbps 2.0 / 48 kHz / 768 kbps / 24-bit
DTS Audio Hungarian 768 kbps 2.0 / 48 kHz / 768 kbps / 24-bit
DTS Audio Portuguese 768 kbps 2.0 / 48 kHz / 768 kbps / 24-bit
DTS Express English 192 kbps 2.0 / 48 kHz / 192 kbps / 24-bit
SUBTITLES:
Codec Language Bitrate Description
----- -------- ------- -----------
Presentation Graphics English 40,928 kbps
Presentation Graphics Chinese 23,396 kbps
Presentation Graphics Croatian 26,699 kbps
Presentation Graphics Czech 27,537 kbps
Presentation Graphics Greek 34,230 kbps
Presentation Graphics Hebrew 19,561 kbps
Presentation Graphics Hungarian 30,497 kbps
Presentation Graphics Korean 19,596 kbps
Presentation Graphics Portuguese 38,228 kbps
Presentation Graphics Portuguese 31,994 kbps
Presentation Graphics Romanian 25,374 kbps
Presentation Graphics Russian 29,486 kbps
Presentation Graphics Slovenian 25,918 kbps
Presentation Graphics Thai 23,595 kbps
Presentation Graphics Turkish 30,691 kbps
FILES:
Name Time In Length Size Total Bitrate
---- ------- ------ ---- -------------
00002.M2TS 0:00:00.000 0:52:36.820 16 530 468 864 41 891
BDInfo Report: Disc 4
DISC INFO:
Disc Title: Game.of.Thrones.S01.Disc04.HK.Blu-ray.1080p.AVC.DTS-HD.MA.5.1-TTG
Disc Size: 47 126 825 390 bytes
Protection: AACS
BD-Java: Yes
BDInfo: 0.5.8
PLAYLIST REPORT:
Name: 00827.MPLS
Length: 0:58:08.151 (h:m:s.ms)
Size: 13 062 875 136 bytes
Total Bitrate: 29,96 Mbps
VIDEO:
Codec Bitrate Description
----- ------- -----------
MPEG-4 AVC Video 18497 kbps 1080p / 23,976 fps / 16:9 / High Profile 4.1
MPEG-4 AVC Video 1000 kbps 480p / 23,976 fps / 16:9 / High Profile 3.2
AUDIO:
Codec Language Bitrate Description
----- -------- ------- -----------
DTS-HD Master Audio English 4043 kbps 5.1 / 48 kHz / 4043 kbps / 24-bit (DTS Core: 5.1 / 48 kHz / 1509 kbps / 24-bit)
DTS Audio English 768 kbps 5.1 / 48 kHz / 768 kbps / 24-bit
DTS Audio Russian 768 kbps 5.1 / 48 kHz / 768 kbps / 24-bit
DTS Audio Czech 768 kbps 2.0 / 48 kHz / 768 kbps / 24-bit
DTS Audio Hungarian 768 kbps 2.0 / 48 kHz / 768 kbps / 24-bit
DTS Audio Portuguese 768 kbps 2.0 / 48 kHz / 768 kbps / 24-bit
DTS Express English 192 kbps 2.0 / 48 kHz / 192 kbps / 24-bit
SUBTITLES:
Codec Language Bitrate Description
----- -------- ------- -----------
Presentation Graphics English 44,792 kbps
Presentation Graphics Chinese 26,617 kbps
Presentation Graphics Croatian 29,890 kbps
Presentation Graphics Czech 31,895 kbps
Presentation Graphics Greek 39,108 kbps
Presentation Graphics Hebrew 21,758 kbps
Presentation Graphics Hungarian 34,692 kbps
Presentation Graphics Korean 22,541 kbps
Presentation Graphics Portuguese 44,384 kbps
Presentation Graphics Portuguese 36,521 kbps
Presentation Graphics Romanian 29,305 kbps
Presentation Graphics Russian 33,010 kbps
Presentation Graphics Slovenian 29,889 kbps
Presentation Graphics Thai 26,279 kbps
Presentation Graphics Turkish 35,277 kbps
FILES:
Name Time In Length Size Total Bitrate
---- ------- ------ ---- -------------
00003.M2TS 0:00:00.000 0:58:08.151 13 062 875 136 29 959
PLAYLIST REPORT:
Name: 00826.MPLS
Length: 0:57:47.130 (h:m:s.ms)
Size: 12 043 284 480 bytes
Total Bitrate: 27,79 Mbps
VIDEO:
Codec Bitrate Description
----- ------- -----------
MPEG-4 AVC Video 18499 kbps 1080p / 23,976 fps / 16:9 / High Profile 4.1
AUDIO:
Codec Language Bitrate Description
----- -------- ------- -----------
DTS-HD Master Audio English 3954 kbps 5.1 / 48 kHz / 3954 kbps / 24-bit (DTS Core: 5.1 / 48 kHz / 1509 kbps / 24-bit)
DTS Audio Russian 768 kbps 5.1 / 48 kHz / 768 kbps / 24-bit
DTS Audio Czech 768 kbps 2.0 / 48 kHz / 768 kbps / 24-bit
DTS Audio Hungarian 768 kbps 2.0 / 48 kHz / 768 kbps / 24-bit
DTS Audio Portuguese 768 kbps 2.0 / 48 kHz / 768 kbps / 24-bit
SUBTITLES:
Codec Language Bitrate Description
----- -------- ------- -----------
Presentation Graphics English 48,435 kbps
Presentation Graphics Chinese 28,825 kbps
Presentation Graphics Croatian 33,053 kbps
Presentation Graphics Czech 33,870 kbps
Presentation Graphics Greek 42,605 kbps
Presentation Graphics Hebrew 23,638 kbps
Presentation Graphics Hungarian 38,285 kbps
Presentation Graphics Korean 24,398 kbps
Presentation Graphics Portuguese 47,327 kbps
Presentation Graphics Portuguese 39,247 kbps
Presentation Graphics Romanian 36,584 kbps
Presentation Graphics Russian 37,042 kbps
Presentation Graphics Slovenian 32,577 kbps
Presentation Graphics Thai 29,822 kbps
Presentation Graphics Turkish 38,826 kbps
FILES:
Name Time In Length Size Total Bitrate
---- ------- ------ ---- -------------
00002.M2TS 0:00:00.000 0:57:47.130 12 043 284 480 27 788
PLAYLIST REPORT:
Name: 00828.MPLS
Length: 0:56:16.247 (h:m:s.ms)
Size: 11 695 085 568 bytes
Total Bitrate: 27,71 Mbps
VIDEO:
Codec Bitrate Description
----- ------- -----------
MPEG-4 AVC Video 18406 kbps 1080p / 23,976 fps / 16:9 / High Profile 4.1
AUDIO:
Codec Language Bitrate Description
----- -------- ------- -----------
DTS-HD Master Audio English 4020 kbps 5.1 / 48 kHz / 4020 kbps / 24-bit (DTS Core: 5.1 / 48 kHz / 1509 kbps / 24-bit)
DTS Audio Russian 768 kbps 5.1 / 48 kHz / 768 kbps / 24-bit
DTS Audio Czech 768 kbps 2.0 / 48 kHz / 768 kbps / 24-bit
DTS Audio Hungarian 768 kbps 2.0 / 48 kHz / 768 kbps / 24-bit
DTS Audio Portuguese 768 kbps 2.0 / 48 kHz / 768 kbps / 24-bit
SUBTITLES:
Codec Language Bitrate Description
----- -------- ------- -----------
Presentation Graphics English 45,649 kbps
Presentation Graphics Chinese 26,553 kbps
Presentation Graphics Croatian 30,202 kbps
Presentation Graphics Czech 31,666 kbps
Presentation Graphics Greek 39,431 kbps
Presentation Graphics Hebrew 21,722 kbps
Presentation Graphics Hungarian 35,299 kbps
Presentation Graphics Korean 22,479 kbps
Presentation Graphics Portuguese 44,076 kbps
Presentation Graphics Portuguese 36,719 kbps
Presentation Graphics Romanian 33,592 kbps
Presentation Graphics Russian 33,675 kbps
Presentation Graphics Slovenian 29,856 kbps
Presentation Graphics Thai 26,214 kbps
Presentation Graphics Turkish 34,747 kbps
FILES:
Name Time In Length Size Total Bitrate
---- ------- ------ ---- -------------
00004.M2TS 0:00:00.000 0:56:16.247 11 695 085 568 27 711
BDInfo Report: Disc 5
DISC INFO:
Disc Title: Game.of.Thrones.S01.Disc05.HK.Blu-ray.1080p.AVC.DTS-HD.MA.5.1-TTG
Disc Size: 41 453 326 908 bytes
Protection: AACS
BD-Java: Yes
BDInfo: 0.5.8
PLAYLIST REPORT:
Name: 00829.MPLS
Length: 0:52:37.195 (h:m:s.ms)
Size: 16 522 905 600 bytes
Total Bitrate: 41,87 Mbps
VIDEO:
Codec Bitrate Description
----- ------- -----------
MPEG-4 AVC Video 30000 kbps 1080p / 23,976 fps / 16:9 / High Profile 4.1
MPEG-4 AVC Video 1000 kbps 480p / 23,976 fps / 16:9 / High Profile 3.2
AUDIO:
Codec Language Bitrate Description
----- -------- ------- -----------
DTS-HD Master Audio English 3995 kbps 5.1 / 48 kHz / 3995 kbps / 24-bit (DTS Core: 5.1 / 48 kHz / 1509 kbps / 24-bit)
DTS Audio English 768 kbps 5.1 / 48 kHz / 768 kbps / 24-bit
DTS Audio Russian 768 kbps 5.1 / 48 kHz / 768 kbps / 24-bit
DTS Audio Czech 768 kbps 2.0 / 48 kHz / 768 kbps / 24-bit
DTS Audio Hungarian 768 kbps 2.0 / 48 kHz / 768 kbps / 24-bit
DTS Audio Portuguese 768 kbps 2.0 / 48 kHz / 768 kbps / 24-bit
DTS Express English 192 kbps 2.0 / 48 kHz / 192 kbps / 24-bit
SUBTITLES:
Codec Language Bitrate Description
----- -------- ------- -----------
Presentation Graphics English 42,241 kbps
Presentation Graphics Chinese 24,444 kbps
Presentation Graphics Croatian 27,505 kbps
Presentation Graphics Czech 35,091 kbps
Presentation Graphics Greek 35,711 kbps
Presentation Graphics Hebrew 20,144 kbps
Presentation Graphics Hungarian 31,791 kbps
Presentation Graphics Korean 20,624 kbps
Presentation Graphics Portuguese 30,729 kbps
Presentation Graphics Portuguese 33,351 kbps
Presentation Graphics Romanian 26,481 kbps
Presentation Graphics Russian 30,883 kbps
Presentation Graphics Slovenian 27,290 kbps
Presentation Graphics Thai 24,834 kbps
Presentation Graphics Turkish 32,647 kbps
FILES:
Name Time In Length Size Total Bitrate
---- ------- ------ ---- -------------
00002.M2TS 0:00:00.000 0:52:37.195 16 522 905 600 41 867
MediaInfo
General
ID : 0 (0x0)
Complete name : Z:\TMP\Game.of.Thrones.S01.HK.Blu-ray.1080p.AVC.DTS-HD.MA.5.1\D1\BDMV\STREAM\01018.m2ts
Format : BDAV
Format/Info : Blu-ray Video
File size : 16.2 GiB
Duration : 1h 1mn
Overall bit rate mode : Variable
Overall bit rate : 37.6 Mbps
Maximum Overall bit rate : 48.0 Mbps
Video #1
ID : 4113 (0x1011)
Menu ID : 1 (0x1)
Format : AVC
Format/Info : Advanced Video Codec
Format profile : [email protected]
Format settings, CABAC : Yes
Format settings, ReFrames : 4 frames
Codec ID : 27
Duration : 1h 1mn
Bit rate mode : Variable
Maximum bit rate : 35.0 Mbps
Width : 1 920 pixels
Height : 1 080 pixels
Display aspect ratio : 16:9
Frame rate : 23.976 (24000/1001) fps
Color space : YUV
Chroma subsampling : 4:2:0
Bit depth : 8 bits
Scan type : Progressive
Video #2
ID : 6912 (0x1B00)
Menu ID : 1 (0x1)
Format : AVC
Format/Info : Advanced Video Codec
Format profile : [email protected]
Format settings, CABAC : Yes
Format settings, ReFrames : 4 frames
Format settings, GOP : M=3, N=12
Codec ID : 27
Duration : 1h 1mn
Bit rate mode : Constant
Nominal bit rate : 1 000 Kbps
Width : 720 pixels
Height : 480 pixels
Display aspect ratio : 16:9
Frame rate : 23.976 (24000/1001) fps
Color space : YUV
Chroma subsampling : 4:2:0
Bit depth : 8 bits
Scan type : Progressive
Bits/(Pixel*Frame) : 0.121
Audio #1
ID : 4352 (0x1100)
Menu ID : 1 (0x1)
Format : DTS
Format/Info : Digital Theater Systems
Format profile : MA / Core
Mode : 16
Format settings, Endianness : Big
Muxing mode : Stream extension
Codec ID : 134
Duration : 1h 1mn
Bit rate mode : Variable / Constant
Bit rate : Unknown / 1 509 Kbps
Channel(s) : 6 channels
Channel positions : Front: L C R, Side: L R, LFE
Sampling rate : 48.0 KHz
Frame rate : 93.750 fps (512 spf)
Bit depth : 24 bits
Compression mode : Lossless / Lossy
Audio #2
ID : 4353 (0x1101)
Menu ID : 1 (0x1)
Format : DTS
Format/Info : Digital Theater Systems
Mode : 16
Format settings, Endianness : Big
Codec ID : 130
Duration : 1h 1mn
Bit rate mode : Constant
Bit rate : 768 Kbps
Channel(s) : 6 channels
Channel positions : Front: L C R, Side: L R, LFE
Sampling rate : 48.0 KHz
Frame rate : 93.750 fps (512 spf)
Bit depth : 24 bits
Compression mode : Lossy
Stream size : 338 MiB (2%)
Audio #3
ID : 4354 (0x1102)
Menu ID : 1 (0x1)
Format : DTS
Format/Info : Digital Theater Systems
Mode : 16
Format settings, Endianness : Big
Codec ID : 130
Duration : 1h 1mn
Bit rate mode : Constant
Bit rate : 768 Kbps
Channel(s) : 2 channels
Channel positions : Front: L R
Sampling rate : 48.0 KHz
Frame rate : 93.750 fps (512 spf)
Bit depth : 24 bits
Compression mode : Lossy
Stream size : 338 MiB (2%)
Audio #4
ID : 4355 (0x1103)
Menu ID : 1 (0x1)
Format : DTS
Format/Info : Digital Theater Systems
Mode : 16
Format settings, Endianness : Big
Codec ID : 130
Duration : 1h 1mn
Bit rate mode : Constant
Bit rate : 768 Kbps
Channel(s) : 2 channels
Channel positions : Front: L R
Sampling rate : 48.0 KHz
Frame rate : 93.750 fps (512 spf)
Bit depth : 24 bits
Compression mode : Lossy
Stream size : 338 MiB (2%)
Audio #5
ID : 4356 (0x1104)
Menu ID : 1 (0x1)
Format : DTS
Format/Info : Digital Theater Systems
Mode : 16
Format settings, Endianness : Big
Codec ID : 130
Duration : 1h 1mn
Bit rate mode : Constant
Bit rate : 768 Kbps
Channel(s) : 2 channels
Channel positions : Front: L R
Sampling rate : 48.0 KHz
Frame rate : 93.750 fps (512 spf)
Bit depth : 24 bits
Compression mode : Lossy
Stream size : 338 MiB (2%)
Audio #6
ID : 4357 (0x1105)
Menu ID : 1 (0x1)
Format : DTS
Format/Info : Digital Theater Systems
Mode : 16
Format settings, Endianness : Big
Codec ID : 130
Duration : 1h 1mn
Bit rate mode : Constant
Bit rate : 768 Kbps
Channel(s) : 6 channels
Channel positions : Front: L C R, Side: L R, LFE
Sampling rate : 48.0 KHz
Frame rate : 93.750 fps (512 spf)
Bit depth : 24 bits
Compression mode : Lossy
Stream size : 338 MiB (2%)
Audio #7
ID : 6656 (0x1A00)
Menu ID : 1 (0x1)
Format : DTS
Format/Info : Digital Theater Systems
Format profile : Express
Mode : 16
Format settings, Endianness : Big
Codec ID : 162
Duration : 1h 1mn
Bit rate mode : Constant
Bit rate : 192 Kbps
Channel(s) : 2 channels
Channel positions : Front: L R
Sampling rate : 48.0 KHz
Bit depth : 24 bits
Compression mode : Lossy
Stream size : 84.6 MiB (1%)
Text #1
ID : 4608 (0x1200)
Menu ID : 1 (0x1)
Format : PGS
Codec ID : 144
Delay relative to video : 10s 552ms
Text #2
ID : 4609 (0x1201)
Menu ID : 1 (0x1)
Format : PGS
Codec ID : 144
Text #3
ID : 4610 (0x1202)
Menu ID : 1 (0x1)
Format : PGS
Codec ID : 144
Text #4
ID : 4611 (0x1203)
Menu ID : 1 (0x1)
Format : PGS
Codec ID : 144
Text #5
ID : 4612 (0x1204)
Menu ID : 1 (0x1)
Format : PGS
Codec ID : 144
Text #6
ID : 4613 (0x1205)
Menu ID : 1 (0x1)
Format : PGS
Codec ID : 144
Text #7
ID : 4614 (0x1206)
Menu ID : 1 (0x1)
Format : PGS
Codec ID : 144
Text #8
ID : 4615 (0x1207)
Menu ID : 1 (0x1)
Format : PGS
Codec ID : 144
Text #9
ID : 4616 (0x1208)
Menu ID : 1 (0x1)
Format : PGS
Codec ID : 144
Text #10
ID : 4617 (0x1209)
Menu ID : 1 (0x1)
Format : PGS
Codec ID : 144
Text #11
ID : 4618 (0x120A)
Menu ID : 1 (0x1)
Format : PGS
Codec ID : 144
Text #12
ID : 4619 (0x120B)
Menu ID : 1 (0x1)
Format : PGS
Codec ID : 144
Text #13
ID : 4620 (0x120C)
Menu ID : 1 (0x1)
Format : PGS
Codec ID : 144
Text #14
ID : 4621 (0x120D)
Menu ID : 1 (0x1)
Format : PGS
Codec ID : 144
Text #15
ID : 4622 (0x120E)
Menu ID : 1 (0x1)
Format : PGS
Codec ID : 144
Скриншоты
Download
Для скачивания .torrent файлов необходима регистрация
Сайт не распространяет и не хранит электронные версии произведений, а лишь предоставляет доступ к создаваемому пользователями каталогу ссылок на торрент-файлы, которые содержат только списки хеш-сумм
[Профиль]  [ЛС] 

klopok

Стаж: 10 лет

Сообщений: 9


klopok · 19-Авг-16 13:17 (спустя 1 месяц 2 дня)

[Цитировать] 

Я извиняюсь, но неужели никто не заметил, что дубляж ДТС полное гавно (простите)? Звук как из под воды, да еще и английский постоянно пробивается. За раздачу спасибо, конечно, но так смотреть НЕВОЗМОЖНО.
[Профиль]  [ЛС] 

Dr.Manhattan

Стаж: 10 лет 4 месяца

Сообщений: 134

Dr.Manhattan · 21-Авг-16 19:27 (спустя 2 дня 6 часов)

[Цитировать] 

Цитата:
Я извиняюсь, но неужели никто не заметил, что дубляж ДТС полное гавно (простите)? Звук как из под воды, да еще и английский постоянно пробивается. За раздачу спасибо, конечно, но так смотреть НЕВОЗМОЖНО.
Я только сегодня заметил, когда начал пересматривать сериал. Это получается на оригинальном диске такой паршивый звук? Или в формате дело? Я и на компе и на домашнем кинотеатре перепроверял. Он как будто искажен.
[Профиль]  [ЛС] 

Mearas

Top Loader 03* 600GB

Стаж: 8 лет 2 месяца

Сообщений: 1473

Mearas · 21-Авг-16 20:28 (спустя 1 час, ред. 22-Авг-16 15:51)

[Цитировать] 

klopok писал(а):
71254583Я извиняюсь, но неужели никто не заметил, что дубляж ДТС полное гавно (простите)?
Я не заметила, ибо смотрю в оригинале)
[Профиль]  [ЛС] 

klopok

Стаж: 10 лет

Сообщений: 9


klopok · 28-Авг-16 19:52 (спустя 6 дней)

[Цитировать] 

Dr.Manhattan Да, на лицензии именно такой звук, и не стыдно продавать такое. Многоголоска намного лучше.
Mearas Смотреть в оригинале - это круто, я так не могу ))
[Профиль]  [ЛС] 

Dr.Manhattan

Стаж: 10 лет 4 месяца

Сообщений: 134

Dr.Manhattan · 29-Авг-16 22:40 (спустя 1 день 2 часа)

[Цитировать] 

Цитата:
Dr.Manhattan Да, на лицензии именно такой звук, и не стыдно продавать такое. Многоголоска намного лучше.
Mearas Смотреть в оригинале - это круто, я так не могу ))
Придется прикручивать дорожки с другой раздачи. А кому как смотреть - это дело привычки.
[Профиль]  [ЛС] 

Mearas

Top Loader 03* 600GB

Стаж: 8 лет 2 месяца

Сообщений: 1473

Mearas · 29-Авг-16 22:43 (спустя 3 мин.)

[Цитировать] 

Dr.Manhattan писал(а):
71316765А кому как смотреть - это дело привычки.
Или просто знания английского языка =)
[Профиль]  [ЛС] 

TILL9

Стаж: 6 лет

Сообщений: 135

TILL9 · 30-Авг-16 23:52 (спустя 1 день 1 час, ред. 30-Авг-16 23:52)

[Цитировать] 

Спасибо за Blu-ray! Давно ждал
Вопрос: Форсированные субтитры отсутствуют на русском языке?
Делаю для себя рип, хотел оставить форсированные субтитры английские и русские, но почему-то русских определяются, но нигде их нет.
И ещё дополнительный вопрос: Кто как считает, в каком контейнере лучше сохранить, mkv (полная копия видео и аудио) или m2ts (тоже полная копия видео и аудио)
[Профиль]  [ЛС] 

Mearas

Top Loader 03* 600GB

Стаж: 8 лет 2 месяца

Сообщений: 1473

Mearas · 31-Авг-16 01:34 (спустя 1 час 41 мин., ред. 31-Авг-16 01:34)

[Цитировать] 

TILL9 писал(а):
71322666Форсированные субтитры отсутствуют на русском языке?
Их нет.
Цитата:
Кто как считает, в каком контейнере лучше сохранить, mkv (полная копия видео и аудио) или m2ts (тоже полная копия видео и аудио)
У меня все сезоны + бонусы сохранены в mkv (ничего не кодировала). Из дорожек и сабов сохранены: оригинальный дубляж, английские-русские субтитры - .sub. Общий вес пяти сезонов с бонусами: 645 гб.
[Профиль]  [ЛС] 

TILL9

Стаж: 6 лет

Сообщений: 135

TILL9 · 31-Авг-16 14:01 (спустя 12 часов)

[Цитировать] 

Mearas писал(а):
71322889
TILL9 писал(а):
71322666Форсированные субтитры отсутствуют на русском языке?
Их нет.
А, вот оно и подтвердилось, спасибо
Mearas писал(а):
71322889
TILL9 писал(а):
71322666Кто как считает, в каком контейнере лучше сохранить, mkv (полная копия видео и аудио) или m2ts (тоже полная копия видео и аудио)
У меня все сезоны + бонусы сохранены в mkv (ничего не кодировала). Из дорожек и сабов сохранены: оригинальный дубляж, английские-русские субтитры - .sub. Общий вес пяти сезонов с бонусами: 645 гб.
Все сезоны... Общий вес пяти сезонов... Всего в Игре Престолов 6 сезонов... Уотсон тут что-то не сходится
[Профиль]  [ЛС] 

Mearas

Top Loader 03* 600GB

Стаж: 8 лет 2 месяца

Сообщений: 1473

Mearas · 31-Авг-16 19:29 (спустя 5 часов, ред. 31-Авг-16 19:29)

[Цитировать] 

TILL9 писал(а):
71325036спасибо
Не за что =)
Цитата:
Все сезоны... Всего в Игре Престолов 6 сезонов... Уотсон тут что-то не сходится
Но если на то пошло, то в «Game of Thrones» больше шести сезонов, просто ещё идут\начнутся съёмки. Сейчас речь не об этом.
Здесь имелось в виду, что на Blu-ray вышло только пять сезонов. Шестой, релиз: 15 ноября этого года.
Вопросы ещё будут? )
[Профиль]  [ЛС] 

TILL9

Стаж: 6 лет

Сообщений: 135

TILL9 · 31-Авг-16 20:16 (спустя 47 мин.)

[Цитировать] 

Mearas
Насчёт того, что снимают, даты выхода сезонов я полностью в курсе, смотрел серии 5-го и 6-го сезона от лостов, в день выхода (первые 4 сезона вышли до того, как я начал Престолы смотреть)
Да, моя оплошность, Херлок Шолмс плох в дедукции
Не заметил что 6-го сезона нет, пока что, на Blu-ray
[Профиль]  [ЛС] 

Mearas

Top Loader 03* 600GB

Стаж: 8 лет 2 месяца

Сообщений: 1473

Mearas · 31-Авг-16 22:02 (спустя 1 час 46 мин., ред. 31-Авг-16 22:02)

[Цитировать] 

TILL9
Эх... надо быть внимательнее =) Ну ладно, с каждым бывает:)
[Профиль]  [ЛС] 

6eJIblu_BoJIK

Стаж: 2 года 6 месяцев

Сообщений: 243


6eJIblu_BoJIK · 10-Сен-16 19:51 (спустя 9 дней)

[Цитировать] 

klopok писал(а):
71310049Да, на лицензии именно такой звук, и не стыдно продавать такое.
у меня бытует такое мнение, что с таким звуком не продавали, это самопальная дорога
[Профиль]  [ЛС] 

klopok

Стаж: 10 лет

Сообщений: 9


klopok · 11-Сен-16 16:13 (спустя 20 часов)

[Цитировать] 

6eJIblu_BoJIK писал(а):
71384840
klopok писал(а):
71310049Да, на лицензии именно такой звук, и не стыдно продавать такое.
у меня бытует такое мнение, что с таким звуком не продавали, это самопальная дорога
Самопал на офф. релизе Blu-ray CEE ?? Сильно сомневаюсь.
[Профиль]  [ЛС] 

vladis_777

Стаж: 7 лет 7 месяцев

Сообщений: 10


vladis_777 · 12-Сен-16 02:12 (спустя 9 часов)

[Цитировать] 

torrent скачан: 1,596 раз и 4 сидера, долго же я буду все сезоны качать
[Профиль]  [ЛС] 

eagles557

Стаж: 8 лет 11 месяцев

Сообщений: 7


eagles557 · 26-Сен-16 14:16 (спустя 14 дней)

[Цитировать] 

Доброго времени суток! Подскажите где можно взять под эту раздачу звуковую дорожку с Lostfilm???
[Профиль]  [ЛС] 

kenibarbi

Стаж: 7 лет

Сообщений: 1


kenibarbi · 30-Сен-16 20:49 (спустя 4 дня)

[Цитировать] 

А как этот после закачки запустить видео? у меня миллион папок разных
Цитата:
71065856Игра престолов / Game of Thrones / Сезон: 1 / Серии: 1-10 из 10 (Томас МакКарти, Брайан Кирк, Тимоти ван Паттен, Алан Тейлор, Дэниел Минахан, Дэвид Петрарк) [2011, фэнтези, драма, приключения, Blu-ray disc 1080p] Dub + Original
[Профиль]  [ЛС] 

TILL9

Стаж: 6 лет

Сообщений: 135

TILL9 · 01-Окт-16 16:16 (спустя 19 часов)

[Цитировать] 

kenibarbi
Используй программы: CyberLink PowerDVD, либо Total Media Theater
[Профиль]  [ЛС] 

gusmusgus

Стаж: 4 года 2 месяца

Сообщений: 1


gusmusgus · 19-Ноя-16 23:42 (спустя 1 месяц 18 дней)

[Цитировать] 

TILL9 писал(а):
71521630kenibarbi
Используй программы: CyberLink PowerDVD, либо Total Media Theater
А нельзя ли с помощью PotPlayer? Просто я скачал, и не могу разобраться как запустить хоть одну серию, кроме первой. Тут есть какая-то менюшка для выбора серий?
[Профиль]  [ЛС] 

TILL9

Стаж: 6 лет

Сообщений: 135

TILL9 · 27-Ноя-16 12:19 (спустя 7 дней)

[Цитировать] 

gusmusgus
Я назвал программы, которые полноценно открывают Blu-ray диски, т.е. с меню и прочими радостями. Насчёт остальных плееров, ничего сказать не могу
[Профиль]  [ЛС] 

The_Wish

Стаж: 9 лет 1 месяц

Сообщений: 17

The_Wish · 02-Янв-17 15:22 (спустя 1 месяц 5 дней, ред. 02-Янв-17 15:22)

[Цитировать] 

- Куча мусорных роликов, непонятно вообще зачем это включали в оригинальный диск, лучше бы концепт-арт добавили или ost.
- Шлаковый рус. дубляж. Срамота.
P.s. Тарантиныч, всё равно большой респект вам за ваши другие раздачи!
[Профиль]  [ЛС] 

High Sith

Стаж: 7 лет 4 месяца

Сообщений: 25


High Sith · 14-Янв-17 06:39 (спустя 11 дней)

[Цитировать] 

Тарантиныч
Приветствую!
Благодарю за шикарные раздачи. Я скачал все выложенные тобой сезоны игры престолов кроме первого. С ним какой то косяк получился. Вчера поставил на закачку. Скачано 198 ГБ из 211 и торрент остановил загрузку, пишет "Ошибка: Ошибка в данных (СRC)".
Очень хотелось бы скачать именно твою раздачу. Как докачать эти 13 ГБ?
[Профиль]  [ЛС] 

TILL9

Стаж: 6 лет

Сообщений: 135

TILL9 · 15-Янв-17 15:50 (спустя 1 день 9 часов)

[Цитировать] 

High Sith
Пробовали перехешировать?
[Профиль]  [ЛС] 

High Sith

Стаж: 7 лет 4 месяца

Сообщений: 25


High Sith · 16-Янв-17 16:58 (спустя 1 день 1 час)

[Цитировать] 

TILL9
я не знаю как это делать. Проблема только с этим файлом , все остальные торренты (а их было сотни) грузятся/грузились нормально. Диск проверил , ошибок не выявлено.
[Профиль]  [ЛС] 

TILL9

Стаж: 6 лет

Сообщений: 135

TILL9 · 22-Янв-17 22:01 (спустя 6 дней)

[Цитировать] 

High Sith
Нажмите Правой Кнопкой Мышки (ПКМ) по Торренту (закачке) и в появившемся окне "Пересчитать хеш".
[Профиль]  [ЛС] 

High Sith

Стаж: 7 лет 4 месяца

Сообщений: 25


High Sith · 30-Янв-17 09:09 (спустя 7 дней)

[Цитировать] 

TILL9
TILL9 писал(а):
72322599High Sith
Нажмите Правой Кнопкой Мышки (ПКМ) по Торренту (закачке) и в появившемся окне "Пересчитать хеш".
Проблема решена, спасибо. Железо глючило. Помогла замена винчестера
[Профиль]  [ЛС] 

TILL9

Стаж: 6 лет

Сообщений: 135

TILL9 · 31-Янв-17 15:33 (спустя 1 день 6 часов)

[Цитировать] 

High Sith
Радикально! Прям как в сериале
[Профиль]  [ЛС] 

High Sith

Стаж: 7 лет 4 месяца

Сообщений: 25


High Sith · 03-Фев-17 11:35 (спустя 2 дня 20 часов)

[Цитировать] 

TILL9
Я по гарантии обменял. Легко быть радикальным если есть 60 месяцев гарантии))) Винчестер был куплен в декабре прошлого года, в Юлмарте. Вначале нормально работал, но как только заполнил его на 40-50% пошли косяки. Все началось с того что я первый сезон Игры престолов загрузить не смог, - собственно то что я в этой теме и написал. А дальше и с другими торрентами пошли подобные проблемы...
[Профиль]  [ЛС] 

TILL9

Стаж: 6 лет

Сообщений: 135

TILL9 · 03-Фев-17 13:09 (спустя 1 час 33 мин.)

[Цитировать] 

High Sith
А, ну тогда понятно
Долгой жизни Вашему новому Винту (ведь ещё, остальные сезоны качать )
[Профиль]  [ЛС] 
 
Ответить
Loading...
Error