Притчи (Виталий Любецкий) [2010, семейный, православное кино, DVDRip-AVC]

Страницы:  1

Ответить
Автор
Сообщение

royalstag

Top Seed 06* 1280r

Стаж: 8 лет 5 месяцев

Сообщений: 1674

royalstag · 27-Дек-16 11:42 (1 год 9 месяцев назад)

Притчи

Жанр: семейный, православное кино
Год выпуска: 2010
Продолжительность: 00:55:35
Режиссёр: Виталий Любецкий
В ролях: Александр Ткачёнок, Михаил Есьман, Алёна Сидорова, Никита Пальчевский, Андрей Волчек, Сергей Новицкий, Василий Ницко, Людмила Жданович
Описание: И, приступив, ученики сказали Ему: для чего притчами говоришь им? (Евангелие от Матфея, глава 13, стих 10) Картина «Притчи» — новое слово в современном православном кинематографе. В каждой из трех частей картины зрителю предложена душеполезная история. Притчи рассказаны по-человечески искренне, с домашней теплотой и юмором. Первая притча «Необычное послушание» заставит вас не только от души посмеяться, но и вместе с незадачливым героем задуматься о грехе гордыни и ценности христианского смирения. «Завтра благословляю тебя идти на кладбище, и как увидишь, что покойника несут — поноси его последними словами», — говорит старец молодому послушнику. После настолько интригующего начала следует не менее интересное продолжение... «Господи! Почему ты не слышишь нас? — вопрошает священник в следующей притче. — Люди ходят в церковь, молятся, но им не становится легче...» Ответ ангела на этот вопрос обескураживает зрителей, которые, в конечном счете, получают важный духовный урок. Эта удивительная история написана в начале XX века святителем Василием Кинешемским. «В одном городе жила женщина, — говорится в третьей части фильма. — Посты соблюдала, Евангелие читала, храм посещала...» И вот однажды подает она милостыню нищей, а та говорит: «К тебе сегодня Христос придет»! Мы так часто заняты собой, что не замечаем, как жизнь проходит мимо. Отворачиваясь друг от друга, мы отдаляемся от Христа. Фильм «Притчи» по-новому открывает уже привычную жизнь, показывая нам самих себя.
Качество видео: DVDRip-AVC
Формат видео: MKV
Видео: AVC, 720x432 (16:9), 25.000 fps, 2 325 Kbps (0.299 bit/pixel)
Аудио: AC-3, 48.0 KHz, 2 ch, 256 Kbps, CBR (Russian)
MediaInfo
General
Unique ID : 174835235729639621127839744538922231741 (0x83880AA527C84AD093B3B26EDC44A7BD)
Complete name : C:\Users\User\Downloads\Притчи.mkv
Format : Matroska
Format version : Version 2
File size : 1.00 GiB
Duration : 55mn 35s
Overall bit rate : 2 583 Kbps
Encoded date : UTC 2016-12-09 20:57:28
Writing application : mkvmerge v7.8.0 ('River Man') 32bit built on Apr 3 2015 12:11:22
Writing library : libebml v1.3.1 + libmatroska v1.4.2
Video
ID : 1
Format : AVC
Format/Info : Advanced Video Codec
Format profile : [email protected]
Format settings, CABAC : Yes
Format settings, ReFrames : 12 frames
Codec ID : V_MPEG4/ISO/AVC
Duration : 55mn 35s
Bit rate : 2 325 Kbps
Width : 720 pixels
Height : 432 pixels
Display aspect ratio : 16:9
Frame rate mode : Constant
Frame rate : 25.000 fps
Color space : YUV
Chroma subsampling : 4:2:0
Bit depth : 8 bits
Scan type : Progressive
Bits/(Pixel*Frame) : 0.299
Stream size : 905 MiB (88%)
Writing library : x264 core 146 r2538 121396c
Encoding settings : cabac=1 / ref=12 / deblock=1:-2:-2 / analyse=0x3:0x133 / me=umh / subme=10 / psy=1 / psy_rd=1.05:0.10 / mixed_ref=1 / me_range=32 / chroma_me=1 / trellis=2 / 8x8dct=1 / cqm=0 / deadzone=21,11 / fast_pskip=0 / chroma_qp_offset=-3 / threads=3 / lookahead_threads=1 / sliced_threads=0 / nr=0 / decimate=0 / interlaced=0 / bluray_compat=0 / constrained_intra=0 / bframes=16 / b_pyramid=2 / b_adapt=2 / b_bias=0 / direct=3 / weightb=1 / open_gop=0 / weightp=2 / keyint=250 / keyint_min=25 / scenecut=40 / intra_refresh=0 / rc=2pass / mbtree=0 / bitrate=2325 / ratetol=1.0 / qcomp=0.63 / qpmin=0 / qpmax=69 / qpstep=4 / cplxblur=20.0 / qblur=0.5 / ip_ratio=1.25 / pb_ratio=1.30 / aq=1:1.00
Language : Russian
Default : Yes
Forced : No
Color primaries : BT.601 PAL
Transfer characteristics : BT.470 System B, BT.470 System G
Matrix coefficients : BT.601
Audio
ID : 2
Format : AC-3
Format/Info : Audio Coding 3
Mode extension : CM (complete main)
Format settings, Endianness : Big
Codec ID : A_AC3
Duration : 55mn 35s
Bit rate mode : Constant
Bit rate : 256 Kbps
Channel(s) : 2 channels
Channel positions : Front: L R
Sampling rate : 48.0 KHz
Bit depth : 16 bits
Compression mode : Lossy
Stream size : 102 MiB (10%)
Language : Russian
Default : Yes
Forced : No
Скриншот c названием фильма
Скриншоты
Download
Для скачивания .torrent файлов необходима регистрация
Сайт не распространяет и не хранит электронные версии произведений, а лишь предоставляет доступ к создаваемому пользователями каталогу ссылок на торрент-файлы, которые содержат только списки хеш-сумм
[Профиль]  [ЛС] 

eggplan7

Стаж: 9 лет 4 месяца

Сообщений: 59


eggplan7 · 29-Май-18 05:38 (спустя 1 год 5 месяцев)

[Цитировать] 

Не могу и тут удержаться от Вашей похвалы)))
Премного Вам благодарны, сударь
Успешных Вам и востребованных новых закачек !!! =)
[Профиль]  [ЛС] 
 
Ответить
Loading...
Error