Притчи 3. Три слова о прощении (монахиня Иоанна (Орлова)) [2012, семейный, православное кино, DVDRip-AVC]

Страницы:  1

Ответить
Автор
Сообщение

royalstag

Top Seed 06* 1280r

Стаж: 8 лет 4 месяца

Сообщений: 1691

royalstag · 05-Фев-17 16:56 (1 год 7 месяцев назад)

Притчи 3. Три слова о прощении
Дата/Год выпуска: 2012
Страна: Россия
Жанр: семейный, православное кино
Продолжительность: 01:06:27
Перевод: Не требуется
Русские субтитры: нет
Оригинальная аудиодорожка: русский
Режиссер: монахиня Иоанна (Орлова)
Описание: Три слова о прощении продолжают серию полюбившихся зрителям фильмов «Притчи». Тема новой трилогии — великая, благодатная сила покаяния и прощения. Сила, способная преобразить душу, возродить человека, вдохновить его на жизнь в Боге. Действие картины разворачивается в XIX веке. Место и время аллегоричны, ведь искушения во все века одни и те же, меняются лишь декорации. В основе первой новеллы случай, описанный в книгах митрополита Вениамина (Федченкова) и Сергия Нилуса. Вор, собираясь украсть, просит помощи у Святителя Николая Чудотворца. Казалось бы, какая нелепая просьба! Но Господь милостив, и Его святой угодник является лично вразумить грешника. Вторая часть трилогии предлагает христианское осмысление проблемы взаимоотношения поколений — стариков и внуков, отцов и детей. Родители маленького мальчика перепутали добро и зло, но чистое дитя, словно зеркало, отражает поведение взрослых. И... пробуждает их совесть. Третья история — экранизация известной восточной притчи. Главный герой много раз ошибался, ломая свою жизнь. Но скорби и тяготы умудрили его сердце. Теперь он стремится научить своего вспыльчивого сына не ранить людей, стараться избегать ошибок, которые потом так тяжело исправить.
качество: DVDRip-AVC
формат: MKV
Видео: AVC, 704x540 (1.854), 25.000 fps, 2 500 Kbps (0.263 bit/pixel)
Аудио: AC-3, 48.0 KHz, 2 ch, 192 Kbps, CBR (Russian)
MediaInfo
General
Unique ID : 181228600300191640271358269813106583199 (0x88575BDAF4B8560EA8680042F1D2A69F)
Complete name : G:\Притчи\Притчи 3. Три слова о прощении.mkv
Format : Matroska
Format version : Version 2
File size : 1.25 GiB
Duration : 1h 6mn
Overall bit rate : 2 694 Kbps
Encoded date : UTC 2016-12-10 13:26:39
Writing application : mkvmerge v7.8.0 ('River Man') 32bit built on Apr 3 2015 12:11:22
Writing library : libebml v1.3.1 + libmatroska v1.4.2
Video
ID : 1
Format : AVC
Format/Info : Advanced Video Codec
Format profile : [email protected]
Format settings, CABAC : Yes
Format settings, ReFrames : 12 frames
Codec ID : V_MPEG4/ISO/AVC
Duration : 1h 6mn
Bit rate : 2 500 Kbps
Width : 704 pixels
Height : 540 pixels
Display aspect ratio : 1.85:1
Frame rate mode : Constant
Frame rate : 25.000 fps
Color space : YUV
Chroma subsampling : 4:2:0
Bit depth : 8 bits
Scan type : Progressive
Bits/(Pixel*Frame) : 0.263
Stream size : 1.14 GiB (91%)
Writing library : x264 core 146 r2538 121396c
Encoding settings : cabac=1 / ref=12 / deblock=1:-2:-2 / analyse=0x3:0x133 / me=umh / subme=10 / psy=1 / psy_rd=1.05:0.10 / mixed_ref=1 / me_range=32 / chroma_me=1 / trellis=2 / 8x8dct=1 / cqm=0 / deadzone=21,11 / fast_pskip=0 / chroma_qp_offset=-3 / threads=3 / lookahead_threads=1 / sliced_threads=0 / nr=0 / decimate=0 / interlaced=0 / bluray_compat=0 / constrained_intra=0 / bframes=16 / b_pyramid=2 / b_adapt=2 / b_bias=0 / direct=3 / weightb=1 / open_gop=0 / weightp=2 / keyint=250 / keyint_min=25 / scenecut=40 / intra_refresh=0 / rc=2pass / mbtree=0 / bitrate=2500 / ratetol=1.0 / qcomp=0.63 / qpmin=0 / qpmax=69 / qpstep=4 / cplxblur=20.0 / qblur=0.5 / ip_ratio=1.25 / pb_ratio=1.30 / aq=1:1.00
Language : Russian
Default : Yes
Forced : No
Color primaries : BT.601 PAL
Transfer characteristics : BT.470 System B, BT.470 System G
Matrix coefficients : BT.601
Audio
ID : 2
Format : AC-3
Format/Info : Audio Coding 3
Mode extension : CM (complete main)
Format settings, Endianness : Big
Codec ID : A_AC3
Duration : 1h 6mn
Bit rate mode : Constant
Bit rate : 192 Kbps
Channel(s) : 2 channels
Channel positions : Front: L R
Sampling rate : 48.0 KHz
Bit depth : 16 bits
Compression mode : Lossy
Stream size : 91.3 MiB (7%)
Language : Russian
Default : Yes
Forced : No
Скриншоты
Download
Для скачивания .torrent файлов необходима регистрация
Сайт не распространяет и не хранит электронные версии произведений, а лишь предоставляет доступ к создаваемому пользователями каталогу ссылок на торрент-файлы, которые содержат только списки хеш-сумм
[Профиль]  [ЛС] 

OlegZ

Стаж: 10 лет 2 месяца

Сообщений: 823


OlegZ · 07-Ноя-17 11:00 (спустя 9 месяцев, ред. 07-Ноя-17 21:37)

[Цитировать] 

Кто помнит "Трое Вас, трое нас, помилуй нас" в какой части?
P.S. Во "вторых притчах" с 42-й минуты .
[Профиль]  [ЛС] 

royalstag

Top Seed 06* 1280r

Стаж: 8 лет 4 месяца

Сообщений: 1691

royalstag · 08-Ноя-17 09:12 (спустя 22 часа)

[Цитировать] 

OlegZ писал(а):
74174886Кто помнит "Трое Вас, трое нас, помилуй нас" в какой части?
http://rutracker.org/forum/viewtopic.php?t=5338598
[Профиль]  [ЛС] 
 
Ответить
Loading...
Error