Снежная королева (Владлен Барбэ, Максим Свешников) [2012, Россия, мультфильм, фэнтези, приключения, семейный, BDRip 1080p] [Немецкий видеоряд]

Страницы:  1

Ответить
Автор
Сообщение

trisem

Стаж: 10 лет 7 месяцев

Сообщений: 517

trisem · 09-Мар-17 21:29 (1 год 6 месяцев назад, ред. 09-Мар-17 22:37)

Снежная королева
Страна: Россия
Жанр: мультфильм, фэнтези, приключения, семейный
Продолжительность: 01:15:51
Год выпуска: 2012
Режиссёр: Владлен Барбэ, Максим Свешников
Роли озвучивали: Иван Охлобыстин, Нюша, Анна Ардова, Рамиля Искандер, Дмитрий Нагиев, Елизавета Арзамасова, Галина Тюнина, Юрий Стоянов, Людмила Артемьева, Михаил Тихонов
Описание: В стремлении сотворить Новый мир — холодный и практичный, где четкость линий призвана заменить эмоции, а северный ветер должен остудить людские души, Снежная Королева избавляется от всех представителей творческих профессий. Маленькой и смелой Герде, отправившейся в опасное путешествие, чтобы спасти своего брата Кая, предстоит столкнуться с этим холодным миром Снежной Королевы. Преодолевая все сложности и преграды на пути к своей цели, Герда не только обретает семью, но и веру в себя, находит поддержку новых друзей.
Семпл: скачать
Качество: BDRip 1080p
Формат: MKV
Видео: H264, 1920x808, 23.976 fps, 6731 Kbps
Аудио: Dolby AC3 48000Hz 6ch 640kbps
Субтитры: отсутствуют
Авторы рипа: RUSTED
BDRip 720p
Другие раздачи этого мультфильма
Дополнительная информация
Рип найден в интернете, сделан с зарубежного Blu-Ray, в данном случае, похоже, с немецкого. Название на немецком (см. скриншоты), заключительные титры на английском (насколько я понял, титры на английском практически везде, а вот название перерисовывалось на разные языки).
Но самое главное отличие в том, что тут соотношение сторон отличается от российских 16:9. И площадь кадра значительно больше. См. сравнение скриншотов.
Подробные технические данные
General
Unique ID : 243644406560192665789290456545614064700 (0xB74C34B1C71B1572AA53F1B06CD76C3C)
Complete name : D:\Mults\HD\The.Snow.Queen.2012.1080p.mkv
Format : Matroska
Format version : Version 4 / Version 2
File size : 3.91 GiB
Duration : 1 h 15 min
Overall bit rate : 7 370 kb/s
Encoded date : UTC 2017-03-09 17:48:21
Writing application : mkvmerge v9.9.0 ('Pick Up') 64bit
Writing library : libebml v1.3.4 + libmatroska v1.4.5
Video
ID : 1
Format : AVC
Format/Info : Advanced Video Codec
Format profile : [email protected]
Format settings, CABAC : Yes
Format settings, ReFrames : 5 frames
Codec ID : V_MPEG4/ISO/AVC
Duration : 1 h 15 min
Bit rate : 6 731 kb/s
Width : 1 920 pixels
Height : 808 pixels
Display aspect ratio : 2.40:1
Frame rate mode : Constant
Frame rate : 23.976 (24000/1001) FPS
Color space : YUV
Chroma subsampling : 4:2:0
Bit depth : 8 bits
Scan type : Progressive
Bits/(Pixel*Frame) : 0.181
Stream size : 3.49 GiB (89%)
Writing library : x264 core 140 r2377 1ca7bb9
Encoding settings : cabac=1 / ref=5 / deblock=1:0:0 / analyse=0x3:0x133 / me=umh / subme=7 / psy=1 / psy_rd=1.00:0.00 / mixed_ref=1 / me_range=16 / chroma_me=1 / trellis=1 / 8x8dct=1 / cqm=0 / deadzone=21,11 / fast_pskip=0 / chroma_qp_offset=-2 / threads=12 / lookahead_threads=2 / sliced_threads=0 / nr=0 / decimate=1 / interlaced=0 / bluray_compat=0 / constrained_intra=0 / bframes=3 / b_pyramid=2 / b_adapt=1 / b_bias=0 / direct=1 / weightb=1 / open_gop=0 / weightp=2 / keyint=240 / keyint_min=23 / scenecut=40 / intra_refresh=0 / rc_lookahead=40 / rc=2pass / mbtree=1 / bitrate=6731 / ratetol=1.0 / qcomp=0.60 / qpmin=10 / qpmax=69 / qpstep=4 / cplxblur=20.0 / qblur=0.5 / ip_ratio=1.40 / aq=1:1.00
Language : English
Default : Yes
Forced : No
Audio
ID : 2
Format : AC-3
Format/Info : Audio Coding 3
Mode extension : CM (complete main)
Format settings, Endianness : Big
Codec ID : A_AC3
Duration : 1 h 15 min
Bit rate mode : Constant
Bit rate : 640 kb/s
Channel(s) : 6 channels
Channel positions : Front: L C R, Side: L R, LFE
Sampling rate : 48.0 kHz
Frame rate : 31.250 FPS (1536 spf)
Bit depth : 16 bits
Compression mode : Lossy
Stream size : 347 MiB (9%)
Title : Russian
Language : Russian
Default : Yes
Forced : No
Скриншоты
Название мультфильма перерисовано на немецкий:

Ещё несколько скриншотов:

Сравнение скриншотов с российским изданием
Скриншоты этой раздачи:

Скриншоты оригинального российского Blu-Ray:

Видно, что кадр на российских Blu-Ray заметно урезан по сравнению с этой раздачей. Естественно, то же касается и всех существующих рипов на их основе. Видимо, изначально более широкую картинку подгоняли под 16:9.
Download
Для скачивания .torrent файлов необходима регистрация
Сайт не распространяет и не хранит электронные версии произведений, а лишь предоставляет доступ к создаваемому пользователями каталогу ссылок на торрент-файлы, которые содержат только списки хеш-сумм
[Профиль]  [ЛС] 

optik.1557

RG All Films

Стаж: 8 лет 9 месяцев

Сообщений: 2536

optik.1557 · 11-Мар-17 00:02 (спустя 1 день 2 часа, ред. 11-Мар-17 00:02)

[Цитировать] 

Цитата:
subme=7

Настройки не правильные
[Профиль]  [ЛС] 

trisem

Стаж: 10 лет 7 месяцев

Сообщений: 517

trisem · 11-Мар-17 05:47 (спустя 5 часов, ред. 11-Мар-17 05:47)

[Цитировать] 

optik.1557 писал(а):
Настройки не правильные
Это не мой рип. Что уж нашёл. Другого у меня нет, потому и исправить ничего не смогу. Найду лучший рип - заменю.
При этом смотрится нормально. На мой взгляд, имеет право быть.
[Профиль]  [ЛС] 

xfiles

RG Мультфильмы

Стаж: 10 лет 10 месяцев

Сообщений: 42413

xfiles · 11-Мар-17 20:33 (спустя 14 часов)

[Цитировать] 

trisem писал(а):
72650555Encoding settings : cabac=1 / ref=5 / deblock=1:0:0 / analyse=0x3:0x133 / me=umh / subme=7 / psy=1 / psy_rd=1.00:0.00 / mixed_ref=1 / me_range=16 / chroma_me=1 / trellis=1 / 8x8dct=1 / cqm=0 / deadzone=21,11 / fast_pskip=0 / chroma_qp_offset=-2 / threads=12 / lookahead_threads=2 / sliced_threads=0 / nr=0 / decimate=1 / interlaced=0 / bluray_compat=0 / constrained_intra=0 / bframes=3 / b_pyramid=2 / b_adapt=1 / b_bias=0 / direct=1 / weightb=1 / open_gop=0 / weightp=2 / keyint=240 / keyint_min=23 / scenecut=40 / intra_refresh=0 / rc_lookahead=40 / rc=2pass / mbtree=1 / bitrate=6731 / ratetol=1.0 / qcomp=0.60 / qpmin=10 / qpmax=69 / qpstep=4 / cplxblur=20.0 / qblur=0.5 / ip_ratio=1.40 / aq=1:1.00
Сомнительно.
[Профиль]  [ЛС] 
 
Ответить
Loading...
Error