Волки и овцы: бе-е-е-зумное превращение (Максим Волков, Андрей Галат) [2016, Россия, мультфильм, семейный, комедия, приключения, BDRip 720p] [Английский видеоряд] + Dub Eng

Страницы:  1

Ответить
Автор
Сообщение

optik.1557

RG All Films

Стаж: 8 лет 6 месяцев

Сообщений: 2541

optik.1557 · 17-Мар-17 17:49 (1 год 4 месяца назад, ред. 11-Мар-18 01:32)

Волки и овцы: бе-е-е-зумное превращение
Слоган: «Ты можешь быть кем угодно. Главное – оставаться собой!»
Страна: Россия
Жанр: мультфильм, семейный, комедия, приключения
Продолжительность: 01:24:49
Год выпуска: 2016
Перевод 1: Не требуется (оригинал) Rus
Перевод 2: Профессиональный (дублированный) Eng
Русские субтитры: нет

Режиссёр: Максим Волков, Андрей Галат

Роли озвучивали: Александр Петров, Елизавета Боярская, Сергей Безруков, Екатерина Иванчикова, Юрий Гальцев, Андрей Рожков, Татьяна Шитова, Диомид Виноградов, Андрей Бархударов, Дмитрий Филимонов

Описание: Любимцу стаи, молодому и беззаботному волку Серому невдомек, что скоро он окажется чужим среди своих друзей. Претендуя на роль вожака стаи и на руку (вернее, лапу) и сердце самой красивой волчицы Бьянки, Серый продолжает дурачиться и устраивать розыгрыши над сородичами. Все переворачивается с ног на голову, когда он решает изменить себя с помощью волшебного зелья. Чудо действительно происходит: Серый превращается в барана! Опасаясь за свою, теперь овечью, шкуру, Серый сбегает от волков и поселяется в деревне овец.
Теперь Серому предстоит не только вернуть доверие возлюбленной и стаи, но и свой прежний облик. Но как это сделать, если у тебя есть всего три дня, да еще рога и копыта?

Доп. информация: | КиноПоиск | Сэмпл |

Качество: BDRip 720p BD-Remux 1080p [2D/3D] HDClub
Формат: MKV
Видео: AVC, 1280x536, (2.40:1), 4576 kbps, 23.976 fps, 0.278 bit/pixel
Аудио 1: AC3 Dolby Digital, 3/2 (L,C,R,l,r) + LFE ch, 48 kHz, 384 kbps | Original |
Аудио 2: AC3 Dolby Digital, 3/2 (L,C,R,l,r) + LFE ch, 48 kHz, 640 kbps | Дубляж |
Субтитры: отсутствуют
Скриншоты
Подробные технические данные
x264
raw [info]: 1280x536p 1:1 @ 24000/1001 fps (cfr)
x264 [info]: using SAR=1/1
x264 [info]: using cpu capabilities: MMX2 SSE2Fast SSSE3 SSE4.2 AVX
x264 [info]: profile High, level 4.1
x264 [info]: frame I:1034 Avg QP:15.90 size:163745
x264 [info]: frame P:30688 Avg QP:17.88 size: 46334
x264 [info]: frame B:90295 Avg QP:20.47 size: 14619
x264 [info]: consecutive B-frames: 3.4% 3.4% 10.8% 42.9% 13.2% 18.8% 1.4% 0.8% 0.8% 0.7% 0.4% 1.2% 0.8%
x264 [info]: mb I I16..4: 4.7% 58.4% 36.9%
x264 [info]: mb P I16..4: 0.9% 13.1% 4.7% P16..4: 24.6% 20.2% 18.0% 0.0% 0.0% skip:18.5%
x264 [info]: mb B I16..4: 0.2% 2.2% 0.8% B16..8: 26.2% 11.1% 4.9% direct: 6.3% skip:48.4% L0:34.5% L1:37.9% BI:27.5%
x264 [info]: 8x8 transform intra:68.4% inter:46.3%
x264 [info]: coded y,uvDC,uvAC intra: 90.4% 93.4% 81.5% inter: 23.5% 25.4% 11.4%
x264 [info]: i16 v,h,dc,p: 14% 14% 18% 53%
x264 [info]: i8 v,h,dc,ddl,ddr,vr,hd,vl,hu: 16% 15% 10% 7% 9% 10% 10% 10% 13%
x264 [info]: i4 v,h,dc,ddl,ddr,vr,hd,vl,hu: 14% 10% 6% 8% 14% 13% 13% 10% 12%
x264 [info]: i8c dc,h,v,p: 41% 22% 18% 19%
x264 [info]: Weighted P-Frames: Y:2.6% UV:1.8%
x264 [info]: ref P L0: 57.7% 16.2% 11.8% 4.2% 3.1% 2.3% 2.0% 1.3% 1.4% 0.1% 0.0%
x264 [info]: ref B L0: 82.3% 8.7% 4.0% 1.8% 1.3% 1.0% 0.6% 0.3%
x264 [info]: ref B L1: 95.3% 4.7%
x264 [info]: kb/s:4576.43
General
Unique ID : 172247278424930858773272559920714524960 (0x81959E7FAEAE3738A431575CFD66A920)
Complete name : Волки и овцы (2016).mkv
Format : Matroska
Format version : Version 4 / Version 2
File size : 3.32 GiB
Duration : 1 h 24 min
Overall bit rate : 5 603 kb/s
Movie name : Волки и овцы: бе-е-е-зумное превращение (2016)
Encoded date : UTC 2017-03-18 07:36:39
Writing application : mkvmerge v8.1.0 ('Psychedelic Postcard') 64bit
Writing library : libebml v1.3.1 + libmatroska v1.4.2
Cover : Yes
Attachments : cover.jpg
Video
ID : 1
Format : AVC
Format/Info : Advanced Video Codec
Format profile : [email protected]
Format settings, CABAC : Yes
Format settings, ReFrames : 9 frames
Codec ID : V_MPEG4/ISO/AVC
Duration : 1 h 24 min
Bit rate : 4 576 kb/s
Width : 1 280 pixels
Height : 536 pixels
Display aspect ratio : 2.40:1
Frame rate mode : Constant
Frame rate : 23.976 (24000/1001) FPS
Color space : YUV
Chroma subsampling : 4:2:0
Bit depth : 8 bits
Scan type : Progressive
Bits/(Pixel*Frame) : 0.278
Stream size : 2.71 GiB (82%)
Title : Волки и овцы (2016) By optik.1557
Writing library : x264 core 148 r2744kMod b97ae06
Encoding settings : cabac=1 / ref=9 / deblock=1:-2:-1 / analyse=0x3:0x113 / me=umh / subme=10 / psy=1 / fade_compensate=0.00 / psy_rd=1.03:0.19 / mixed_ref=1 / me_range=32 / chroma_me=1 / trellis=2 / 8x8dct=1 / cqm=0 / deadzone=21,11 / fast_pskip=0 / chroma_qp_offset=-3 / threads=6 / lookahead_threads=1 / sliced_threads=0 / nr=0 / decimate=1 / interlaced=0 / bluray_compat=0 / constrained_intra=0 / bframes=12 / b_pyramid=2 / b_adapt=2 / b_bias=0 / direct=1 / weightb=1 / open_gop=0 / weightp=2 / keyint=250 / keyint_min=23 / scenecut=40 / intra_refresh=0 / rc_lookahead=60 / rc=crf / mbtree=0 / crf=16.4000 / qcomp=0.60 / qpmin=0 / qpmax=69 / qpstep=4 / vbv_maxrate=50000 / vbv_bufsize=62500 / crf_max=0.0 / nal_hrd=none / filler=0 / ip_ratio=1.40 / pb_ratio=1.30 / aq=3:0.80
Language : Russian
Default : Yes
Forced : No
Color range : Limited
Color primaries : BT.709
Transfer characteristics : BT.709
Matrix coefficients : BT.709
Audio #1
ID : 2
Format : AC-3
Format/Info : Audio Coding 3
Mode extension : CM (complete main)
Format settings, Endianness : Big
Codec ID : A_AC3
Duration : 1 h 24 min
Bit rate mode : Constant
Bit rate : 384 kb/s
Channel(s) : 6 channels
Channel positions : Front: L C R, Side: L R, LFE
Sampling rate : 48.0 kHz
Frame rate : 31.250 FPS (1536 spf)
Bit depth : 16 bits
Compression mode : Lossy
Stream size : 233 MiB (7%)
Title : Оригинал (iTunes)
Language : Russian
Default : Yes
Forced : No
Audio #2
ID : 3
Format : AC-3
Format/Info : Audio Coding 3
Mode extension : CM (complete main)
Format settings, Endianness : Big
Codec ID : A_AC3
Duration : 1 h 24 min
Bit rate mode : Constant
Bit rate : 640 kb/s
Channel(s) : 6 channels
Channel positions : Front: L C R, Side: L R, LFE
Sampling rate : 48.0 kHz
Frame rate : 31.250 FPS (1536 spf)
Bit depth : 16 bits
Compression mode : Lossy
Stream size : 388 MiB (11%)
Title : Дубляж (Blu ray)
Language : English
Default : No
Forced : No
Menu
00:00:00.000 : en:Chapter 1
00:07:16.894 : en:Chapter 2
00:13:25.346 : en:Chapter 3
00:23:43.130 : en:Chapter 4
00:30:17.731 : en:Chapter 5
00:36:25.391 : en:Chapter 6
00:43:48.626 : en:Chapter 7
00:51:03.476 : en:Chapter 8
00:59:45.414 : en:Chapter 9
01:05:36.264 : en:Chapter 10
01:10:56.667 : en:Chapter 11
01:19:00.819 : en:Chapter 12
Download
Для скачивания .torrent файлов необходима регистрация
Сайт не распространяет и не хранит электронные версии произведений, а лишь предоставляет доступ к создаваемому пользователями каталогу ссылок на торрент-файлы, которые содержат только списки хеш-сумм
[Профиль]  [ЛС] 
 
Ответить
Loading...
Error