[TR24][OF] Royal Liverpool Philharmonic Orchestra - Pop Goes Classical - 2017 (Easy Listening)

Страницы:  1

Ответить
Автор
Сообщение

papa1954

Top Seed 09* 10240r

Стаж: 11 лет 6 месяцев

Сообщений: 16484

papa1954 · 08-Июн-17 21:12 (1 год 3 месяца назад)

Royal Liverpool Philharmonic Orchestra - Pop Goes Classical Формат записи/Источник записи: [TR24][OF]
Наличие водяных знаков: Нет
Год издания/переиздания диска: 2017
Жанр: Easy Listening
Издатель (лейбл): Decca
Продолжительность: 41:59
Наличие сканов в содержимом раздачи: Только обложка альбома
Треклист:
01. (Everything I Do) I Do It For You (2:43)
02. Hallelujah (2:56)
03. Hello (3:25)
04. Don't Look Back In Anger (4:03)
05. Fix You (4:37)
06. Unchained Melody (4:36)
07. Counting Stars (3:34)
08. All Of Me (3:18)
09. Back For Good (3:56)
10. Candle In The Wind (4:16)
11. Happy (2:24)
12. I Will Always Love You (2:10)
 

Контейнер: FLAC (*.flac)
Тип рипа: tracks
Разрядность: 24/96
Количество каналов: 2.0
Лог проверки качества
foobar2000 1.3.9 / Dynamic Range Meter 1.1.1
log date: 2017-06-08 19:52:15
--------------------------------------------------------------------------------
Analyzed: Royal Liverpool Philharmonic Orchestra / Pop Goes Classical
--------------------------------------------------------------------------------
DR Peak RMS Duration Track
--------------------------------------------------------------------------------
DR11 -0.56 dB -15.57 dB 2:43 01-(Everything I Do) I Do It For You
DR12 -0.57 dB -17.73 dB 2:56 02-Hallelujah
DR11 -0.55 dB -16.24 dB 3:25 03-Hello
DR11 -0.56 dB -17.32 dB 4:03 04-Don't Look Back In Anger
DR13 -0.56 dB -19.55 dB 4:37 05-Fix You
DR11 -0.55 dB -17.19 dB 4:36 06-Unchained Melody
DR15 0.00 dB -20.66 dB 3:34 07-Counting Stars
DR14 -0.56 dB -20.55 dB 3:18 08-All Of Me
DR12 -0.54 dB -19.23 dB 3:56 09-Back For Good
DR12 -0.56 dB -18.13 dB 4:16 10-Candle In The Wind
DR13 -0.50 dB -15.94 dB 2:24 11-Happy
DR12 -7.51 dB -25.33 dB 2:10 12-I Will Always Love You
--------------------------------------------------------------------------------
Number of tracks: 12
Official DR value: DR12
Samplerate: 96000 Hz
Channels: 2
Bits per sample: 24
Bitrate: 2138 kbps
Codec: FLAC
================================================================================
Источник: prostudiomasters.com
Download
Для скачивания .torrent файлов необходима регистрация
Сайт не распространяет и не хранит электронные версии произведений, а лишь предоставляет доступ к создаваемому пользователями каталогу ссылок на торрент-файлы, которые содержат только списки хеш-сумм
[Профиль]  [ЛС] 
 
Ответить
Loading...
Error