Идефикс / Idee fixe (Михаил Горобчук) [2015, Россия, притча, HDRip 1080p]

Страницы:  1

Ответить
Автор
Сообщение

MrW1234567890

Стаж: 7 лет 3 месяца

Сообщений: 1


MrW1234567890 · 04-Дек-17 16:33 (7 месяцев назад, ред. 12-Дек-17 17:26)

Идефикс / Idee fixe
Страна: Россия
Жанр: мультфильм, авторская анимация, притча
Продолжительность: 00:05:35
Год выпуска: 2015
Перевод: Не требуется
Русские субтитры: Нет
Режиссёр: Михаил Горобчук
Описание: Пластилиновая анимация. Вертится бугристая пластинка, по ней несется носатый малыш, уши развеваются, глаза безумные неотрывно следят за улетающей звездой. Он её преследует, ничего не замечая вокруг...
Семпл: http://multi-up.com/1178612
Качество: HDRip (Master Copy)
Формат: MP4
Видео: H.264, PAL, 16:9, 1920х1080, 25 fps, 21500 kbps
Аудио: AAC, (2) stereo, 48 Hz, 160 kbps
Субтитры: отсутствуют
Подробные технические данные
Общее
Полное имя : Idee fixe_f.mp4
Формат : MPEG-4
Профиль формата : Base Media / Version 2
Идентификатор кодека : mp42 (mp42/mp41)
Размер файла : 862 Мбайт
Продолжительность : 5 м. 35 с.
Режим общего битрейта : Переменный
Общий поток : 21,5 Мбит/сек
Дата кодирования : UTC 2015-11-23 21:25:33
Дата пометки : UTC 2016-05-13 19:53:39
©TIM : 00:02:09:16
©TSC : 25
©TSZ : 1
Видео
Идентификатор : 1
Формат : AVC
Формат/Информация : Advanced Video Codec
Профиль формата : [email protected]
Настройки формата : CABAC / 3 Ref Frames
Параметр CABAC формата : Да
Параметр RefFrames формата : 3 кадра
Идентификатор кодека : avc1
Идентификатор кодека/Информация : Advanced Video Coding
Продолжительность : 5 м. 35 с.
Битрейт : 21,4 Мбит/сек
Ширина : 1920 пикселей
Высота : 1080 пикселей
Соотношение сторон : 16:9
Режим частоты кадров : Постоянный
Частота кадров : 25,000 кадров/сек
Стандарт вещания : PAL
Цветовое пространство : YUV
Субдискретизация насыщенности : 4:2:0
Битовая глубина : 8 бит
Тип развёртки : Прогрессивная
Бит/(Пиксели*Кадры) : 0.412
Размер потока : 855 Мбайт (99%)
Язык : English
Дата кодирования : UTC 2015-11-23 21:25:33
Дата пометки : UTC 2015-11-23 21:25:33
Цветовой диапазон : Limited
Аудио
Идентификатор : 2
Формат : AAC
Формат/Информация : Advanced Audio Codec
Профиль формата : LC
Идентификатор кодека : mp4a-40-2
Продолжительность : 5 м. 35 с.
Продолжительность оригинала : 5 м. 35 с.
Вид битрейта : Переменный
Битрейт : 157 Кбит/сек
Максимальный битрейт : 251 Кбит/сек
Каналы : 2 канала
Расположение каналов : Front: L R
Частота : 48,0 КГц
Частота кадров : 46,875 кадров/сек (1024 SPF)
Метод сжатия : С потерями
Размер потока : 6,30 Мбайт (1%)
Размер потока оригинала : 6,30 Мбайт (1%)
Язык : English
Дата кодирования : UTC 2015-11-23 21:25:33
Дата пометки : UTC 2015-11-23 21:25:33
Скриншоты
Download
Для скачивания .torrent файлов необходима регистрация
Сайт не распространяет и не хранит электронные версии произведений, а лишь предоставляет доступ к создаваемому пользователями каталогу ссылок на торрент-файлы, которые содержат только списки хеш-сумм
[Профиль]  [ЛС] 
 
Ответить
Loading...
Error