Сказ о Петре и Февронии (Юрий Рязанов, Юрий Кулаков) [2017, Россия, семейный фильм, WEBRip 1080p] Original Rus

Страницы:  1

Ответить
Автор
Сообщение

ViktorMzz

Top Bonus 04* 3TB

Стаж: 9 лет 7 месяцев

Сообщений: 200

ViktorMzz · 06-Дек-17 15:13 (6 месяцев назад, ред. 13-Дек-17 17:01)

Сказ о Петре и Февронии
Страна: Россия
Жанр: семейный фильм
Год выпуска: 2017
Продолжительность: 01:18:04
Перевод: Не требуется
Субтитры: нет
Оригинальная аудиодорожка: русский
Режиссер: Юрий Рязанов, Юрий Кулаков
В ролях: Владислав Юдин
Юлия Горохова
Иван Охлобыстин
Владимир Антоник
Константин Карасик
Виктор Вержбицкий
Диомид Виноградов
Вадим Медведев
Арзу Сулейманова
Сергей Усков
Описание: XIII век. Злодей захватил власть в Муромском княжестве. Только отважный воин Петр выходит на бой со злодеем и побеждает его. Но ядовитая кровь колдуна отравляет спасителя княжества. Целительница Феврония готова применить свой дар, чтобы спасти Петра. Между молодыми людьми вспыхивает настоящее чистое чувство, которое им предстоит сохранить, несмотря на множество препятствий.
Сэмпл: http://sendfile.su/1382692
Тип релиза: WEBRip 1080p
Контейнер: mp4
Видео: 1920x1080 (16:9), 25 fps, AVC, 4072 kbps
Аудио: Русский, AAC-LC, 6 ch, 512 kbps
MediaInfo
Общее
Полное имя : H:\ПРАВОСЛАВИЕ\petr_i_fevronia_h264_1080p.mp4
Формат : MPEG-4
Профиль формата : Base Media
Идентификатор кодека : isom (isom/iso2/avc1/mp41)
Размер файла : 2,50 Гбайт
Продолжительность : 1 ч. 18 м.
Общий поток : 4585 Кбит/сек
Дата кодирования : UTC 2017-10-11 10:03:32
Дата пометки : UTC 2017-10-11 10:03:32
Программа кодирования : Lavf57.40.101
Видео
Идентификатор : 1
Формат : AVC
Формат/Информация : Advanced Video Codec
Профиль формата : [email protected]
Настройки формата : CABAC / 1 Ref Frames
Параметр CABAC формата : Да
Параметр RefFrames формата : 1 кадр
Параметр GOP формата : M=1, N=25
Идентификатор кодека : avc1
Идентификатор кодека/Информация : Advanced Video Coding
Продолжительность : 1 ч. 18 м.
Вид битрейта : Постоянный
Битрейт : 4072 Кбит/сек
Ширина : 1920 пикселей
Высота : 1080 пикселей
Соотношение сторон : 16:9
Режим частоты кадров : Постоянный
Частота кадров : 25,000 кадров/сек
Цветовое пространство : YUV
Субдискретизация насыщенности : 4:2:0
Битовая глубина : 8 бит
Тип развёртки : Прогрессивная
Бит/(Пиксели*Кадры) : 0.079
Размер потока : 2,22 Гбайт (89%)
Дата кодирования : UTC 2017-10-11 10:03:32
Дата пометки : UTC 2017-10-11 10:03:32
Аудио
Идентификатор : 2
Формат : AAC
Формат/Информация : Advanced Audio Codec
Профиль формата : LC
Идентификатор кодека : mp4a-40-2
Продолжительность : 1 ч. 18 м.
Вид битрейта : Постоянный
Битрейт : 512 Кбит/сек
Каналы : 2 канала
Channel(s)_Original : 6 каналов
Расположение каналов : Front: L C R, Side: L R, LFE
Частота : 48,0 КГц
Частота кадров : 46,875 кадров/сек (1024 SPF)
Метод сжатия : С потерями
Размер потока : 286 Мбайт (11%)
Default : Да
AlternateGroup/String : 1
Дата кодирования : UTC 2017-10-11 10:03:32
Дата пометки : UTC 2017-10-11 10:03:32
Прочее
Идентификатор : 3
Тип : Time code
Формат : QuickTime TC
Продолжительность : 1 ч. 18 м.
Временной код первого кадра : 01:00:00:00
Временной код, чередующийся : Да
Язык : English
Default : Нет
Дата кодирования : UTC 2017-10-11 10:03:32
Дата пометки : UTC 2017-10-11 10:03:32
Скриншоты
Download
Для скачивания .torrent файлов необходима регистрация
Сайт не распространяет и не хранит электронные версии произведений, а лишь предоставляет доступ к создаваемому пользователями каталогу ссылок на торрент-файлы, которые содержат только списки хеш-сумм
[Профиль]  [ЛС] 

andreyka151

Стаж: 9 лет 2 месяца

Сообщений: 4


andreyka151 · 10-Дек-17 09:50 (спустя 3 дня)

[Цитировать] 

Что со звуком?
[Профиль]  [ЛС] 

-Azureus-

RG Мультфильмы

Стаж: 9 лет 7 месяцев

Сообщений: 4820

-Azureus- · 10-Дек-17 10:49 (спустя 59 мин.)

[Цитировать] 

Судя по программе кодирования
Цитата:
Программа кодирования : Lavf57.40.101
ТО это не веб-дл, а рип с ютуба.
[Профиль]  [ЛС] 

xfiles

RG Мультфильмы

Стаж: 10 лет 7 месяцев

Сообщений: 41327

xfiles · 10-Дек-17 17:24 (спустя 6 часов)

[Цитировать] 

ViktorMzz
Проясните происхождение раздаваемого файла, пожалуйста.
[Профиль]  [ЛС] 

ViktorMzz

Top Bonus 04* 3TB

Стаж: 9 лет 7 месяцев

Сообщений: 200

ViktorMzz · 10-Дек-17 17:57 (спустя 32 мин.)

[Цитировать] 

сайт "http://kinovverh.ru"
[Профиль]  [ЛС] 

balucy

Стаж: 6 лет 2 месяца

Сообщений: 33


balucy · 20-Дек-17 23:22 (спустя 10 дней, ред. 20-Дек-17 23:22)

[Цитировать] 

ViktorMzz СПАСИБО ОГРОМНОЕ ЗА ВАШ ТРУД! Качество видео и звук отличный! И размер для такого качества - просто СУПЕР! Не удалось посмотреть в кинотеатре, теперь посмотрю дома. С НАСТУПАЮЩИМ НОВЫМ ГОДОМ! и творческих успехов!
[Профиль]  [ЛС] 

bwv81

Стаж: 6 лет 7 месяцев

Сообщений: 17

bwv81 · 25-Дек-17 20:45 (спустя 4 дня)

[Цитировать] 

Хороший во всех отношениях, поучительный мультфильм для взрослых и детей. Не стыдно за создателей. По-больше бы таких снимали. Спасибо за раздачу.
[Профиль]  [ЛС] 

gildemar

Стаж: 10 лет 7 месяцев

Сообщений: 969

gildemar · 30-Дек-17 17:48 (спустя 4 дня)

[Цитировать] 

Что ж наши так на флэш-анимацию подсели?
Мне от Пиксар больше нравится, а не эта "мельница".
И как же они утомили уже этой псевдодревнерусской речью...
[Профиль]  [ЛС] 
 
Ответить
Loading...
Error