Настоящий герой / Truant Hero / Tao xue ying xiong zhuan (Вонг Джинг / Wong Jing) [1992, Гонконг, комедия, DVD5(Custom)] VO (Акира) + Sub Rus

Страницы:  1

Ответить
Автор
Сообщение

tong777

Top Seed 03* 160r

Стаж: 11 лет

Сообщений: 2356

tong777 · 20-Янв-18 14:02 (9 месяцев назад, ред. 20-Янв-18 14:06)

Настоящий герой / Truant Hero / Tao xue ying xiong zhuan
Страна: Гонконг
Жанр: комедия
Год выпуска: 1992
Продолжительность: 01:25:41
Перевод: Одноголосый закадровый Акира
Субтитры: русские
Оригинальная аудиодорожка: китайская
Режиссер: Вонг Джинг / Wong Jing
В ролях: Альфред Чеунг, Чингми Яу, Шарла Чеунг, Аарон Квок, Йен Ши-Кван, Майкл Чан, Нг Ман-Тат
Описание: Непутевый полицейский переговорщик (Альфред Чеунг) получает секретное задание – он должен проникнуть в школу под видом преподавателя и найти среди учеников того, у которого на попе есть родимое пятно в виде собачки. Парень с этой отметиной – свидетель по важному делу, и ему угрожает опасность со стороны грозной тайваньской банды. И все бы вроде просто, да только наш герой совершенно не умеет обращаться с детьми, а когда их много, это и вовсе невозможно. В довершение всего в школе появляется его бывшая девушка (Чингми Яу), записавшаяся под видом ученицы – начальство решило «подстраховать» нерадивого сотрудника…
Меню: Анимированное русское
Сэмпл: http://multi-up.com/1183853
Тип релиза: DVD5(Custom)
Контейнер: DVD-Video
Видео: NTSC 16:9 (720x480) VBR
Аудио: Russian (Dolby AC3, 2 ch) 192 Кбит/сек
Аудио 2: Cantonese (Dolby AC3, 2 ch) 192 Кбит/сек
Формат субтитров: prerendered (DVD/IDX+SUB)
MediaInfo
Информация о проигрывателе:
Код зоны проигрывателя: 5
Текущий привод: E:
Код зоны диска: 1, 2, 3, 4, 5, 6
Полное имя : E:\VIDEO_TS\VTS_01_1.VOB
Формат : MPEG-PS
Размер файла : 1024 Мбайт
Продолжительность : 19 м.
Режим общего битрейта : Переменный
Общий поток : 7319 Кбит/сек
Библиотека кодирования : encoded by TMPGEnc 4.0 XPress Version. 4.7.1.284
Видео
Идентификатор : 224 (0xE0)
Формат : MPEG Video
Версия формата : Version 2
Профиль формата : [email protected]
Параметр BVOP формата : Да
Параметр матрицы формата : Выборочная
Параметр GOP формата : Variable
Продолжительность : 19 м.
Вид битрейта : Переменный
Битрейт : 6789 Кбит/сек
Максимальный битрейт : 9200 Кбит/сек
Ширина : 720 пикселей
Высота : 480 пикселей
Соотношение сторон : 16:9
Частота кадров : 29,970 кадров/сек
Стандарт вещания : NTSC
Цветовое пространство : YUV
Субдискретизация насыщенности : 4:2:0
Битовая глубина : 8 бит
Тип развёртки : Чересстрочная
Порядок развёртки : Верхнее поле первое
Метод сжатия : С потерями
Бит/(Пиксели*Кадры) : 0.656
Временной код первого кадра : 00:00:00:00
Оригинал временного кода : Group of pictures header
Размер потока : 950 Мбайт (93%)
Закодированный размер потока оригинала : encoded by TMPGEnc 4.0 XPress Version. 4.7.1.284
Библиотека кодирования : TMPGEnc XPress 4.7.1.284
Основные цвета : BT.601 NTSC
Характеристики трансфера : BT.601
Коэффициенты матрицы : BT.601
Аудио #1
Идентификатор : 189 (0xBD)-128 (0x80)
Формат : AC-3
Формат/Информация : Audio Coding 3
Расширение режима : CM (complete main)
Параметр Endianness формата : Big
Режим смешивания : DVD-Video
Продолжительность : 19 м.
Вид битрейта : Постоянный
Битрейт : 192 Кбит/сек
Каналы : 2 канала
Расположение каналов : Front: L R
Частота : 48,0 КГц
Битовая глубина : 16 бит
Метод сжатия : С потерями
Размер потока : 26,9 Мбайт (3%)
Аудио #2
Идентификатор : 189 (0xBD)-129 (0x81)
Формат : AC-3
Формат/Информация : Audio Coding 3
Расширение режима : CM (complete main)
Параметр Endianness формата : Big
Режим смешивания : DVD-Video
Продолжительность : 19 м.
Вид битрейта : Постоянный
Битрейт : 192 Кбит/сек
Каналы : 2 канала
Расположение каналов : Front: L R
Частота : 48,0 КГц
Битовая глубина : 16 бит
Метод сжатия : С потерями
Размер потока : 26,9 Мбайт (3%)
Текст #1
Идентификатор : 189 (0xBD)-32 (0x20)
Формат : RLE
Формат/Информация : Run-length encoding
Режим смешивания : DVD-Video
Продолжительность : 19 м.
Задержка видео : 300 мс.
Текст #2
Идентификатор : 189 (0xBD)-33 (0x21)
Формат : RLE
Формат/Информация : Run-length encoding
Режим смешивания : DVD-Video
Продолжительность : 19 м.
Задержка видео : 300 мс.
Скриншоты меню
Скриншоты
Download
Для скачивания .torrent файлов необходима регистрация
Сайт не распространяет и не хранит электронные версии произведений, а лишь предоставляет доступ к создаваемому пользователями каталогу ссылок на торрент-файлы, которые содержат только списки хеш-сумм
[Профиль]  [ЛС] 

Нордер

VIP (Заслуженный)

Стаж: 10 лет

Сообщений: 5123

Нордер · 22-Янв-18 19:20 (спустя 2 дня 5 часов)

[Цитировать] 


T Временная

за рекламу стороннего ресурса в меню
[Профиль]  [ЛС] 

bot · 22-Янв-18 19:20 (спустя 23 сек.)

Тема была перенесена из форума DVD Video в форум Азиатские фильмы (DVD Video)
Нордер
 

getera25

Стаж: 7 лет 11 месяцев

Сообщений: 4


getera25 · 15-Окт-18 02:34 (спустя 8 месяцев)

[Цитировать] 

tong777
Настоящий Герой бракованный .МЕНЮ заикается.
В нескольких местах фильм тормозит ,изображение плавится как кинопленка.
Проверьте диск. А то зачем время терять,,,)))
[Профиль]  [ЛС] 
 
Ответить
Loading...
Error