Van Morrison - In Concert [2018, Blues, Rhythm & blues, Folk, BDRip, 720p]

Страницы:  1

Ответить
Автор
Сообщение

anbelk27

Admin gray

Стаж: 9 лет 5 месяцев

Сообщений: 6021

anbelk27 · 20-Фев-18 23:15 (7 месяцев назад, ред. 23-Фев-18 01:22)

Van Morrison - In Concert
Жанр: Blues, Rhythm & blues, Folk
Продолжительность: 03:15:08
Год выпуска: 2018
Описание: • Blu-ray 'Van Morrison - In Concert' captures Morrison’s intimate 2016 show at the BBC Radio Theatre, as part of the critically acclaimed BBC Radio 2 In Concert series.
In an up-close and personal show, described as “sublime” by Radio Times, Morrison’s rich oaky voice brings musical healing. With the setlist spanning his iconic catalogue, including classic hit ‘Brown Eyed Girl’ as well as ‘Wild Night’, ‘Cleaning Windows’ and new track ‘Keep Me Singing’, this live performance celebrates the Celtic soul troubadour’s 53 years as a musical innovator at the very top of his game.
Bonus features include the Up On Cyprus Avenue concert: a milestone show recorded on Van Morrison’s 70th Birthday in his native Belfast.
To date, Morrison has released 38 studio albums, six live albums, six compilation albums, four video albums and 71 singles. A six-time Grammy Award winner, he also has a knighthood, a Brit, an OBE, an Ivor Novello award, honorary doctorates from Queen’s University Belfast and the University Of Ulster, entry into The Rock And Roll Hall of Fame and the French Ordres Des Artes Et Des Lettres.
Качество: BDRip
Разрешение видео/развертка: 720p
Контейнер: MKV
Видео кодек: H.264
Аудио кодек: DTS, FLAC, PCM
Van Morrison - At BBC Radio Theatre in September 2016
Продолжительность: 01:15:58
Треклист:
01. Too Late
02. Magic Time
03. Wild Night
04. Medley: Baby Please Don't Go / Don't Start Crying Now
05. Here Comes The Night
06. Every Time I See A River
07. Cleaning Windows / Be-Bop A Lula
08. Let It Rhyme
09. Whenever God Shines His Light
10. Sometimes We Cry
11. Going Down To Bangor
12. The Pen Is Mightier Than The Sword
13. Keep Me Singing
14. Enlightenment
15. Carrying A Torch
16. Brown Eyed Girl
17. Jackie Wilson Said
18. In The Garden
Видео: AVC, 1280x720 (16:9), 29.970 fps, 4 000 Kbps
Аудио#1: DTS, 48.0 KHz, 6 ch, 1 510 Kbps
Аудио#2: FLAC, 48.0 KHz, 2 ch, 1 547 kbps
MediaInfo / x264Log
x264Log
[Information] [19.02.2018 18:00:12] Standard error stream
-[Information] [19.02.2018 18:00:40] raw [info]: 1280x720p 1:1 @ 30000/1001 fps (cfr)
-[Information] [19.02.2018 18:00:40] x264 [info]: using SAR=1/1
-[Information] [19.02.2018 18:00:40] x264 [info]: using cpu capabilities: MMX2 SSE2Fast SSSE3 SSE4.2 AVX
-[Information] [19.02.2018 18:00:40] x264 [info]: profile High, level 4.1
-[Information] [20.02.2018 3:49:40] x264 [info]: frame I:787 Avg QP:14.47 size:109738
-[Information] [20.02.2018 3:49:40] x264 [info]: frame P:24923 Avg QP:17.04 size: 34568
-[Information] [20.02.2018 3:49:40] x264 [info]: frame B:110904 Avg QP:19.57 size: 12004
-[Information] [20.02.2018 3:49:40] x264 [info]: consecutive B-frames: 0.9% 0.5% 4.3% 4.7% 6.1% 79.1% 4.0% 0.0% 0.3%
-[Information] [20.02.2018 3:49:40] x264 [info]: mb I I16..4: 7.3% 75.1% 17.7%
-[Information] [20.02.2018 3:49:40] x264 [info]: mb P I16..4: 1.3% 4.4% 0.7% P16..4: 35.7% 38.6% 11.5% 1.5% 0.1% skip: 6.2%
-[Information] [20.02.2018 3:49:40] x264 [info]: mb B I16..4: 0.2% 0.7% 0.1% B16..8: 41.1% 19.3% 2.1% direct: 5.3% skip:31.3% L0:46.9% L1:45.2% BI: 8.0%
-[Information] [20.02.2018 3:49:40] x264 [info]: 8x8 transform intra:72.0% inter:64.8%
-[Information] [20.02.2018 3:49:40] x264 [info]: direct mvs spatial:94.3% temporal:5.7%
-[Information] [20.02.2018 3:49:40] x264 [info]: coded y,uvDC,uvAC intra: 57.8% 68.7% 52.3% inter: 20.5% 24.2% 4.3%
-[Information] [20.02.2018 3:49:40] x264 [info]: i16 v,h,dc,p: 55% 22% 6% 17%
-[Information] [20.02.2018 3:49:40] x264 [info]: i8 v,h,dc,ddl,ddr,vr,hd,vl,hu: 7% 7% 22% 9% 12% 11% 11% 10% 12%
-[Information] [20.02.2018 3:49:40] x264 [info]: i4 v,h,dc,ddl,ddr,vr,hd,vl,hu: 10% 9% 22% 8% 11% 9% 10% 9% 12%
-[Information] [20.02.2018 3:49:40] x264 [info]: i8c dc,h,v,p: 41% 28% 16% 14%
-[Information] [20.02.2018 3:49:40] x264 [info]: Weighted P-Frames: Y:1.2% UV:0.2%
-[Information] [20.02.2018 3:49:40] x264 [info]: ref P L0: 41.6% 5.4% 20.0% 8.8% 7.6% 5.7% 5.1% 2.9% 2.9% 0.1% 0.0%
-[Information] [20.02.2018 3:49:40] x264 [info]: ref B L0: 68.2% 13.1% 7.4% 3.9% 3.0% 2.5% 1.4% 0.4%
-[Information] [20.02.2018 3:49:40] x264 [info]: ref B L1: 92.3% 7.7%
-[Information] [20.02.2018 3:49:40] x264 [info]: kb/s:4000.03
-[Information] [20.02.2018 3:49:40] encoded 136614 frames, 3.87 fps, 4000.03 kb/s
General
Unique ID : 200531624600704282441230436829501919796 (0x96DCFC6E86F85CB0BDFEF5FA6D251234)
Complete name : G:\Van Morrison - In Concert.BDRip720p\Van Morrison - BBC Radio Theatre 2016.BDRip720p.mkv
Format : Matroska
Format version : Version 2
File size : 3.75 GiB
Duration : 1 h 15 min
Overall bit rate mode : Variable
Overall bit rate : 7 059 kb/s
Movie name : Van Morrison - BBC Radio Theatre 2016.BDRip720p @ rutracker.org
Encoded date : UTC 2018-02-20 19:36:10
Writing application : mkvmerge v9.8.0 ('Kuglblids') 64bit
Writing library : libebml v1.3.4 + libmatroska v1.4.5
Video
ID : 1
Format : AVC
Format/Info : Advanced Video Codec
Format profile : [email protected]
Format settings : CABAC / 9 Ref Frames
Format settings, CABAC : Yes
Format settings, ReFrames : 9 frames
Codec ID : V_MPEG4/ISO/AVC
Duration : 1 h 15 min
Bit rate : 4 000 kb/s
Width : 1 280 pixels
Height : 720 pixels
Display aspect ratio : 16:9
Frame rate mode : Constant
Frame rate : 29.970 (30000/1001) FPS
Color space : YUV
Chroma subsampling : 4:2:0
Bit depth : 8 bits
Scan type : Progressive
Bits/(Pixel*Frame) : 0.145
Stream size : 2.12 GiB (57%)
Title : anbelk27 @ rutracker.org
Writing library : x264 core 152 r2851 ba24899
Encoding settings : cabac=1 / ref=9 / deblock=1:-1:-2 / analyse=0x3:0x133 / me=umh / subme=11 / psy=1 / psy_rd=1.15:0.05 / mixed_ref=1 / me_range=32 / chroma_me=1 / trellis=2 / 8x8dct=1 / cqm=0 / deadzone=21,11 / fast_pskip=1 / chroma_qp_offset=-3 / threads=6 / lookahead_threads=1 / sliced_threads=0 / nr=0 / decimate=1 / interlaced=0 / bluray_compat=0 / constrained_intra=0 / bframes=8 / b_pyramid=2 / b_adapt=2 / b_bias=0 / direct=3 / weightb=1 / open_gop=0 / weightp=2 / keyint=300 / keyint_min=29 / scenecut=50 / intra_refresh=0 / rc_lookahead=80 / rc=2pass / mbtree=1 / bitrate=4000 / ratetol=1.0 / qcomp=0.60 / qpmin=0 / qpmax=69 / qpstep=4 / cplxblur=20.0 / qblur=0.5 / vbv_maxrate=50000 / vbv_bufsize=62500 / nal_hrd=none / filler=0 / ip_ratio=1.40 / aq=1:1.00
Default : Yes
Forced : No
Audio #1
ID : 2
Format : DTS
Format/Info : Digital Theater Systems
Codec ID : A_DTS
Duration : 1 h 15 min
Bit rate mode : Constant
Bit rate : 1 509 kb/s
Channel(s) : 6 channels
Channel positions : Front: L C R, Side: L R, LFE
Sampling rate : 48.0 kHz
Frame rate : 93.750 FPS (512 SPF)
Bit depth : 24 bits
Compression mode : Lossy
Stream size : 820 MiB (21%)
Title : DTS 5.1 @ 24 bit
Default : Yes
Forced : No
Audio #2
ID : 3
Format : FLAC
Format/Info : Free Lossless Audio Codec
Codec ID : A_FLAC
Duration : 1 h 15 min
Bit rate mode : Variable
Bit rate : 1 547 kb/s
Channel(s) : 2 channels
Channel positions : Front: L R
Sampling rate : 48.0 kHz
Frame rate : 11.719 FPS (4096 SPF)
Bit depth : 24 bits
Stream size : 841 MiB (22%)
Title : FLAC 2.0 @ 24 bit
Writing library : libFLAC 1.2.1 (UTC 2007-09-17)
Default : No
Forced : No
Menu
00:00:00.000 : en: 01. Too Late
00:03:06.853 : en: 02. Magic Time
00:07:29.949 : en: 03. Wild Night
00:11:30.322 : en: 04. Medley: Baby Please Don't Go / Don't Start Crying Now
00:16:06.398 : en: 05. Here Comes The Night
00:18:48.994 : en: 06. Every Time I See A River
00:23:22.400 : en: 07. Cleaning Windows / Be-Bop A Lula
00:28:39.084 : en: 08. Let It Rhyme
00:32:17.168 : en: 09. Whenever God Shines His Light
00:36:31.422 : en: 10. Sometimes We Cry
00:40:20.151 : en: 11. Going Down To Bangor
00:45:31.195 : en: 12. The Pen Is Mightier Than The Sword
00:49:10.948 : en: 13. Keep Me Singing
00:53:13.223 : en: 14. Enlightenment
00:56:40.430 : en: 15. Carrying A Torch
01:00:04.767 : en: 16. Brown Eyed Girl
01:04:25.628 : en: 17. Jackie Wilson Said
01:08:10.052 : en: 18. In The Garden
Скриншоты
Van Morrison - Up On Cyprus Avenue 2015
Продолжительность: 00:59:10
Треклист:
01. Cyprus Avenue
02. Celtic Swing
03. Cleaning Windows / Be-Bop A Lua
04. Days Like This
05. Precious Time
06. Sometimes I Feel Like A Motherless Child
07. Baby Please Don't Go / Parchman Farm / Don't Start Crying Now
08. It's All In The Game
09. Burning Ground
10. Whenever God Shines His Light
11. And The Healing Has Begun
12. On Hyndford Street
Видео: AVC, 1280x608 (2.092), 29.970 fps, 5 800 Kbps
Аудио: PCM, 48.0 KHz, 2 ch, 2 304 Kbps
MediaInfo / x264Log
x264Log
[Information] [19.02.2018 1:54:45] Standard error stream
-[Information] [19.02.2018 1:55:02] raw [info]: 1280x608p 779:784 @ 30000/1001 fps (cfr)
-[Information] [19.02.2018 1:55:02] x264 [info]: using SAR=779/784
-[Information] [19.02.2018 1:55:02] x264 [info]: using cpu capabilities: MMX2 SSE2Fast SSSE3 SSE4.2 AVX
-[Information] [19.02.2018 1:55:02] x264 [info]: profile High, level 4.1
-[Information] [19.02.2018 8:03:11] x264 [info]: frame I:751 Avg QP:16.39 size:176462
-[Information] [19.02.2018 8:03:11] x264 [info]: frame P:22695 Avg QP:19.20 size: 62977
-[Information] [19.02.2018 8:03:11] x264 [info]: frame B:82940 Avg QP:24.30 size: 12196
-[Information] [19.02.2018 8:03:11] x264 [info]: consecutive B-frames: 1.5% 1.5% 7.6% 23.5% 15.5% 46.3% 3.2% 0.9%
-[Information] [19.02.2018 8:03:11] x264 [info]: mb I I16..4: 2.0% 63.0% 35.0%
-[Information] [19.02.2018 8:03:11] x264 [info]: mb P I16..4: 0.5% 6.4% 1.1% P16..4: 29.4% 36.8% 18.7% 4.2% 0.7% skip: 2.1%
-[Information] [19.02.2018 8:03:11] x264 [info]: mb B I16..4: 0.1% 0.6% 0.1% B16..8: 34.6% 21.0% 3.1% direct: 7.3% skip:33.4% L0:38.0% L1:37.9% BI:24.0%
-[Information] [19.02.2018 8:03:11] x264 [info]: 8x8 transform intra:75.5% inter:54.3%
-[Information] [19.02.2018 8:03:11] x264 [info]: direct mvs spatial:96.5% temporal:3.5%
-[Information] [19.02.2018 8:03:11] x264 [info]: coded y,uvDC,uvAC intra: 85.8% 84.4% 61.3% inter: 28.4% 26.2% 7.7%
-[Information] [19.02.2018 8:03:11] x264 [info]: i16 v,h,dc,p: 22% 21% 4% 53%
-[Information] [19.02.2018 8:03:11] x264 [info]: i8 v,h,dc,ddl,ddr,vr,hd,vl,hu: 10% 9% 7% 8% 13% 14% 13% 12% 14%
-[Information] [19.02.2018 8:03:11] x264 [info]: i4 v,h,dc,ddl,ddr,vr,hd,vl,hu: 11% 10% 6% 8% 15% 13% 13% 11% 13%
-[Information] [19.02.2018 8:03:11] x264 [info]: i8c dc,h,v,p: 40% 24% 18% 18%
-[Information] [19.02.2018 8:03:11] x264 [info]: Weighted P-Frames: Y:4.2% UV:1.5%
-[Information] [19.02.2018 8:03:11] x264 [info]: ref P L0: 44.8% 14.0% 20.1% 5.2% 5.2% 2.9% 3.2% 1.5% 1.8% 1.4% 0.0% 0.0%
-[Information] [19.02.2018 8:03:11] x264 [info]: ref B L0: 84.5% 7.9% 3.0% 1.5% 1.0% 0.8% 0.7% 0.4% 0.2%
-[Information] [19.02.2018 8:03:11] x264 [info]: ref B L1: 97.0% 3.0%
-[Information] [19.02.2018 8:03:11] x264 [info]: kb/s:5799.36
-[Information] [19.02.2018 8:03:11] encoded 106386 frames, 4.82 fps, 5799.36 kb/s
General
Unique ID : 212606812936423436486630821291538554066 (0x9FF2952E8C01B4EA911947F28E409CD2)
Complete name : G:\Van Morrison - In Concert.BDRip720p\Van Morrison-Up On Cyprus Avenue 2015.BDRip720p.mkv
Format : Matroska
Format version : Version 2
File size : 3.03 GiB
Duration : 59 min 9 s
Overall bit rate : 7 338 kb/s
Movie name : Van Morrison / -Up On Cyprus Avenue 2015.BDRip720p @ rutracker.org
Encoded date : UTC 2018-02-20 19:39:11
Writing application : mkvmerge v9.8.0 ('Kuglblids') 64bit
Writing library : libebml v1.3.4 + libmatroska v1.4.5
Video
ID : 1
Format : AVC
Format/Info : Advanced Video Codec
Format profile : [email protected]
Format settings : CABAC / 10 Ref Frames
Format settings, CABAC : Yes
Format settings, ReFrames : 10 frames
Codec ID : V_MPEG4/ISO/AVC
Duration : 59 min 9 s
Bit rate : 5 800 kb/s
Width : 1 280 pixels
Height : 608 pixels
Display aspect ratio : 2.092
Frame rate mode : Constant
Frame rate : 29.970 (30000/1001) FPS
Color space : YUV
Chroma subsampling : 4:2:0
Bit depth : 8 bits
Scan type : Progressive
Bits/(Pixel*Frame) : 0.249
Stream size : 2.40 GiB (79%)
Title : anbelk27 @ rutracker.org
Writing library : x264 core 152 r2851 ba24899
Encoding settings : cabac=1 / ref=10 / deblock=1:-1:-2 / analyse=0x3:0x133 / me=umh / subme=11 / psy=1 / psy_rd=1.15:0.05 / mixed_ref=1 / me_range=32 / chroma_me=1 / trellis=2 / 8x8dct=1 / cqm=0 / deadzone=21,11 / fast_pskip=1 / chroma_qp_offset=-3 / threads=6 / lookahead_threads=1 / sliced_threads=0 / nr=0 / decimate=1 / interlaced=0 / bluray_compat=0 / constrained_intra=0 / bframes=7 / b_pyramid=2 / b_adapt=2 / b_bias=0 / direct=3 / weightb=1 / open_gop=0 / weightp=2 / keyint=300 / keyint_min=29 / scenecut=50 / intra_refresh=0 / rc_lookahead=80 / rc=2pass / mbtree=1 / bitrate=5800 / ratetol=1.0 / qcomp=0.60 / qpmin=0 / qpmax=69 / qpstep=4 / cplxblur=20.0 / qblur=0.5 / vbv_maxrate=50000 / vbv_bufsize=62500 / nal_hrd=none / filler=0 / ip_ratio=1.40 / aq=1:1.00
Default : Yes
Forced : No
Audio
ID : 2
Format : PCM
Format settings : Little / Signed
Codec ID : A_PCM/INT/LIT
Duration : 59 min 9 s
Bit rate mode : Constant
Bit rate : 1 536 kb/s
Channel(s) : 2 channels
Sampling rate : 48.0 kHz
Frame rate : 32.000 FPS (1500 SPF)
Bit depth : 16 bits
Stream size : 650 MiB (21%)
Title : PCM 2.0 @ 24 bit
Default : Yes
Forced : No
Menu
00:00:00.000 : en: 01. Cyprus Avenue
00:01:35.095 : en: 02. Celtic Swing
00:05:24.323 : en: 03. Cleaning Windows / Be-Bop A Lua
00:10:10.609 : en: 04. Days Like This
00:13:03.783 : en: 05. Precious Time
00:16:10.970 : en: 06. Sometimes I Feel Like A Motherless Child
00:20:56.255 : en: 07. Baby Please Don't Go / Parchman Farm / Don't Start Crying Now
00:27:41.659 : en: 08. It's All In The Game
00:33:38.015 : en: 09. Burning Ground
00:39:01.706 : en: 10. Whenever God Shines His Light
00:42:25.542 : en: 11. And The Healing Has Begun
00:48:32.910 : en: 12. On Hyndford Street
Скриншоты
Download
Для скачивания .torrent файлов необходима регистрация
Сайт не распространяет и не хранит электронные версии произведений, а лишь предоставляет доступ к создаваемому пользователями каталогу ссылок на торрент-файлы, которые содержат только списки хеш-сумм
[Профиль]  [ЛС] 

anbelk27

Admin gray

Стаж: 9 лет 5 месяцев

Сообщений: 6021

anbelk27 · 20-Фев-18 23:17 (спустя 2 мин., ред. 20-Фев-18 23:17)

[Цитировать] 

Собственный рип на замену сцен-рипам http://rutracker.org/forum/viewtopic.php?t=5522215 и http://rutracker.org/forum/viewtopic.php?t=5522247
[Профиль]  [ЛС] 
 
Ответить
Loading...
Error