Ron Carter & Richard Galliano meet WDR Big Band (Richard DeRosa) - Jazzwoche Burghausen 2016 [2016, Post-Bop / World Fusion / Modern Big Band, DVB]

Страницы:  1

Ответить
Автор
Сообщение

readab

Releaser

Стаж: 10 лет 4 месяца

Сообщений: 3993

readab · 21-Фев-18 22:00 (4 месяца 24 дня назад, ред. 22-Фев-18 01:09)

Ron Carter & Richard Galliano
meet WDR Big Band

Jazzwoche Burghausen 2016



Страна: USA / France / Germany
Жанр: Post-Bop / World Fusion / Modern Big Band
Продолжительность: 01:55:22
Год выпуска: 2016
Musicians:
Richard Galliano - accordion
Ron Carter - bass
WDR Big Band
Richard DeRosa - conductor
Треклист:
Track List:
1. Aria
2. Aromatic
3. Spleen
4. Laurita
5. Can't We Be Friends
6. Michelangelo
7. Regain
8. Naia
9. Poem
10. Ernie And Bennie
11. Eight
12. Receipt, Please
13. Ah, Rio
14. Doom Mood
15. You Are My Sunshine
16. Cut & Paste
17. See How You Are
Доп. информация:
47. Internationale Jazzwoche Burghausen, Wackerhalle, Germany, March 9, 2016
Ron Carter Official Site
Ron Carter from Wikipedia, the free encyclopedia
Richard Galliano Official Site
Richard Galliano from Wikipedia, the free encyclopedia Качество: DVB (Digital Video Broadcasting)
Контейнер: TS
Видео кодек: MPEG2
Аудио кодек: AC3
Видео: 3 646 Kbps, 720*576 (16:9), at 25.000 fps, MPEG Video (PAL) (Version 2) ([email protected]) (CustomMatrix / BVOP)
Аудио: German, 192 Kbps, 48.0 KHz, 2 channels, MPEG Audio (Version 1) (Layer 2)
Аудио 2: German, 192 Kbps, 48.0 KHz, 2 channels, MPEG Audio (Version 1) (Layer 2)
Аудио 3: German, 448 Kbps, 48.0 KHz, 16 bits, 6 channels, AC-3
Источник: Digital Satellite > SkyStar HD2 (TechniSat) > raw data to HDD > Cypheros TS-Doctor > ts
MediaInfo
General
ID : 1 (0x1)
Complete name : C:\rutracker.org_mpg\Ron Carter & Richard Galliano meet WDR Big Band - Jazzwoche Burghausen 2016.ts
Format : MPEG-TS
File size : 3.80 GiB
Duration : 1h 55mn
Overall bit rate mode : Variable
Overall bit rate : 4 720 Kbps
Video
ID : 1401 (0x579)
Menu ID : 1 (0x1)
Format : MPEG Video
Format version : Version 2
Format profile : [email protected]
Format settings, BVOP : Yes
Format settings, Matrix : Custom
Format settings, GOP : M=3, N=12
Codec ID : 2
Duration : 1h 55mn
Bit rate mode : Variable
Bit rate : 3 646 Kbps
Maximum bit rate : 4 400 Kbps
Width : 720 pixels
Height : 576 pixels
Display aspect ratio : 16:9
Frame rate : 25.000 fps
Standard : PAL
Color space : YUV
Chroma subsampling : 4:2:0
Bit depth : 8 bits
Scan type : Interlaced
Scan order : Top Field First
Compression mode : Lossy
Bits/(Pixel*Frame) : 0.352
Time code of first frame : 00:00:00:00
Time code source : Group of pictures header
Stream size : 2.94 GiB (77%)
Audio #1
ID : 1402 (0x57A)
Menu ID : 1 (0x1)
Format : MPEG Audio
Format version : Version 1
Format profile : Layer 2
Codec ID : 3
Duration : 1h 55mn
Bit rate mode : Constant
Bit rate : 192 Kbps
Channel(s) : 2 channels
Sampling rate : 48.0 KHz
Compression mode : Lossy
Delay relative to video : 57ms
Stream size : 158 MiB (4%)
Language : German
Audio #2
ID : 1403 (0x57B)
Menu ID : 1 (0x1)
Format : MPEG Audio
Format version : Version 1
Format profile : Layer 2
Codec ID : 3
Duration : 1h 55mn
Bit rate mode : Constant
Bit rate : 192 Kbps
Channel(s) : 2 channels
Sampling rate : 48.0 KHz
Compression mode : Lossy
Delay relative to video : 57ms
Stream size : 158 MiB (4%)
Audio #3
ID : 1406 (0x57E)
Menu ID : 1 (0x1)
Format : AC-3
Format/Info : Audio Coding 3
Mode extension : CM (complete main)
Format settings, Endianness : Big
Codec ID : 6
Duration : 1h 55mn
Bit rate mode : Constant
Bit rate : 448 Kbps
Channel(s) : 6 channels
Channel positions : Front: L C R, Side: L R, LFE
Sampling rate : 48.0 KHz
Bit depth : 16 bits
Compression mode : Lossy
Delay relative to video : 1ms
Stream size : 370 MiB (9%)
Language : German
Скриншоты
Релизы JAZZWOCHE BURGHAUSEN
1987 BARRELHOUSE JAZZBAND / JAMES COTTON BLUES BAND / DUDU PUKWANA und ZILA / BOB KERR'S WHOOPEE BAND / FERDINAND HAVLIK SWING BIG BAND
1988 ORIGINAL PRAGUE SYNCOPATED ORCHESTRA / LA VELLE und GUY LAFITTE QUARTET / FRANKFURT SWING ALL STARS / AL COPLEY DUO / ROBERT LOCKWOOD JR. / MAXINE HOWARD and HER RHYTHM & BLUES EXPLOSION
1989 TONY WILLIAMS QUINTET / THE LEADERS
1990
1990 WILLY JOHANNS BEBOP CITY / MIND GAMES / ALMOST BIG BAND ts
1990 STEVE COLEMAN & FIVE ELEMENTS / JAN GARBAREK GROUP
1990 MAJOR HOLLEY QUINTET / ANGELA BROWN TRIO
1990 CHRIS BARBER'S JAZZ BAND ts
1990 EUROPEAN JAZZ ENSEMBLE
1991 FREDDIE HUBBARD QUINTETT
1993
1993 BARBARA DENNERLEIN QUARTETT / JOHN GORDON TROMBONES UNLIMITED mpg
1993 LARRY BURTON BLUES BAND / LA VELLE GROUP mpg
1993 JACK DeJOHNETTE & SPECIAL EDITION
1993 MICHEL PETRUCCIANI
1994
1994 JOHN SCOFIELD QUARTET / LESTER BOWIE'S NEW YORK ORGAN ENSEMBLE
1994 COUNT BASIE ORCHESTRA directed by FRANK FOSTER ts
1994 PAQUITO D'RIVERA GROUP
1994 MANU DIBANGO
1995
1995 THE SWINGING LADIES
1995 PRIMA MATERIA
1996
1996 THE RAY GELATO GIANTS ts
1997
1997 RAY ANDERSON POCKET BRASS BAND / KENNY BARRON GARY BARTZ QUARTET
1997 JOE ZAWINUL QUINTETT / TANIA MARIA QUARTET
1998
1998 GEORGE GRUNTZ CONCERT JAZZ BAND
1998 DEE DEE BRIDGEWATER
1998 THE TREMBLE KIDS ts
1999
1999 NEW YORK SWING TRIO ts
1999 MINGUS BIG BAND
2000
2000 PETER HERBOLZHEIMER & HIS RHYTHM COMBINATION & BRASS
2000 CLARK TERRY QUINTET
2001
2001 GREG OSBY-MARK TURNER-FRANCO AMBROSETTI SEXTET
2001 MAYNARD FERGUSON BIG BOP NOUVEAU BAND
2001 RAY BROWN TRIO & FRIENDS
2001 ESBJÖRN SVENSSON TRIO
2001 DAVE BRUBECK QUARTET
2001 ARCHIE SHEPP QUARTET
2002
2002 CHICO FREEMAN Y GUATACA
2002 AZIZA MUSTAFA ZADEH
2003
2003 BRANFORD MARSALIS QUARTET mpg
2003 CHARLIE HADEN & PAT METHENY
2003 JOE GALLARDO'S LATINO BLUE
2003 DJANGO REINHARDT GROUP
2003 JANE MONHEIT QUINTET
2003 MACEO PARKER
2004
2004 E.S.T. ESBJÖRN SVENSSON TRIO
2004 JAMES MORRISON "On the Edge"
2004 CHARLIE MARIANO QUINTET
2004 JAMES CARTER ORGAN TRIO
2004 TILL BRÖNNER & BAND
2004 THE SOUL SURVIVORS
2005
2005 BEN RILEY'S MONK LEGACY SEPTET feat. JOHNNY GRIFFIN mpg
2005 GENE "MIGHTY FLEA" CONNERS ts
2005 THE BIG CHRIS BARBER BAND mpg
2005 LYNNE ARRIALE TRIO
2006
2006 VANA TRIO plus BRAZILIAN PERCUSSION
2006 VIKTORIA TOLSTOY GROUP
2006 DIANE SCHUUR & BAND ts
2006 JAN GARBAREK GROUP
2006 FREDDY COLE TRIO mpg
2006 RON CARTER TRIO
2007
2007 DUTCH SWING COLLEGE BAND feat. MRS. EINSTEIN ts
2007 THE DIZZY GILLESPIE ALL STAR BIG BAND ts
2007 TIM RIES & ROLLING STONES PROJECT
2007 JACQUES LOUSSIER PLAY BACH TRIO
2007 EB DAVIS & THE SUPERBAND
2007 THE LEADERS ts
2008
2008 THE DIRTY DOZEN BRASS BAND
2008 MICHEL CAMILO TRIO
2008 BRAD MEHLDAU TRIO
2008 OTIS TAYLOR TRIO ts
2008 ZAP MAMA
2009
2009 WOLFGANG HAFFNER & BAND
2009 THE MANHATTAN TRANSFER
2009 TILL BRÖNNER & BAND
2009 JOHN EARL WALKER ts
2009 THE COOKERS
2009 AL DI MEOLA
2009 HOLLY COLE
2009 KÜHNTETT
2010
2010 PAUL ZAUNER'S BLUE BRASS feat. DONALD SMITH
2010 CTI ALL STAR BAND feat. CURTIS STIGERS
2010 RICHARD GALLIANO TANGARIA QUARTET
2010 SQUEEZEBAND
2010 EXULTET
2011
2011 THE CLAYTON-HAMILTON JAZZ ORCHESTRA feat. JOHN PIZZARELLI
2011 TROMBONE SHORTY & ORLEANS AVENUE
2011 MUSIC MAKER BLUES FOUNDATION
2011 CHICK COREA & GARY BURTON
2011 NIGHT OF JAZZ GUITARS
2011 JOE LOVANO US FIVE
2011 DRUMS UNITED
2011 TEENY TUCKER
2011 KURT ELLING
2012
2012 JAZZKANTINE feat. NILS LANDGREN, PEE WEE ELLIS & GUESTS
2012 VANA GIERIG GROUP feat. PAQUITO D'RIVERA
2012 NICHOLAS PAYTON GROUP
2012 LEE KONITZ NEW QUARTET HDTV 720p
2012 LEE KONITZ NEW QUARTET
2012 JAZZ MASTERS ALL STARS
2012 THE MANNISH BOYS HDTV 720p
2012 THE MANNISH BOYS
2012 ANA POPOVIC BAND HDTV 720p
2012 MARCUS MILLER
2012 DIANNE REEVES
2013
2013 LARRY GRAHAM & GRAHAM CENTRAL STATION HDTV 720p
2013 LARRY GRAHAM & GRAHAM CENTRAL STATION ts
2013 KLAUS DOLDINGER'S PASSPORT HDTV 720p
2013 THE JOHN SCOFIELD ORGANIC TRIO HDTV 720p
2013 THE JOHN SCOFIELD ORGANIC TRIO ts
2013 MATĪSS ČUDARS QUARTET HDTV 720p
2013 BIG SAM'S FUNKY NATION ts
2013 JAZZ MASTERS ALL STARS HDTV 720p
2013 JAZZ MASTERS ALL STARS ts
2013 CHICAGO BEAU & BAND HDTV 720p
2013 CHICAGO BEAU & BAND ts
2013 CASSANDRA WILSON ts
2013 GREGORY PORTER ts
2013 KAREN LOVELY ts
2014
2014 THE DIZZY GILLESPIE AFRO CUBAN EXPERIENCE feat. MACHITO Jr. ts
2014 CHRISTIAN WILLISOHN'S "Southern Spirit" ts
2014 TERRI LYNE CARRINGTON "Money Jungle" ts
2014 MISSISSIPPI HEAT ts
2014 JAMIE CULLUM ts
2015
2015 MONTY ALEXANDER & THE HARLEM KINGSTON EXPRESS ts
2015 THE DUKE ROBILLARD BAND HDTV 720p
2015 KENNY GARRETT QUINTET ts
2015 STRATA-EAST ALL STARS ts
2015 SPYRO GYRA ts
2015 MALSTROM ts
2016
2016 SANGOMA EVERETT TRIO & special guests ENRICO RAVA & OLIVIER KEI OURIO ts
2016 RON CARTER & RICHARD GALLIANO meet WDR BIG BAND ts
2016 THE STANLEY CLARKE BAND ts
2016 CAROLYN WONDERLAND ts
Download
Для скачивания .torrent файлов необходима регистрация
Сайт не распространяет и не хранит электронные версии произведений, а лишь предоставляет доступ к создаваемому пользователями каталогу ссылок на торрент-файлы, которые содержат только списки хеш-сумм
[Профиль]  [ЛС] 
 
Ответить
Loading...
Error