(Soul-Jazz) [CD] Brother Jack McDuff - Hot Barbeque (1966), Live! (1965) (2in1) - 1993, FLAC (tracks+.cue), lossless

Страницы:  1

Ответить
Автор
Сообщение

fiks22

Top Seed 08* 5120r

Стаж: 11 лет

Сообщений: 9862

fiks22 · 04-Мар-18 04:11 (7 месяцев назад, ред. 04-Мар-18 04:20)

Brother Jack McDuff - Hot Barbeque/Live!
Жанр: Soul-Jazz
Носитель: CD
Страна-производитель диска (релиза): Великобритания
Год издания: 1993
Издатель (лейбл): BGP Records
Номер по каталогу: CDBGPD 053
Страна исполнителя (группы): США
Аудиокодек: FLAC (*.flac)
Тип рипа: tracks+.cue
Битрейт аудио: lossless
Продолжительность: 71:32
Источник (релизер): apollo
Наличие сканов в содержимом раздачи: нет
Треклист:
Hot Barbeque (1966)
01. Hot Barbeque (McDuff) - 3:00
02. The Party's Over (Styne-Green-Comden) - 6:52
03. Briar Patch (McDuff) - 2:57
04. Hippy Dip (McDuff) - 6:28
05. 601 1/2 No. Poplar (McDuff) - 4:18
06. Cry Me a River (Hamilton) - 4:53
07. The Three Day Thang (McDuff) - 3:39
Live! At the Front Room (1965)
08. Rock Candy (McDuff) - 6:43
09. It Ain't Necessarily So (Gershwin) - 6:11
10. Sanctified Samba (McDuff) - 5:19
11. Whistle While You Work (Morey-Churchill) - 4:49
12. A Real Good'n (McDuff) - 8:11
13. Undecided (Robin-Shavers) - 8:12
Состав:
Jack McDuff - organ
Red Holloway - tenor saxophone
George Benson - guitar
Joe Dukes - drums
Recorded in New York on October 19, 1965 (#1-7) and live at the Front Room, Newark, NJ on June 5, 1963.
Лог создания рипа
Exact Audio Copy V0.99 prebeta 5 from 4. May 2009
EAC extraction logfile from 6. October 2010, 22:21
Brother Jack McDuff / Hot Barbeque - Live!
Used drive : TSSTcorpDVD-ROM TS-H352A Adapter: 1 ID: 0
Read mode : Secure
Utilize accurate stream : Yes
Defeat audio cache : Yes
Make use of C2 pointers : No
Read offset correction : 12
Overread into Lead-In and Lead-Out : No
Fill up missing offset samples with silence : Yes
Delete leading and trailing silent blocks : No
Null samples used in CRC calculations : Yes
Used interface : Native Win32 interface for Win NT & 2000
Gap handling : Appended to previous track
Used output format : User Defined Encoder
Selected bitrate : 1024 kBit/s
Quality : High
Add ID3 tag : No
Command line compressor : C:\Program Files\Exact Audio Copy\Flac\flac.exe
Additional command line options : -V -8 -T "artist=%a" -T "title=%t" -T "album=%g" -T "date=%y" -T "tracknumber=%n" -T "genre=%m" %s
TOC of the extracted CD
Track | Start | Length | Start sector | End sector
---------------------------------------------------------
1 | 0:00.00 | 2:59.47 | 0 | 13471
2 | 2:59.47 | 6:52.21 | 13472 | 44392
3 | 9:51.68 | 2:56.53 | 44393 | 57645
4 | 12:48.46 | 6:27.55 | 57646 | 86725
5 | 19:16.26 | 4:17.42 | 86726 | 106042
6 | 23:33.68 | 4:53.02 | 106043 | 128019
7 | 28:26.70 | 3:38.49 | 128020 | 144418
8 | 32:05.44 | 6:43.10 | 144419 | 174653
9 | 38:48.54 | 6:10.42 | 174654 | 202445
10 | 44:59.21 | 5:18.54 | 202446 | 226349
11 | 50:18.00 | 4:48.62 | 226350 | 248011
12 | 55:06.62 | 8:11.04 | 248012 | 284840
13 | 63:17.66 | 8:12.04 | 284841 | 321744
Track 1
Filename E:\rips\Brother Jack McDuff - 1993 - Hot Barbeque - Live!\01 - Brother Jack McDuff - Hot Barbeque.wav
Pre-gap length 0:00:02.00
Peak level 85.7 %
Track quality 99.9 %
Test CRC 0AFC4719
Copy CRC 0AFC4719
Cannot be verified as accurate (confidence 1) [877B20F5], AccurateRip returned [F7FADBE0]
Copy OK
Track 2
Filename E:\rips\Brother Jack McDuff - 1993 - Hot Barbeque - Live!\02 - Brother Jack McDuff - The Party's Over.wav
Pre-gap length 0:00:01.29
Peak level 66.1 %
Track quality 100.0 %
Test CRC 59E7BAEF
Copy CRC 59E7BAEF
Cannot be verified as accurate (confidence 1) [5E3714A0], AccurateRip returned [AB996AB1]
Copy OK
Track 3
Filename E:\rips\Brother Jack McDuff - 1993 - Hot Barbeque - Live!\03 - Brother Jack McDuff - Briar Patch.wav
Pre-gap length 0:00:01.21
Peak level 75.3 %
Track quality 100.0 %
Test CRC 75CAD898
Copy CRC 75CAD898
Cannot be verified as accurate (confidence 1) [C022A07A], AccurateRip returned [A98B51DD]
Copy OK
Track 4
Filename E:\rips\Brother Jack McDuff - 1993 - Hot Barbeque - Live!\04 - Brother Jack McDuff - Hippy Dip.wav
Pre-gap length 0:00:02.30
Peak level 67.3 %
Track quality 100.0 %
Test CRC 38289199
Copy CRC 38289199
Cannot be verified as accurate (confidence 1) [5857ED21], AccurateRip returned [9BA48D2B]
Copy OK
Track 5
Filename E:\rips\Brother Jack McDuff - 1993 - Hot Barbeque - Live!\05 - Brother Jack McDuff - 601 1,2 No. Poplar.wav
Pre-gap length 0:00:00.69
Peak level 80.4 %
Track quality 100.0 %
Test CRC 5B7EF81E
Copy CRC 5B7EF81E
Cannot be verified as accurate (confidence 1) [937DEFE9], AccurateRip returned [2A2C112F]
Copy OK
Track 6
Filename E:\rips\Brother Jack McDuff - 1993 - Hot Barbeque - Live!\06 - Brother Jack McDuff - Cry Me A River.wav
Pre-gap length 0:00:00.60
Peak level 56.8 %
Track quality 100.0 %
Test CRC F4437F96
Copy CRC F4437F96
Cannot be verified as accurate (confidence 1) [0E8F3D3F], AccurateRip returned [F625ABF4]
Copy OK
Track 7
Filename E:\rips\Brother Jack McDuff - 1993 - Hot Barbeque - Live!\07 - Brother Jack McDuff - The Three Day Thang.wav
Pre-gap length 0:00:02.58
Peak level 78.7 %
Track quality 100.0 %
Test CRC 5C1C5547
Copy CRC 5C1C5547
Cannot be verified as accurate (confidence 1) [EB1C2971], AccurateRip returned [C71B144D]
Copy OK
Track 8
Filename E:\rips\Brother Jack McDuff - 1993 - Hot Barbeque - Live!\08 - Brother Jack McDuff - Rock Candy.wav
Pre-gap length 0:00:01.15
Peak level 100.0 %
Track quality 99.9 %
Test CRC 8AF8FEFC
Copy CRC 8AF8FEFC
Cannot be verified as accurate (confidence 1) [E879B9A5], AccurateRip returned [18F0601D]
Copy OK
Track 9
Filename E:\rips\Brother Jack McDuff - 1993 - Hot Barbeque - Live!\09 - Brother Jack McDuff - It Ain't Necessarily So.wav
Peak level 79.0 %
Track quality 99.9 %
Test CRC ECAFE3F4
Copy CRC ECAFE3F4
Cannot be verified as accurate (confidence 1) [93252CBC], AccurateRip returned [4FC96238]
Copy OK
Track 10
Filename E:\rips\Brother Jack McDuff - 1993 - Hot Barbeque - Live!\10 - Brother Jack McDuff - Sanctified Samba.wav
Peak level 96.6 %
Track quality 100.0 %
Test CRC A45BD027
Copy CRC A45BD027
Cannot be verified as accurate (confidence 1) [EE5E4E57], AccurateRip returned [D6BB60E7]
Copy OK
Track 11
Filename E:\rips\Brother Jack McDuff - 1993 - Hot Barbeque - Live!\11 - Brother Jack McDuff - Whistle While You Work.wav
Pre-gap length 0:00:02.52
Peak level 79.8 %
Track quality 100.0 %
Test CRC 750E3059
Copy CRC 750E3059
Cannot be verified as accurate (confidence 1) [C1E7FBF1], AccurateRip returned [1B945A2C]
Copy OK
Track 12
Filename E:\rips\Brother Jack McDuff - 1993 - Hot Barbeque - Live!\12 - Brother Jack McDuff - A Real Good'n.wav
Peak level 98.2 %
Track quality 100.0 %
Test CRC 58FA017D
Copy CRC 58FA017D
Cannot be verified as accurate (confidence 1) [97F5439C], AccurateRip returned [7A97780E]
Copy OK
Track 13
Filename E:\rips\Brother Jack McDuff - 1993 - Hot Barbeque - Live!\13 - Brother Jack McDuff - Undecided.wav
Peak level 100.0 %
Track quality 100.0 %
Test CRC 25687715
Copy CRC 25687715
Cannot be verified as accurate (confidence 1) [8B19CD0B], AccurateRip returned [1AE6E3AE]
Copy OK
No tracks could be verified as accurate
You may have a different pressing from the one(s) in the database
No errors occurred
End of status report
Содержание индексной карты (.CUE)
REM GENRE Jazz
REM DATE 1993
REM DISCID A910C10D
REM COMMENT "ExactAudioCopy v0.99pb5"
PERFORMER "Brother Jack McDuff"
TITLE "Hot Barbeque, Live!"
FILE "01 - Hot Barbeque.wav" WAVE
TRACK 01 AUDIO
TITLE "Hot Barbeque"
PERFORMER "Brother Jack McDuff"
INDEX 01 00:00:00
TRACK 02 AUDIO
TITLE "The Party's Over"
PERFORMER "Brother Jack McDuff"
INDEX 00 02:58:18
FILE "02 - The Party's Over.wav" WAVE
INDEX 01 00:00:00
TRACK 03 AUDIO
TITLE "Briar Patch"
PERFORMER "Brother Jack McDuff"
INDEX 00 06:51:00
FILE "03 - Briar Patch.wav" WAVE
INDEX 01 00:00:00
TRACK 04 AUDIO
TITLE "Hippy Dip"
PERFORMER "Brother Jack McDuff"
INDEX 00 02:54:23
FILE "04 - Hippy Dip.wav" WAVE
INDEX 01 00:00:00
TRACK 05 AUDIO
TITLE "601 1/2 No. Poplar"
PERFORMER "Brother Jack McDuff"
INDEX 00 06:26:61
FILE "05 - 601 1,2 No. Poplar.wav" WAVE
INDEX 01 00:00:00
TRACK 06 AUDIO
TITLE "Cry Me a River"
PERFORMER "Brother Jack McDuff"
INDEX 00 04:16:57
FILE "06 - Cry Me a River.wav" WAVE
INDEX 01 00:00:00
TRACK 07 AUDIO
TITLE "The Three Day Thang"
PERFORMER "Brother Jack McDuff"
INDEX 00 04:50:19
FILE "07 - The Three Day Thang.wav" WAVE
INDEX 01 00:00:00
TRACK 08 AUDIO
TITLE "Rock Candy"
PERFORMER "Brother Jack McDuff"
INDEX 00 03:37:34
FILE "08 - Rock Candy.wav" WAVE
INDEX 01 00:00:00
FILE "09 - It Ain't Necessarily So.wav" WAVE
TRACK 09 AUDIO
TITLE "It Ain't Necessarily So"
PERFORMER "Brother Jack McDuff"
INDEX 01 00:00:00
FILE "10 - Sanctified Samba.wav" WAVE
TRACK 10 AUDIO
TITLE "Sanctified Samba"
PERFORMER "Brother Jack McDuff"
INDEX 01 00:00:00
TRACK 11 AUDIO
TITLE "Whistle While You Work"
PERFORMER "Brother Jack McDuff"
INDEX 00 05:16:02
FILE "11 - Whistle While You Work.wav" WAVE
INDEX 01 00:00:00
FILE "12 - A Real Good'n.wav" WAVE
TRACK 12 AUDIO
TITLE "A Real Good'n"
PERFORMER "Brother Jack McDuff"
INDEX 01 00:00:00
FILE "13 - Undecided.wav" WAVE
TRACK 13 AUDIO
TITLE "Undecided"
PERFORMER "Brother Jack McDuff"
INDEX 01 00:00:00
Отчет CUETools
[CUETools log; Date: 04.03.2018 4:09:09; Version: 2.1.5]
[CTDB TOCID: IRTK9s7Kdaof_.6AsHmQHKm7jdI-] found.
Track | CTDB Status
1 | (5/5) Accurately ripped
2 | (5/5) Accurately ripped
3 | (5/5) Accurately ripped
4 | (5/5) Accurately ripped
5 | (5/5) Accurately ripped
6 | (5/5) Accurately ripped
7 | (5/5) Accurately ripped
8 | (5/5) Accurately ripped
9 | (5/5) Accurately ripped
10 | (5/5) Accurately ripped
11 | (5/5) Accurately ripped
12 | (5/5) Accurately ripped
13 | (5/5) Accurately ripped
[AccurateRip ID: 001f1bef-013d1adf-a910c10d] found.
Track [ CRC | V2 ] Status
01 [877b20f5|c72a6ccf] (0+0/2) No match
02 [5e3714a0|ed2e1974] (0+0/2) No match
03 [c022a07a|1c259362] (0+0/2) No match
04 [5857ed21|c4b9c91d] (0+0/2) No match
05 [937defe9|e34434f1] (0+0/2) No match
06 [0e8f3d3f|eee55b79] (0+0/2) No match
07 [eb1c2971|3f532bca] (0+0/2) No match
08 [e879b9a5|9cfe6d73] (0+0/2) No match
09 [93252cbc|a98961de] (0+0/2) No match
10 [ee5e4e57|e4328f10] (0+0/2) No match
11 [c1e7fbf1|029a3d96] (0+0/2) No match
12 [97f5439c|dce6cdb8] (0+0/2) No match
13 [8b19cd0b|2fcd2f5a] (0+0/2) No match
Offsetted by -10:
01 [f7fadbe0] (1/2) Accurately ripped
02 [ab996ab1] (1/2) Accurately ripped
03 [a98b51dd] (1/2) Accurately ripped
04 [9ba48d2b] (1/2) Accurately ripped
05 [2a2c112f] (1/2) Accurately ripped
06 [f625abf4] (1/2) Accurately ripped
07 [c71b144d] (1/2) Accurately ripped
08 [18f0601d] (1/2) Accurately ripped
09 [4fc96238] (1/2) Accurately ripped
10 [d6bb60e7] (1/2) Accurately ripped
11 [1b945a2c] (1/2) Accurately ripped
12 [7a97780e] (1/2) Accurately ripped
13 [1ae6e3ae] (1/2) Accurately ripped
Track Peak [ CRC32 ] [W/O NULL] [ LOG ]
-- 100,0 [897BB542] [884318A1]
01 85,7 [0AFC4719] [5C4D19CA] CRC32
02 66,1 [59E7BAEF] [9A520D8E] CRC32
03 75,2 [75CAD898] [84440785] CRC32
04 67,3 [38289199] [CF90F8FB] CRC32
05 80,4 [5B7EF81E] [8A5FDCA2] CRC32
06 56,8 [F4437F96] [FF83D8E9] CRC32
07 78,7 [5C1C5547] [8DA77E9C] CRC32
08 100,0 [8AF8FEFC] [38C00A65] CRC32
09 79,0 [ECAFE3F4] [C80BE855] CRC32
10 96,6 [A45BD027] [3F06E12D] CRC32
11 79,8 [750E3059] [585FA1EE] CRC32
12 98,2 [58FA017D] [2031A372] CRC32
13 100,0 [25687715] [4CF56788] CRC32
AllMusic Review by Thom Jurek
The two Jack McDuff albums compiled here by Ace's BGP imprint feature Brother Jack McDuff in one of his hard-swinging primes with a terrific band, which is the same one on both records. Assembled aesthetically rather than chronologically, the first date here was issued in 1966 as Prestige 7422. It's a studio offering that features the organist in the context of mostly original material, backed by his longstanding drummer Joe Dukes, saxophonist Red Holloway, and a young jazz guitarist named George Benson before he signed his first solo deal with Columbia. Of the McDuff tunes, the highlights include the silly yet grooving soul blues of the title track, the fingerpopping stroll of "601½ No. Poplar" -- an excellent showcase for Benson -- and the hard-bop closer "The Three Day Thang." The slow reading of "Cry Me a River" is hipper than most versions, to boot. The latter recording, cut in 1965, is a club gig with the same group. This is gritty and raw, but tight. Benson is more of a comping presence here, with Holloway matching McDuff in solo time. With the exception of a workmanlike reading of the show tune "It Ain't Necessarily So," the rest of this cooks. Highlights here include the nasty Holloway solo in "Rock Candy," the down-home, soul-gospel groove in "Sanctified Samba," and the absolutely ripping bop in "Undecided." Another treat is the cover of "Whistle While You Work" with Holloway on flute. He and McDuff deal out some sprightly but meaty improv. Dukes has always been an under-recognized drummer. If there is a star on either -- or both -- of these dates, it's him. His funky breaks, unerring pulse, and dancing sense of swing are unequaled in this format. This two-fer is certainly to be recommended for soul-jazz and organ fans.
Download
Для скачивания .torrent файлов необходима регистрация
Сайт не распространяет и не хранит электронные версии произведений, а лишь предоставляет доступ к создаваемому пользователями каталогу ссылок на торрент-файлы, которые содержат только списки хеш-сумм
[Профиль]  [ЛС] 
 
Ответить
Loading...
Error