Ребекка Мартинссон / Rebecka Martinsson / Сезон: 1 / Серии: 1-8 из 8 (Фредрик Эдфельдт) [2017, Швеция, криминал, детектив, WEBRip 720p] DVO (ViruseProject) + Original + Rus Sub

Страницы:  1

Ответить
Автор
Сообщение

агент смит

Стаж: 9 лет 3 месяца

Сообщений: 2223

агент смит · 19-Мар-18 14:44 (6 месяцев назад, ред. 24-Мар-18 17:13)

Ребекка Мартинссон / Rebecka Martinsson
Год выпуска: 2017
Страна: Швеция
Жанр: криминал, детектив
Продолжительность: ~00:45:00
Перевод: Любительский (двухголосый закадровый) ViruseProject
Режиссёр: Фредрик Эдфельдт
В ролях: Ида Энгволь, Ева Меландер, Якоб Ёрман, Гунилла Рер, Йонас Инде, Вилле Виртанен, Ларс Линд, Томас Оредссон и др.
Описание: Адвокат Ребекка Мартинссон живет в Стокгольме и работает в бюро "Мейер и Дитцингер". Однажды она узнает о том, что в ее родной деревне на севере Швеции умирает пастор Милдред Нильссон, и приезжает на ее похороны. Случается так, что Ребекка натыкается на факты, указывающие на то, что пастора, скорее всего, убили, и начинает собственное расследование. Вскоре она оказывается вовлеченной в водоворот событий, и тени прошлого мелькают перед ней. Здесь она находит старых знакомых, обретает новых, а также пытается разобраться с собственной личной жизнью, которая идет псу под хвост.
Этот детективный сериал основан на романах популярной шведской писательницы Осы Ларссон.
Качество: WEBRip 720p
Контейнер: MKV
Видео: 1280 x 720 (16:9), ~4400 Kbps, 25.000 fps, 8 bits
Аудио 1: 48 kHz, AAC, 2/0 (L,R) ch, 192 kb/s
Аудио 2: 48 kHz, AAC, 2/0 (L,R) ch, 157 kb/s
Субтитры: русские
Реклама: В аудио в начале и конце по 12 секунд.
Внимание! Раздача ведётся путём добавления новых серий
Внимание! Раздача ведётся путём добавления новых серий; при каждом добавлении создаётся новый торрент. Чтобы начать докачку новой серии, пользователям необходимо сделать следующее:
(1) остановить скачивание,
(2) удалить старый торрент у себя из клиента (старые серии удалять не надо),
(3) скачать новый торрент и запустить его у себя в клиенте вместо старого, при этом указать клиенту путь в старую папку куда и должно происходить скачивание новых серий.
Ваш клиент при этом должен произвести хеширование (проверку) старой папки (если не производит сам - помогите ему сделать это), и будет докачивать только те серии которых у вас ещё нет. Старые серии при этом не удаляются, а продолжают раздаваться!
Eсли вы уже удалили старые серии, то предотвратить повторную закачку старых серий можно, отжав галочку в соответствующих местах при запуске нового торрента. По возможности, желательно не удалять старые серии как можно дольше чтобы релизёр не столько продолжал раздавать старые серии, а смог сконцентрироваться на новых.
MediaInfo
General
Unique ID : 179571441451747229286085473423588409575 (0x8718339DAFFE6B17A4FA3D0D249140E7)
Complete name : E:\ОЗВУЧКА\777ЗАЛИВ777\Rebecka.Martinsson.S01.ViruseProject\Rebecka.Martinsson.S01.720p.ViruseProject\Rebecka.Martinsson.S01E01.720p.WEB-DL.ViruseProject.mkv
Format : Matroska
Format version : Version 4 / Version 2
File size : 1.46 GiB
Duration : 44 min 57 s
Overall bit rate : 4 661 kb/s
Encoded date : UTC 2018-03-19 07:47:02
Writing application : mkvmerge v8.3.0 ('Over the Horizon') 64bit
Writing library : libebml v1.3.1 + libmatroska v1.4.2
Video
ID : 1
Format : AVC
Format/Info : Advanced Video Codec
Format profile : [email protected]
Format settings, CABAC : Yes
Format settings, ReFrames : 3 frames
Codec ID : V_MPEG4/ISO/AVC
Duration : 44 min 56 s
Bit rate mode : Constant
Bit rate : 4 340 kb/s
Width : 1 280 pixels
Height : 720 pixels
Display aspect ratio : 16:9
Frame rate mode : Constant
Frame rate : 25.000 FPS
Standard : PAL
Color space : YUV
Chroma subsampling : 4:2:0
Bit depth : 8 bits
Scan type : Progressive
Bits/(Pixel*Frame) : 0.188
Stream size : 1.35 GiB (92%)
Default : Yes
Forced : No
Color range : Limited
Audio #1
ID : 2
Format : AAC
Format/Info : Advanced Audio Codec
Format profile : LC
Codec ID : A_AAC
Duration : 44 min 57 s
Bit rate : 192 kb/s
Channel(s) : 2 channels
Channel positions : Front: L R
Sampling rate : 48.0 kHz
Frame rate : 46.875 FPS (1024 spf)
Compression mode : Lossy
Delay relative to video : -40 ms
Stream size : 61.7 MiB (4%)
Title : ViruseProject
Language : Russian
Default : Yes
Forced : No
Audio #2
ID : 3
Format : AAC
Format/Info : Advanced Audio Codec
Format profile : LC
Codec ID : A_AAC
Duration : 44 min 56 s
Bit rate : 157 kb/s
Channel(s) : 2 channels
Channel positions : Front: L R
Sampling rate : 48.0 kHz
Frame rate : 46.875 FPS (1024 spf)
Compression mode : Lossy
Delay relative to video : -40 ms
Stream size : 50.6 MiB (3%)
Language : Swedish
Default : No
Forced : No
Text
ID : 4
Format : UTF-8
Codec ID : S_TEXT/UTF8
Codec ID/Info : UTF-8 Plain Text
Duration : 44 min 20 s
Bit rate : 66 b/s
Count of elements : 401
Stream size : 21.5 KiB (0%)
Title : ViruseProject
Language : Russian
Default : No
Forced : No
Скриншоты
Предыдущие и альтернативные раздачи
Download
Для скачивания .torrent файлов необходима регистрация
Сайт не распространяет и не хранит электронные версии произведений, а лишь предоставляет доступ к создаваемому пользователями каталогу ссылок на торрент-файлы, которые содержат только списки хеш-сумм
[Профиль]  [ЛС] 

Iucy

Стаж: 7 лет 3 месяца

Сообщений: 73

Iucy · 19-Мар-18 17:10 (спустя 2 часа 25 мин.)

[Цитировать] 

опять лесби… туды её в качель!
[Профиль]  [ЛС] 

xolera1

Стаж: 12 лет 1 месяц

Сообщений: 586

xolera1 · 19-Мар-18 19:54 (спустя 2 часа 44 мин.)

[Цитировать] 

на севере Швеции умирает пастор Милдред Нильссон, ухи просит. Видать Новичком траванули попа
[Профиль]  [ЛС] 

musia1986

Стаж: 8 лет 8 месяцев

Сообщений: 23


musia1986 · 20-Мар-18 18:39 (спустя 22 часа)

[Цитировать] 

Что-то похожее уже было. Девушка адвокат приехала из столицы в провинцию на родину на похороны проповедника какой-то религиозной общины и погрузилась в разборки , связанные с прошлым.... Не помню название, но судя по всему очень схоже с данным сюжетом.
[Профиль]  [ЛС] 

Дженя1

Стаж: 6 лет

Сообщений: 30


Дженя1 · 21-Мар-18 10:46 (спустя 16 часов)

[Цитировать] 

Сюжет ,действительно, напоминает какой ранее смотренный, но тем не менее будем смотреть !
[Профиль]  [ЛС] 

musia1986

Стаж: 8 лет 8 месяцев

Сообщений: 23


musia1986 · 21-Мар-18 14:36 (спустя 3 часа)

[Цитировать] 

Солнечная буря / Solstorm, Год выпуска: 2007
В ролях: Изабелла Скорупко, Микаэль Персбрандт, Якоб Эклунд, Кристер Хенрикссон, Сюзанна Ройтер, Мария Сундбом, Антти Рейни, Хенрик Густафссон, Андрэ Шёберг, Йёран Фошмак, Анника Ольссон, Сандра Энгстрём, Сага Ларссон
Описание: Ребекка Мартинссон (Изабелла Скорупко) живет в Стокгольме и работает адвокатом, но однажды ей звонит старый школьный друг, сообщая печальную весть: в церкви деревни Курраваара был убит ее брат. Ребекка приезжает в родную деревню, чтобы найти преступника...А разгадка тайны ужаснет и всколыхнет забытые воспоминания.
Все то-же 10 лет спустя .....
[Профиль]  [ЛС] 

Иррамур

Стаж: 9 лет 10 месяцев

Сообщений: 243

Иррамур · 06-Апр-18 16:56 (спустя 16 дней)

[Цитировать] 

Посмотрела,2 серии, ожидания оправдались -свой шведский стиль, скандинавский Понравился
Посмотрим дальше
[Профиль]  [ЛС] 

GerardDepardieu

Стаж: 1 год 9 месяцев

Сообщений: 590

GerardDepardieu · 26-Апр-18 20:11 (спустя 20 дней)

[Цитировать] 

xolera1 писал(а):
75017594Видать Новичком траванули попа
Попессу.)
musia1986 писал(а):
75027776Солнечная буря / Solstorm, Год выпуска: 2007
В ролях: Изабелла Скорупко, Микаэль Персбрандт, Якоб Эклунд, Кристер Хенрикссон, Сюзанна Ройтер, Мария Сундбом, Антти Рейни, Хенрик Густафссон, Андрэ Шёберг, Йёран Фошмак, Анника Ольссон, Сандра Энгстрём, Сага Ларссон
Описание: Ребекка Мартинссон (Изабелла Скорупко) живет в Стокгольме и работает адвокатом, но однажды ей звонит старый школьный друг, сообщая печальную весть: в церкви деревни Курраваара был убит ее брат. Ребекка приезжает в родную деревню, чтобы найти преступника...А разгадка тайны ужаснет и всколыхнет забытые воспоминания.
может и на это
http://rutracker.org/forum/viewtopic.php?t=5487775
[Профиль]  [ЛС] 

Efalina

Стаж: 8 лет 1 месяц

Сообщений: 63


Efalina · 13-Авг-18 15:21 (спустя 3 месяца 16 дней)

[Цитировать] 

Неплохой сериал. Главная героиня - красавица, сюжет не затянут: на каждую историю по 2 серии. Не настолько круто как Мост или Убийство, но посмотреть можно.
агент смит, спасибо!
[Профиль]  [ЛС] 

Andrey59t

Стаж: 5 лет 2 месяца

Сообщений: 169

Andrey59t · 13-Авг-18 16:37 (спустя 1 час 15 мин.)

[Цитировать] 

лесби - норма , как и арабы на улице (почему не в Магадане ?)- посмотрим...хотя Beck тоже был не плох (последнего сезона субтитры -так никто и прочитал), матушка гусыня не продолжилась ?
[Профиль]  [ЛС] 

Andrey59t

Стаж: 5 лет 2 месяца

Сообщений: 169

Andrey59t · 13-Сен-18 04:54 (спустя 30 дней)

[Цитировать] 

нет там лесби - средняя жевачка
[Профиль]  [ЛС] 
 
Ответить
Loading...
Error