Мир Дикого запада / Westworld / Сезон: 2 / Эпизод 1-1 (10) (Ричард Дж. Льюис, Винченцо Натали, Джонатан Нолан) [2018, США, фантастика, драма, детектив, вестерн, WEB-DL 1080p] DUB (Amedia 5.1) + Original + Sub (rus, eng)

Страницы:  1

Тема закрыта
Автор
Сообщение

itunestv

Top Loader 06* 4TB

Стаж: 4 года 7 месяцев

Сообщений: 742

itunestv · 25-Апр-18 07:00 (25 дней назад, ред. 25-Апр-18 08:56)

[Цитировать] 


Мир Дикого запада / Westworld / Сезон 2

Год выпуска: 2018
Страна: США
Жанр: Драма, Фантастика, Вестерн
Продолжительность: 01:00:00
Перевод: Профессиональный (дублированный) Amedia (Кравец)
Режиссёр: Ричард Дж. Льюис, Винченцо Натали, Джонатан Нолан
В ролях: Эван Рэйчел Вуд, Тэнди Ньютон, Джеффри Райт, Джеймс Марсден, Эд Харрис, Талула Райли, Энтони Хопкинс, Эрик Шэкелфорд, Дэниэл ТуФизерс, Люк Хемсворт
Описание: В футуристическом парке развлечений "Мир Дикого Запада" специально сконструированные андроиды выполняют любые прихоти посетителей, чтобы те чувствовали безнаказанность и полную свободу действий. Если робота убили - не беда, техники его починят, сотрут память и снова поставят в строй, навстречу новому дню и новым людским прихотям. Но оказывается, что далеко не все роботы теряют воспоминания.

Сэмпл
Ссылка на предыдущие и альтернативные раздачи

Качество: WEB-DL 1080p (AMAZON)
Контейнер: MKV
Видео: H.264/AVC, 1920x1080p (1.78:1), 23.976 fps, ~10276 kbps, ~0.207 bit/pixel
Аудио №1: Русский AC3 5.1, 48 kHz, 384 kbps
Аудио №2: Английский E-AC3/DD+ 5.1, 48 kHz, 640 kbps
Субтитры: Русские (Forced), Русские (Amedia), Английские, Английские (SDH)
Реклама: отсутствует
Релиз
Запись звука 5.1 Wilmots
Работа со звуком itunestv, ZgurVas
Список серий
Код:
01. Journey Into Night / Путешествие в ночь (2018-04-22)
02. Reunion (2018-04-29)
03. Virtu e Fortuna (2018-05-06)
04. The Riddle of the Sphinx (2018-05-13)
05. Akane No Mai (2018-05-20)
06. TBA (2018-05-27)
MediaInfo
Код:
General
Unique ID                                : 295706166515605531185832474154842200780 (0xDE76EFA326A62F3EADA4EF1BBE341ACC)
Complete name                            : Westworld.2016.S02.1080p.AMZN.WEB-DL.H264.DD5.1\Westworld.S02E01.1080p.AMZN.WEB-DL.H264.RUS.DD5.1.SRT.mkv
Format                                   : Matroska
Format version                           : Version 4 / Version 2
File size                                : 5.90 GiB
Duration                                 : 1 h 14 min
Overall bit rate mode                    : Variable
Overall bit rate                         : 11.3 Mb/s
Movie name                               : Westworld, Season 2 / Journey Into Night
Track name/Position                      : 1
Track name/Total                         : 10
Description                              : In the aftermath of the host rebellion, the rescue team finds Bernard and the new Head of Operations asks for his help. Meanwhile, Delores promises to show Teddy the truth, and Maeve convinces Lee and Hector to help her find her daughter.
Released date                            : 2018-04-23
Encoded date                             : UTC 2018-04-25 03:55:20
Writing application                      : mkvmerge v22.0.0 ('At The End Of The World') 64-bit
Writing library                          : libebml v1.3.5 + libmatroska v1.4.8
Video
ID                                       : 1
Format                                   : AVC
Format/Info                              : Advanced Video Codec
Format profile                           : [email protected]
Format settings                          : CABAC / 4 Ref Frames
Format settings, CABAC                   : Yes
Format settings, RefFrames               : 4 frames
Codec ID                                 : V_MPEG4/ISO/AVC
Duration                                 : 1 h 14 min
Bit rate mode                            : Variable
Bit rate                                 : 10.3 Mb/s
Maximum bit rate                         : 15.0 Mb/s
Width                                    : 1 920 pixels
Height                                   : 1 080 pixels
Display aspect ratio                     : 16:9
Frame rate mode                          : Constant
Frame rate                               : 23.976 (24000/1001) FPS
Color space                              : YUV
Chroma subsampling                       : 4:2:0
Bit depth                                : 8 bits
Scan type                                : Progressive
Bits/(Pixel*Frame)                       : 0.207
Stream size                              : 5.36 GiB (91%)
Language                                 : English
Default                                  : Yes
Forced                                   : No
Color range                              : Limited
Color primaries                          : BT.709
Transfer characteristics                 : BT.709
Matrix coefficients                      : BT.709
Audio #1
ID                                       : 2
Format                                   : AC-3
Format/Info                              : Audio Coding 3
Format settings, Endianness              : Big
Codec ID                                 : A_AC3
Duration                                 : 1 h 14 min
Bit rate mode                            : Constant
Bit rate                                 : 384 kb/s
Channel(s)                               : 6 channels
Channel positions                        : Front: L C R, Side: L R, LFE
Sampling rate                            : 48.0 kHz
Frame rate                               : 31.250 FPS (1536 SPF)
Bit depth                                : 16 bits
Compression mode                         : Lossy
Stream size                              : 205 MiB (3%)
Title                                    : Amedia (Кравец)
Language                                 : Russian
Service kind                             : Complete Main
Default                                  : Yes
Forced                                   : No
Audio #2
ID                                       : 3
Format                                   : E-AC-3
Format/Info                              : Enhanced Audio Coding 3
Format settings, Endianness              : Big
Codec ID                                 : A_EAC3
Duration                                 : 1 h 14 min
Bit rate mode                            : Constant
Bit rate                                 : 640 kb/s
Channel(s)                               : 6 channels
Channel positions                        : Front: L C R, Side: L R, LFE
Sampling rate                            : 48.0 kHz
Frame rate                               : 187.500 FPS (256 SPF)
Compression mode                         : Lossy
Stream size                              : 342 MiB (6%)
Language                                 : English
Service kind                             : Complete Main
Default                                  : No
Forced                                   : No
Text #1
ID                                       : 4
Format                                   : UTF-8
Codec ID                                 : S_TEXT/UTF8
Codec ID/Info                            : UTF-8 Plain Text
Duration                                 : 3 min 51 s
Bit rate                                 : 173 b/s
Count of elements                        : 91
Stream size                              : 4.92 KiB (0%)
Title                                    : Forced
Language                                 : Russian
Default                                  : Yes
Forced                                   : No
Text #2
ID                                       : 5
Format                                   : UTF-8
Codec ID                                 : S_TEXT/UTF8
Codec ID/Info                            : UTF-8 Plain Text
Duration                                 : 1 h 6 min
Bit rate                                 : 50 b/s
Count of elements                        : 605
Stream size                              : 24.4 KiB (0%)
Title                                    : Amedia
Language                                 : Russian
Default                                  : No
Forced                                   : No
Text #3
ID                                       : 6
Format                                   : UTF-8
Codec ID                                 : S_TEXT/UTF8
Codec ID/Info                            : UTF-8 Plain Text
Duration                                 : 1 h 14 min
Bit rate                                 : 38 b/s
Count of elements                        : 714
Stream size                              : 21.1 KiB (0%)
Language                                 : English
Default                                  : No
Forced                                   : No
Text #4
ID                                       : 7
Format                                   : UTF-8
Codec ID                                 : S_TEXT/UTF8
Codec ID/Info                            : UTF-8 Plain Text
Duration                                 : 1 h 14 min
Bit rate                                 : 42 b/s
Count of elements                        : 802
Stream size                              : 23.2 KiB (0%)
Title                                    : SDH
Language                                 : English
Default                                  : No
Forced                                   : No
Скриншоты
Раздача ведется путем добавления новых серий
Когда раздача ведётся путём добавления новых серий, при каждом добавлении создётся новый торрент. Чтобы начать докачку новой серии, пользователям необходимо сделать следующее:
(1) остановить скачивание,
(2) удалить старый торрент у себя из клиента (старые серии удалять не надо),
(3) скачать новый торрент и запустить его у себя в клиенте вместо старого, при этом указать клиенту путь в старую папку, куда и должно происходить скачивание новых серий.
Ваш клиент при этом должен произвести хеширование (проверку) старой папки (если не производит сам - помогите ему сделать это), и будет докачивать только те серии, которых у вас ещё нет. Старые серии при этом не удаляются, а продолжают раздаваться!
Eсли вы уже удалили старые серии, то предотвратить повторную закачку старых серий можно, отжав галочку в соответсвующих местах при запуске нового торрента. По возможности, желательно не удалять старые серии как можно дольше, чтобы релизёр не столько продолжал раздавать старые серии, а смог сконцентрироваться на новых.
[Профиль]  [ЛС] 

bot · 25-Апр-18 09:19 (спустя 2 часа 19 мин.)

Тема была перенесена из форума Оформление раздач (Группа "Top Seed") в форум Зарубежные сериалы (HD Video)
itunestv
 

yampo.it

Top User 06

Стаж: 12 лет

Сообщений: 55

yampo.it · 25-Апр-18 16:58 (спустя 9 часов)

[Цитировать] 

Может быть вы просто в своей предыдущей раздаче смените звуковую дорожку на 5.1 ?
[Профиль]  [ЛС] 

SergisonZ

Стаж: 10 лет 11 месяцев

Сообщений: 72

SergisonZ · 25-Апр-18 17:05 (спустя 6 мин.)

[Цитировать] 

А кто-нибудь знает информацию, когда сериал в 4k будет?
[Профиль]  [ЛС] 

itunestv

Top Loader 06* 4TB

Стаж: 4 года 7 месяцев

Сообщений: 742

itunestv · 25-Апр-18 17:11 (спустя 6 мин.)

[Цитировать] 

SergisonZ писал(а):
75242911А кто-нибудь знает информацию, когда сериал в 4k будет?
1 сезон уже есть
[Профиль]  [ЛС] 

virpil70

Стаж: 10 лет 1 месяц

Сообщений: 53

virpil70 · 26-Апр-18 11:11 (спустя 17 часов)

[Цитировать] 

Подписка
[Профиль]  [ЛС] 

miksto

Стаж: 7 лет 5 месяцев

Сообщений: 305


miksto · 26-Апр-18 11:44 (спустя 33 мин.)

[Цитировать] 

yampo.it писал(а):
75242877Может быть вы просто в своей предыдущей раздаче смените звуковую дорожку на 5.1 ?
Пережат звук черезчур - аж до 384кбс. Кому 5.1 не нужен - лучше ту раздачу качать.
[Профиль]  [ЛС] 

Dmitry PD

Стаж: 3 года 9 месяцев

Сообщений: 232


Dmitry PD · 26-Апр-18 23:54 (спустя 12 часов)

[Цитировать] 

Полюбопытствуем
[Профиль]  [ЛС] 

qqss44

Moderator gray

Стаж: 8 лет 9 месяцев

Сообщений: 5338

qqss44 · 27-Апр-18 14:07 (спустя 14 часов)

[Цитировать] 

http://rutracker.org/forum/viewtopic.php?t=5554112
http://sendpic.org/view/1/i/juZjqVSx6Qp8tJgEU7eYaW5C4dP.png
http://sendpic.org/view/1/i/y07oqHGXEYyYmCz8cwk8IwGBwmD.png
[Профиль]  [ЛС] 

bot · 01-Май-18 15:47 (спустя 4 дня)

Тема была перенесена из форума Зарубежные сериалы (HD Video) в форум Архив Зарубежные сериалы (HD Video)
qqss44
 
 
Тема закрыта
Loading...
Error