[TR24][OF] Kanye West - ye - 2018 (Hip-Hop)

Страницы:  1

Ответить
Автор
Сообщение

xellofon

Стаж: 8 лет 7 месяцев

Сообщений: 632


xellofon · 03-Июн-18 18:39 (3 месяца 17 дней назад)

Kanye West - ye
Формат записи/Источник записи: [TR24][OF]
Наличие водяных знаков: Нет
Год издания/переиздания диска: 2018
Жанр: Hip Hop/Rap, New
Издатель (лейбл): Rock The World/IDJ/Kanye LP7
Продолжительность: 0:23:43
Наличие сканов в содержимом раздачи: Нет
Контейнер: FLAC (*.flac)
Тип рипа: tracks
Разрядность: 24/44,1
Формат: PCM
Количество каналов: 2.0
Источник: HDtracks

01. I Thought About Killing You (04:34)
02. Yikes (03:09)
03. All Mine (02:26)
04. Wouldn't Leave (03:26)
05. No Mistakes (02:03)
06. Ghost Town (04:32)
07. Violent Crimes (03:35)
Лог проверки качества
foobar2000 1.3.15 / Замер динамического диапазона (DR) 1.1.1
Дата отчёта: 2018-06-03 21:23:49
--------------------------------------------------------------------------------
Анализ: Kanye West / ye
--------------------------------------------------------------------------------
DR Пики RMS Продолжительность трека
--------------------------------------------------------------------------------
DR6 0.00 дБ -9.48 дБ 4:34 1-I Thought About Killing You
DR5 0.00 дБ -5.78 дБ 3:09 2-Yikes
DR6 0.00 дБ -7.75 дБ 2:26 3-All Mine
DR6 0.00 дБ -9.23 дБ 3:26 4-Wouldn't Leave
DR4 0.00 дБ -5.57 дБ 2:03 5-No Mistakes
DR5 0.00 дБ -6.96 дБ 4:31 6-Ghost Town
DR6 0.00 дБ -8.04 дБ 3:35 7-Violent Crimes
--------------------------------------------------------------------------------
Количество треков: 7
Реальные значения DR: DR5
Частота: 44100 Гц
Каналов: 2
Разрядность: 24
Битрейт: 1495 кбит/с
Кодек: FLAC
================================================================================
Download
Для скачивания .torrent файлов необходима регистрация
Сайт не распространяет и не хранит электронные версии произведений, а лишь предоставляет доступ к создаваемому пользователями каталогу ссылок на торрент-файлы, которые содержат только списки хеш-сумм
[Профиль]  [ЛС] 

MihRih

Moderator

Стаж: 3 года 5 месяцев

Сообщений: 1231

MihRih · 03-Июн-18 19:19 (спустя 39 мин.)

[Цитировать] 

# сомнительно
У большинства треков низкие значения динамического диапазона DR5, вероятен клиппинг
[Профиль]  [ЛС] 

Afro-Samurai

Music Group

Стаж: 8 лет 1 месяц

Сообщений: 1148

Afro-Samurai · 04-Июн-18 00:13 (спустя 4 часа)

[Цитировать] 

MihRih писал(а):
75455691# сомнительно
У большинства треков низкие значения динамического диапазона DR5, вероятен клиппинг
Стопудово транскод тидаловский
[Профиль]  [ЛС] 

Лесник1964

Стаж: 8 лет

Сообщений: 15


Лесник1964 · 06-Июн-18 18:36 (спустя 2 дня 18 часов, ред. 06-Июн-18 18:36)

[Цитировать] 

Что этот альбом, что Дайтона, одинаковый продакшн - режет уши громкостью... Эх
[Профиль]  [ЛС] 

a.nope

Стаж: 5 месяцев 20 дней

Сообщений: 30

a.nope · 11-Июн-18 19:12 (спустя 5 дней, ред. 11-Июн-18 19:12)

[Цитировать] 

Почему-то думалось что подобные жанры/стили существуют исключительно в *mp3/lossy.
[Профиль]  [ЛС] 

ichbinich

Победители конкурсов

Стаж: 7 лет 1 месяц

Сообщений: 1843

ichbinich · 20-Июн-18 18:19 (спустя 8 дней)

[Цитировать] 

Очень коротенький какой-то альбом...
[Профиль]  [ЛС] 

Mike127

Стаж: 8 лет 4 месяца

Сообщений: 249

Mike127 · 04-Сен-18 18:46 (спустя 2 месяца 14 дней, ред. 04-Сен-18 18:46)

[Цитировать] 

Сибилянтов что там что там хватает, субъективно здесь не так много, хотя на обычном издании края диапазона обработаны. Устроил жене с музыкальным слухом слепое прослушивание, сказала что ей вариант этот больше нравится.
Есть версии: либо кто то анти-клиппингом поработал, либо как мы видим на графиках есть несущественная разница в релизах, и заметьте что треки не идентичны по длительности - что значит возможно это пред релизная версия альбома спертого у Канье, ведь с ним уже такой бывало с Yeezus альбомом т.к. источник сомнительный лейбл на HDtracks. В любом случае чего многого ждать от музыки написанной на MPC.
P.S. Кто подскажет что с Ватой? Работает? Если да, то отправьте актуальную ссылку

[Профиль]  [ЛС] 
 
Ответить
Loading...
Error