[TR24][OF] Celtic Woman - Voices Of Angels - 2016/2018 (Folk, World, Celtic)

Страницы:  1

Ответить
Автор
Сообщение

papa1954

Top Seed 09* 10240r

Стаж: 11 лет 6 месяцев

Сообщений: 16481

papa1954 · 30-Июл-18 21:58 (1 месяц 21 день назад, ред. 30-Июл-18 22:12)

Celtic Woman - Voices Of Angels Формат записи/Источник записи: [TR24][OF]
Наличие водяных знаков: Нет
Год издания/переиздания диска: 2016/2018
Жанр: Folk, World, Celtic
Издатель (лейбл): Celtic Collections
Продолжительность: 64:56
Наличие сканов в содержимом раздачи: Только обложка альбома
Треклист:
01. My Heart Will Go On (4:21)
02. Isle Of Hope, Isle Of Tears (5:01)
03. As She Moved Through The Fair (3:56)
04. Mo Ghile Mear (My Gallant Star) (3:37)
05. Ave Maria (2:56)
06. For The Love Of A Princess (3:49)
07. Time To Say Goodbye (4:02)
08. Dulaman (4:18)
09. Walk Beside Me (4:40)
10. O, America! (4:57)
11. A Time For Us (4:02)
12. Across The World (3:35)
13. Téir Abhaile Riú (3:53)
14. Joy To The World (3:30)
15. Silent Night (4:11)
16. Once In Royal David's City (4:09)
Personnel:
Éabha McMahon (1, 2, 4, 7, 9, 10, 13-16)
Máiréad Carlin (1, 4, 5, 7, 9-11, 13-16)
Susan McFadden (1, 3, 4, 9, 10, 13-16)
Tara McNeill (1, 4, 6, 7, 9-16)
Méav Ní Mhaolchatha (8, 10)
and 72-piece Orchestra of Ireland
Rec.: Cauldron Studios, Dublin, Ireland, August 12, 13, and 15, 2016.
 
Об альбоме
Celtic Woman has a remarkable twelve-year legacy of introducing the most talented singers and musicians from Ireland onto the world stage. Voices Of Angels showcases the angelic voices of Susan McFadden, Mairead Carlin, Eabha McMahon and introduces the breathtaking new Celtic violinist Tara McNeill.
The Voices Of Angels (Manhattan/Caroline) album contains some of the most popular songs from the Celtic Woman repertoire along with several previously unrecorded tracks, all with stunning new orchestral arrangements recorded with the 72-piece Orchestra of Ireland.

Контейнер: FLAC (*.flac)
Тип рипа: tracks
Разрядность: 24/48
Формат: PCM
Количество каналов: 2.0
Лог проверки качества
foobar2000 1.3.9 / Dynamic Range Meter 1.1.1
log date: 2018-07-30 20:19:49
--------------------------------------------------------------------------------
Analyzed: Celtic Woman / Voices Of Angels
--------------------------------------------------------------------------------
DR Peak RMS Duration Track
--------------------------------------------------------------------------------
DR11 -0.12 dB -15.61 dB 4:21 01-My Heart Will Go On
DR12 -0.12 dB -15.99 dB 5:01 02-Isle Of Hope, Isle Of Tears
DR10 -0.12 dB -14.39 dB 3:56 03-As She Moved Through The Fair
DR9 -0.12 dB -12.48 dB 3:37 04-Mo Ghile Mear (My Gallant Star)
DR10 -0.64 dB -15.94 dB 2:56 05-Ave Maria
DR12 -0.12 dB -16.78 dB 3:49 06-For The Love Of A Princess
DR11 -0.12 dB -14.55 dB 4:02 07-Time To Say Goodbye
DR10 -0.12 dB -13.90 dB 4:18 08-Dulaman
DR9 -0.12 dB -14.40 dB 4:40 09-Walk Beside Me
DR10 -0.12 dB -14.31 dB 4:57 10-O, America!
DR9 -0.12 dB -13.87 dB 4:02 11-A Time For Us
DR11 -0.12 dB -14.40 dB 3:35 12-Across The World
DR10 -0.12 dB -13.98 dB 3:53 13-Téir Abhaile Riú
DR11 -0.12 dB -15.18 dB 3:30 14-Joy To The World
DR11 -1.26 dB -17.50 dB 4:11 15-Silent Night
DR11 -1.12 dB -17.11 dB 4:09 16-Once In Royal David's City
--------------------------------------------------------------------------------
Number of tracks: 16
Official DR value: DR10
Samplerate: 48000 Hz
Channels: 2
Bits per sample: 24
Bitrate: 1460 kbps
Codec: FLAC
================================================================================
Источник: highresaudio.com
Download
Для скачивания .torrent файлов необходима регистрация
Сайт не распространяет и не хранит электронные версии произведений, а лишь предоставляет доступ к создаваемому пользователями каталогу ссылок на торрент-файлы, которые содержат только списки хеш-сумм
[Профиль]  [ЛС] 
 
Ответить
Loading...
Error