[TR24][OF] Morgan Evans - Morgan Evans (EP) - 2018 (Country)

Страницы:  1

Ответить
Автор
Сообщение

mart0372

Top Best

Стаж: 6 лет 7 месяцев

Сообщений: 15247

mart0372 · 11-Авг-18 20:41 (1 месяц 12 дней назад, ред. 11-Авг-18 20:42)

Morgan Evans / Morgan Evans
Формат записи/Источник записи: [TR24][OF]
Наличие водяных знаков: Нет
Издание: EP
Год издания/переиздания диска: 2018
Жанр: Country
Издатель (лейбл): Warner Bros.
Продолжительность: 00:16:15
Наличие сканов в содержимом раздачи: Обложка
Треклист:
01. Day Drunk
02. American
03. I Do
04. Kiss Somebody
05. Young Again

Контейнер: FLAC (*.flac)
Тип рипа: tracks
Разрядность: 24/44,1
Формат: WAV (flac.ape.wv)
Количество каналов: 2.0
Лог проверки качества
foobar2000 1.3.7 / Dynamic Range Meter 1.1.1
log date: 2018-08-11 10:39:14
--------------------------------------------------------------------------------
Analyzed: Morgan Evans / Morgan Evans EP
--------------------------------------------------------------------------------
DR Peak RMS Duration Track
--------------------------------------------------------------------------------
DR7 0.00 dB -9.17 dB 3:15 01-Day Drunk
DR8 0.00 dB -10.04 dB 3:04 02-American
DR8 0.00 dB -10.09 dB 3:30 03-I Do
DR8 0.00 dB -10.42 dB 3:32 04-Kiss Somebody
DR7 0.00 dB -8.97 dB 2:55 05-Young Again
--------------------------------------------------------------------------------
Number of tracks: 5
Official DR value: DR8
Samplerate: 44100 Hz
Channels: 2
Bits per sample: 24
Bitrate: 1686 kbps
Codec: FLAC
================================================================================

Источник (релизер): 7digital
Download
Для скачивания .torrent файлов необходима регистрация
Сайт не распространяет и не хранит электронные версии произведений, а лишь предоставляет доступ к создаваемому пользователями каталогу ссылок на торрент-файлы, которые содержат только списки хеш-сумм
[Профиль]  [ЛС] 

ichbinich

Победители конкурсов

Стаж: 7 лет 1 месяц

Сообщений: 1834

ichbinich · 27-Авг-18 18:47 (спустя 15 дней)

[Цитировать] 

Хорошая ЕР-шка.
[Профиль]  [ЛС] 
 
Ответить
Loading...
Error