Николай II. Опережая время (Полина Мурашко (Белых)) [2018, Православно-исторический, DVD5]

Страницы:  1

Ответить
Автор
Сообщение

sovsem-neduhoven

Top Seed 07* 2560r

Стаж: 9 лет 8 месяцев

Сообщений: 6365

sovsem-neduhoven · 29-Сен-18 22:36 (1 месяц 22 дня назад, ред. 30-Сен-18 12:08)

Николай II. Опережая время
Год выпуска: 2018
Страна: Россия
Жанр: Православно-исторический
Продолжительность: 01:12:14
Перевод: Не требуется
Русские субтитры: нет
Оригинальная аудиодорожка: русский
Режиссер: Полина Мурашко (Белых)
Описание: Фильм посвящен последнему Российскому императору Николаю II. Основан на достоверных фактах и цифрах, восстанавливая реальную картину того времени, показывает личность Государя, опираясь на воспоминания современников и изыскания историков, а не на навязанные стереотипы. В фильме отсутствует закадровый текст, чтобы зритель опираясь на представленные факты мог самостоятельно сделать выводы.
В фильме приняли участие историки Владимир Лавров и Андрей Борисюк, Петр Мультатули, кандидат исторических наук, военный журналист и полковник запаса Владислав Майоров, митрополит Кирилл Екатеринбургский и Верхотурский, капитан сборной России по хоккею Павел Дацюк, журналист Борис Корчевников, певица Виктория Цыганова и Ольга Куликовская-Романова - русский общественный деятель, почётный академик Российской Академии Художеств (2005), вдова Тихона Николаевича Куликовского-Романова — родного племянника Николая II.
Доп. информация: Проект подготовлен по благословению митрополита Екатеринбургского и Верхотурского Кирилла.
Меню нет.
Сэмпл: http://multi-up.com/1210337
Качество: DVD5
Формат: DVD Video
Видео: 5789 Кбит/сек, PAL 720*576 (16:9), 25,000 кадров/сек, MPEG2
Аудио: Русский, 192 Кбит/сек, 48,0 КГц, 16 бит, 2 канала, AC-3
DVDInfo
Title: Николай II. Опережая время
Size: 3.07 Gb ( 3 223 534,00 KBytes ) - DVD-5
Enabled regions: 1, 2, 3, 4, 5, 6, 7, 8
VTS_01 :
Play Length: 01:12:14
Video: PAL 16:9 (720x576) VBR, Auto Letterboxed
Audio:
Russian (Dolby AC3, 2 ch)
* Menus Information *
VIDEO_TS Menu
Video:
PAL 4:3 (720x576) VBR
Auto Pan&Scan, Auto Letterboxed
Language Unit :
Title Menu
VTS_01 Menu
Video:
PAL 4:3 (720x576) VBR
Auto Pan&Scan, Auto Letterboxed
Language Unit :
Root Menu
MediaInfo
Общее
Полное имя : I:\MONAR\Документальные фильмы\История России и мира\Николай II. Опережая время\VIDEO_TS\VIDEO_TS.BUP
Формат : DVD Video
Профиль формата : Menu
Размер файла : 8,00 Кбайт
Режим общего битрейта : Переменный
FileExtension_Invalid : ifo
Видео
Идентификатор : 224 (0xE0)
Формат : MPEG Video
Версия формата : Version 1
Вид битрейта : Переменный
Ширина : 720 пикселей
Высота : 576 пикселей
Соотношение сторон : 4:3
Частота кадров : 25,000 кадров/сек
Стандарт вещания : PAL
Метод сжатия : С потерями
Общее
Полное имя : I:\MONAR\Документальные фильмы\История России и мира\Николай II. Опережая время\VIDEO_TS\VIDEO_TS.IFO
Формат : DVD Video
Профиль формата : Menu
Размер файла : 8,00 Кбайт
Режим общего битрейта : Переменный
Видео
Идентификатор : 224 (0xE0)
Формат : MPEG Video
Версия формата : Version 1
Вид битрейта : Переменный
Ширина : 720 пикселей
Высота : 576 пикселей
Соотношение сторон : 4:3
Частота кадров : 25,000 кадров/сек
Стандарт вещания : PAL
Метод сжатия : С потерями
Общее
Полное имя : I:\MONAR\Документальные фильмы\История России и мира\Николай II. Опережая время\VIDEO_TS\VTS_01_0.BUP
Формат : DVD Video
Профиль формата : Program
Размер файла : 46,0 Кбайт
Продолжительность : 1 ч. 12 м.
Режим общего битрейта : Переменный
Общий поток : 87 бит/сек
FileExtension_Invalid : ifo
Видео
Идентификатор : 224 (0xE0)
Формат : MPEG Video
Версия формата : Version 2
Продолжительность : 1 ч. 12 м.
Вид битрейта : Переменный
Ширина : 720 пикселей
Высота : 576 пикселей
Соотношение сторон : 16:9
Частота кадров : 25,000 кадров/сек
Стандарт вещания : PAL
Метод сжатия : С потерями
Аудио
Идентификатор : 128 (0x80)
Формат : AC-3
Формат/Информация : Audio Coding 3
Продолжительность : 1 ч. 12 м.
Каналы : 2 канала
Частота : 48,0 КГц
Метод сжатия : С потерями
Язык : Russian
Меню
Продолжительность : 1 ч. 12 м.
00:00:00.000 : Chapter 1
00:10:00.000 : Chapter 2
00:19:59.920 : Chapter 3
00:30:00.040 : Chapter 4
00:39:59.800 : Chapter 5
00:49:59.720 : Chapter 6
01:00:00.040 : Chapter 7
01:10:00.160 : Chapter 8
List (Audio) : 0
Общее
Полное имя : I:\MONAR\Документальные фильмы\История России и мира\Николай II. Опережая время\VIDEO_TS\VTS_01_0.IFO
Формат : DVD Video
Профиль формата : Program
Размер файла : 46,0 Кбайт
Продолжительность : 1 ч. 12 м.
Режим общего битрейта : Переменный
Общий поток : 87 бит/сек
Видео
Идентификатор : 224 (0xE0)
Формат : MPEG Video
Версия формата : Version 2
Продолжительность : 1 ч. 12 м.
Вид битрейта : Переменный
Ширина : 720 пикселей
Высота : 576 пикселей
Соотношение сторон : 16:9
Частота кадров : 25,000 кадров/сек
Стандарт вещания : PAL
Метод сжатия : С потерями
Аудио
Идентификатор : 128 (0x80)
Формат : AC-3
Формат/Информация : Audio Coding 3
Продолжительность : 1 ч. 12 м.
Каналы : 2 канала
Частота : 48,0 КГц
Метод сжатия : С потерями
Язык : Russian
Меню
Продолжительность : 1 ч. 12 м.
00:00:00.000 : Chapter 1
00:10:00.000 : Chapter 2
00:19:59.920 : Chapter 3
00:30:00.040 : Chapter 4
00:39:59.800 : Chapter 5
00:49:59.720 : Chapter 6
01:00:00.040 : Chapter 7
01:10:00.160 : Chapter 8
List (Audio) : 0
Общее
Полное имя : I:\MONAR\Документальные фильмы\История России и мира\Николай II. Опережая время\VIDEO_TS\VTS_01_1.VOB
Формат : MPEG-PS
Размер файла : 1024 Мбайт
Продолжительность : 23 м. 29 с.
Режим общего битрейта : Переменный
Общий поток : 6092 Кбит/сек
Видео
Идентификатор : 224 (0xE0)
Формат : MPEG Video
Версия формата : Version 2
Профиль формата : [email protected]
Параметр BVOP формата : Нет
Параметр матрицы формата : По умолчанию
Параметр GOP формата : N=15
Продолжительность : 23 м. 29 с.
Вид битрейта : Переменный
Битрейт : 5789 Кбит/сек
Ширина : 720 пикселей
Высота : 576 пикселей
Соотношение сторон : 16:9
Частота кадров : 25,000 кадров/сек
Стандарт вещания : PAL
Цветовое пространство : YUV
Субдискретизация насыщенности : 4:2:0
Битовая глубина : 8 бит
Тип развёртки : Прогрессивная
Метод сжатия : С потерями
Бит/(Пиксели*Кадры) : 0.558
Временной код первого кадра : 00:00:00:00
Оригинал временного кода : Group of pictures header
GOP, открыто/закрыто : Открыто
Размер потока : 971 Мбайт (95%)
Аудио
Идентификатор : 189 (0xBD)-128 (0x80)
Формат : AC-3
Формат/Информация : Audio Coding 3
Коммерческое название : Dolby Digital
Режим смешивания : DVD-Video
Продолжительность : 23 м. 29 с.
Вид битрейта : Постоянный
Битрейт : 192 Кбит/сек
Каналы : 2 канала
Channel layout : L R
Частота : 48,0 КГц
Частота кадров : 31,250 кадров/сек (1536 SPF)
Битовая глубина : 16 бит
Метод сжатия : С потерями
Размер потока : 32,3 Мбайт (3%)
ServiceKind/String : Complete Main
Меню
Общее
Полное имя : I:\MONAR\Документальные фильмы\История России и мира\Николай II. Опережая время\VIDEO_TS\VTS_01_2.VOB
Формат : MPEG-PS
Размер файла : 1024 Мбайт
Продолжительность : 23 м. 29 с.
Режим общего битрейта : Переменный
Общий поток : 6094 Кбит/сек
Видео
Идентификатор : 224 (0xE0)
Формат : MPEG Video
Версия формата : Version 2
Профиль формата : [email protected]
Параметр BVOP формата : Нет
Параметр матрицы формата : По умолчанию
Параметр GOP формата : N=15
Продолжительность : 23 м. 29 с.
Вид битрейта : Переменный
Битрейт : 5789 Кбит/сек
Ширина : 720 пикселей
Высота : 576 пикселей
Соотношение сторон : 16:9
Частота кадров : 25,000 кадров/сек
Стандарт вещания : PAL
Цветовое пространство : YUV
Субдискретизация насыщенности : 4:2:0
Битовая глубина : 8 бит
Тип развёртки : Прогрессивная
Метод сжатия : С потерями
Бит/(Пиксели*Кадры) : 0.558
Временной код первого кадра : 00:23:30:11
Оригинал временного кода : Group of pictures header
GOP, открыто/закрыто : Открыто
Размер потока : 971 Мбайт (95%)
Аудио
Идентификатор : 189 (0xBD)-128 (0x80)
Формат : AC-3
Формат/Информация : Audio Coding 3
Коммерческое название : Dolby Digital
Режим смешивания : DVD-Video
Продолжительность : 23 м. 29 с.
Вид битрейта : Постоянный
Битрейт : 192 Кбит/сек
Каналы : 2 канала
Channel layout : L R
Частота : 48,0 КГц
Частота кадров : 31,250 кадров/сек (1536 SPF)
Битовая глубина : 16 бит
Метод сжатия : С потерями
Задержка видео : -648 мс.
Размер потока : 32,3 Мбайт (3%)
ServiceKind/String : Complete Main
Меню
Общее
Полное имя : I:\MONAR\Документальные фильмы\История России и мира\Николай II. Опережая время\VIDEO_TS\VTS_01_3.VOB
Формат : MPEG-PS
Размер файла : 1024 Мбайт
Продолжительность : 23 м. 29 с.
Режим общего битрейта : Переменный
Общий поток : 6093 Кбит/сек
Видео
Идентификатор : 224 (0xE0)
Формат : MPEG Video
Версия формата : Version 2
Профиль формата : [email protected]
Параметр BVOP формата : Нет
Параметр матрицы формата : По умолчанию
Параметр GOP формата : N=15
Продолжительность : 23 м. 29 с.
Вид битрейта : Переменный
Битрейт : 5789 Кбит/сек
Ширина : 720 пикселей
Высота : 576 пикселей
Соотношение сторон : 16:9
Частота кадров : 25,000 кадров/сек
Стандарт вещания : PAL
Цветовое пространство : YUV
Субдискретизация насыщенности : 4:2:0
Битовая глубина : 8 бит
Тип развёртки : Прогрессивная
Метод сжатия : С потерями
Бит/(Пиксели*Кадры) : 0.558
Временной код первого кадра : 00:46:59:18
Оригинал временного кода : Group of pictures header
GOP, открыто/закрыто : Открыто
Размер потока : 971 Мбайт (95%)
Аудио
Идентификатор : 189 (0xBD)-128 (0x80)
Формат : AC-3
Формат/Информация : Audio Coding 3
Коммерческое название : Dolby Digital
Режим смешивания : DVD-Video
Продолжительность : 23 м. 29 с.
Вид битрейта : Постоянный
Битрейт : 192 Кбит/сек
Каналы : 2 канала
Channel layout : L R
Частота : 48,0 КГц
Частота кадров : 31,250 кадров/сек (1536 SPF)
Битовая глубина : 16 бит
Метод сжатия : С потерями
Задержка видео : -232 мс.
Размер потока : 32,3 Мбайт (3%)
ServiceKind/String : Complete Main
Меню
Общее
Полное имя : I:\MONAR\Документальные фильмы\История России и мира\Николай II. Опережая время\VIDEO_TS\VTS_01_4.VOB
Формат : MPEG-PS
Размер файла : 75,9 Мбайт
Продолжительность : 1 м. 44 с.
Режим общего битрейта : Переменный
Общий поток : 6076 Кбит/сек
Видео
Идентификатор : 224 (0xE0)
Формат : MPEG Video
Версия формата : Version 2
Профиль формата : [email protected]
Параметр BVOP формата : Нет
Параметр матрицы формата : По умолчанию
Параметр GOP формата : Variable
Продолжительность : 1 м. 44 с.
Вид битрейта : Переменный
Битрейт : 5789 Кбит/сек
Ширина : 720 пикселей
Высота : 576 пикселей
Соотношение сторон : 16:9
Частота кадров : 25,000 кадров/сек
Стандарт вещания : PAL
Цветовое пространство : YUV
Субдискретизация насыщенности : 4:2:0
Битовая глубина : 8 бит
Тип развёртки : Прогрессивная
Метод сжатия : С потерями
Бит/(Пиксели*Кадры) : 0.558
Временной код первого кадра : 01:10:29:14
Оригинал временного кода : Group of pictures header
GOP, открыто/закрыто : Открыто
Размер потока : 71,8 Мбайт (95%)
Аудио
Идентификатор : 189 (0xBD)-128 (0x80)
Формат : AC-3
Формат/Информация : Audio Coding 3
Коммерческое название : Dolby Digital
Режим смешивания : DVD-Video
Продолжительность : 1 м. 44 с.
Вид битрейта : Постоянный
Битрейт : 192 Кбит/сек
Каналы : 2 канала
Channel layout : L R
Частота : 48,0 КГц
Частота кадров : 31,250 кадров/сек (1536 SPF)
Битовая глубина : 16 бит
Метод сжатия : С потерями
Задержка видео : -312 мс.
Размер потока : 2,40 Мбайт (3%)
ServiceKind/String : Complete Main
Меню
Скриншоты
Анаморфированные скриншоты
Диск
Download
Для скачивания .torrent файлов необходима регистрация
Сайт не распространяет и не хранит электронные версии произведений, а лишь предоставляет доступ к создаваемому пользователями каталогу ссылок на торрент-файлы, которые содержат только списки хеш-сумм
[Профиль]  [ЛС] 
 
Ответить
Loading...
Error