Святитель (Татьяна Новикова) [2016, Православные святые, DVD5]

Страницы:  1

Ответить
Автор
Сообщение

sovsem-neduhoven

Top Seed 07* 2560r

Стаж: 9 лет 8 месяцев

Сообщений: 6365

sovsem-neduhoven · 30-Сен-18 14:37 (1 месяц 19 дней назад)

Святитель
Год выпуска: 2016
Страна: Россия
Жанр: Православные святые
Продолжительность: 00:52:00
Перевод: Не требуется
Русские субтитры: нет
Доп. информация о субтитрах: английские (встроенные)
Оригинальная аудиодорожка: русский
Режиссер: Т. Новикова
Описание: Документальный фильм рассказывает о духовном подвиге святителя Филарета (Дроздова), митрополита Московского и Коломенского, о важнейших событиях в истории России в царствование Александра I, Николая I, Александра II, о Пушкине и Гоголе, о Москве.
Доп. информация: Фильм, снятый при содействии Московской Патриархии, Троице-Сергиевой Лавры, Патриаршего подворья храмов Зарядья в Китай-городе, был отмечен Дипломом и специальным упоминанием жюри на XXII Международном фестивале кинофильмов и телепрограмм "Радонеж" в 2017 году.
Меню нет, разбиение на главы формальное.
Сэмпл: http://multi-up.com/1210392
Качество: DVD5
Формат: DVD Video
Видео: 6459 Кбит/сек, PAL 720*576 (16:9), 25,000 кадров/сек, MPEG2
Аудио: Русский, 1536 Кбит/сек, 48,0 КГц, 16 бит, 2 канала, PCM
DVDInfo
Title: Святитель
Size: 2.87 Gb ( 3 004 448,00 KBytes ) - DVD-5
Enabled regions: 1, 2, 3, 4, 5, 6, 7, 8
VTS_01 :
Play Length: 00:52:00
Video: PAL 16:9 (720x576) VBR, Auto Pan&Scan
Audio:
Not specified (LinearPCM, 2 ch)
* Menus Information *
VIDEO_TS Menu
Video:
PAL 4:3 (720x576) VBR
Russian Language Unit :
Title Menu
VTS_01 Menu
Video:
PAL 4:3 (720x576) VBR
Russian Language Unit :
Root Menu
MediaInfo
Общее
Полное имя : J:\MONAR\Видео\Документальные фильмы\Святые Вселенского Православия\Святитель\VIDEO_TS\VIDEO_TS.BUP
Формат : DVD Video
Профиль формата : Menu
Размер файла : 14,0 Кбайт
Режим общего битрейта : Переменный
FileExtension_Invalid : ifo
Видео
Идентификатор : 224 (0xE0)
Формат : MPEG Video
Версия формата : Version 2
Вид битрейта : Переменный
Ширина : 720 пикселей
Высота : 576 пикселей
Соотношение сторон : 4:3
Частота кадров : 25,000 кадров/сек
Стандарт вещания : PAL
Метод сжатия : С потерями
Текст
Формат : RLE
Формат/Информация : Run-length encoding
Битовая глубина : 2 бит
Общее
Полное имя : J:\MONAR\Видео\Документальные фильмы\Святые Вселенского Православия\Святитель\VIDEO_TS\VIDEO_TS.IFO
Формат : DVD Video
Профиль формата : Menu
Размер файла : 14,0 Кбайт
Режим общего битрейта : Переменный
Видео
Идентификатор : 224 (0xE0)
Формат : MPEG Video
Версия формата : Version 2
Вид битрейта : Переменный
Ширина : 720 пикселей
Высота : 576 пикселей
Соотношение сторон : 4:3
Частота кадров : 25,000 кадров/сек
Стандарт вещания : PAL
Метод сжатия : С потерями
Текст
Формат : RLE
Формат/Информация : Run-length encoding
Битовая глубина : 2 бит
Общее
Полное имя : J:\MONAR\Видео\Документальные фильмы\Святые Вселенского Православия\Святитель\VIDEO_TS\VIDEO_TS.VOB
Формат : MPEG-PS
Размер файла : 154 Кбайт
Продолжительность : 600 мс.
Общий поток : 2103 Кбит/сек
Видео
Идентификатор : 224 (0xE0)
Формат : MPEG Video
Версия формата : Version 2
Профиль формата : [email protected]
Настройки формата : CustomMatrix / BVOP
Параметр BVOP формата : Да
Параметр матрицы формата : Выборочная
Структура изображения : Frame
Продолжительность : 600 мс.
Вид битрейта : Постоянный
Максимальный битрейт : 2000 Кбит/сек
Ширина : 720 пикселей
Высота : 576 пикселей
Соотношение сторон : 4:3
Частота кадров : 25,000 кадров/сек
Стандарт вещания : PAL
Цветовое пространство : YUV
Субдискретизация насыщенности : 4:2:0
Битовая глубина : 8 бит
Тип развёртки : Чересстрочная
Порядок развёртки : Верхнее поле первое
Метод сжатия : С потерями
Временной код первого кадра : 00:00:00:00
Оригинал временного кода : Group of pictures header
Текст
Идентификатор : 189 (0xBD)-32 (0x20)
Формат : RLE
Формат/Информация : Run-length encoding
Режим смешивания : DVD-Video
Меню
Общее
Полное имя : J:\MONAR\Видео\Документальные фильмы\Святые Вселенского Православия\Святитель\VIDEO_TS\VTS_01_0.BUP
Формат : DVD Video
Профиль формата : Program
Размер файла : 48,0 Кбайт
Продолжительность : 52 м. 0 с.
Режим общего битрейта : Переменный
Общий поток : 126 бит/сек
FileExtension_Invalid : ifo
Видео
Идентификатор : 224 (0xE0)
Формат : MPEG Video
Версия формата : Version 2
Продолжительность : 52 м. 0 с.
Вид битрейта : Переменный
Ширина : 720 пикселей
Высота : 576 пикселей
Соотношение сторон : 16:9
Частота кадров : 25,000 кадров/сек
Стандарт вещания : PAL
Метод сжатия : С потерями
Аудио
Идентификатор : 0 (0x0)
Формат : PCM
Продолжительность : 52 м. 0 с.
Каналы : 2 канала
Частота : 48,0 КГц
Меню
Продолжительность : 52 м. 0 с.
00:00:00.000 : Chapter 1
00:00:00.480 : Chapter 2
List (Audio) : 0
Общее
Полное имя : J:\MONAR\Видео\Документальные фильмы\Святые Вселенского Православия\Святитель\VIDEO_TS\VTS_01_0.IFO
Формат : DVD Video
Профиль формата : Program
Размер файла : 48,0 Кбайт
Продолжительность : 52 м. 0 с.
Режим общего битрейта : Переменный
Общий поток : 126 бит/сек
Видео
Идентификатор : 224 (0xE0)
Формат : MPEG Video
Версия формата : Version 2
Продолжительность : 52 м. 0 с.
Вид битрейта : Переменный
Ширина : 720 пикселей
Высота : 576 пикселей
Соотношение сторон : 16:9
Частота кадров : 25,000 кадров/сек
Стандарт вещания : PAL
Метод сжатия : С потерями
Аудио
Идентификатор : 0 (0x0)
Формат : PCM
Продолжительность : 52 м. 0 с.
Каналы : 2 канала
Частота : 48,0 КГц
Меню
Продолжительность : 52 м. 0 с.
00:00:00.000 : Chapter 1
00:00:00.480 : Chapter 2
List (Audio) : 0
Общее
Полное имя : J:\MONAR\Видео\Документальные фильмы\Святые Вселенского Православия\Святитель\VIDEO_TS\VTS_01_0.VOB
Формат : MPEG-PS
Размер файла : 154 Кбайт
Продолжительность : 600 мс.
Общий поток : 2103 Кбит/сек
Видео
Идентификатор : 224 (0xE0)
Формат : MPEG Video
Версия формата : Version 2
Профиль формата : [email protected]
Настройки формата : CustomMatrix / BVOP
Параметр BVOP формата : Да
Параметр матрицы формата : Выборочная
Структура изображения : Frame
Продолжительность : 600 мс.
Вид битрейта : Постоянный
Максимальный битрейт : 2000 Кбит/сек
Ширина : 720 пикселей
Высота : 576 пикселей
Соотношение сторон : 4:3
Частота кадров : 25,000 кадров/сек
Стандарт вещания : PAL
Цветовое пространство : YUV
Субдискретизация насыщенности : 4:2:0
Битовая глубина : 8 бит
Тип развёртки : Чересстрочная
Порядок развёртки : Верхнее поле первое
Метод сжатия : С потерями
Временной код первого кадра : 00:00:00:00
Оригинал временного кода : Group of pictures header
Текст
Идентификатор : 189 (0xBD)-32 (0x20)
Формат : RLE
Формат/Информация : Run-length encoding
Режим смешивания : DVD-Video
Меню
Общее
Полное имя : J:\MONAR\Видео\Документальные фильмы\Святые Вселенского Православия\Святитель\VIDEO_TS\VTS_01_1.VOB
Формат : MPEG-PS
Размер файла : 1024 Мбайт
Продолжительность : 17 м. 32 с.
Режим общего битрейта : Переменный
Общий поток : 8157 Кбит/сек
Видео
Идентификатор : 224 (0xE0)
Формат : MPEG Video
Версия формата : Version 2
Профиль формата : [email protected]
Настройки формата : CustomMatrix / BVOP
Параметр BVOP формата : Да
Параметр матрицы формата : Выборочная
Параметр GOP формата : M=3, N=12
Продолжительность : 17 м. 32 с.
Вид битрейта : Переменный
Битрейт : 6459 Кбит/сек
Максимальный битрейт : 7700 Кбит/сек
Ширина : 720 пикселей
Высота : 576 пикселей
Соотношение сторон : 16:9
Частота кадров : 25,000 кадров/сек
Стандарт вещания : PAL
Цветовое пространство : YUV
Субдискретизация насыщенности : 4:2:0
Битовая глубина : 8 бит
Тип развёртки : Прогрессивная
Метод сжатия : С потерями
Бит/(Пиксели*Кадры) : 0.623
Временной код первого кадра : 00:00:00:00
Оригинал временного кода : Group of pictures header
GOP, открыто/закрыто : Закрыто
Размер потока : 811 Мбайт (79%)
Основные цвета : BT.601 PAL
Характеристики трансфера : BT.470 System B/G
Коэффициенты матрицы : BT.601
Аудио
Идентификатор : 189 (0xBD)-160 (0xA0)
Формат : PCM
Настройки формата : Big / Signed
Режим смешивания : DVD-Video
Продолжительность : 17 м. 32 с.
Вид битрейта : Постоянный
Битрейт : 1536 Кбит/сек
Каналы : 2 канала
Частота : 48,0 КГц
Битовая глубина : 16 бит
Размер потока : 193 Мбайт (19%)
Меню
Общее
Полное имя : J:\MONAR\Видео\Документальные фильмы\Святые Вселенского Православия\Святитель\VIDEO_TS\VTS_01_2.VOB
Формат : MPEG-PS
Размер файла : 1024 Мбайт
Продолжительность : 18 м. 26 с.
Режим общего битрейта : Переменный
Общий поток : 7763 Кбит/сек
Видео
Идентификатор : 224 (0xE0)
Формат : MPEG Video
Версия формата : Version 2
Профиль формата : [email protected]
Настройки формата : CustomMatrix / BVOP
Параметр BVOP формата : Да
Параметр матрицы формата : Выборочная
Параметр GOP формата : M=3, N=12
Продолжительность : 18 м. 26 с.
Вид битрейта : Переменный
Битрейт : 6073 Кбит/сек
Максимальный битрейт : 7700 Кбит/сек
Ширина : 720 пикселей
Высота : 576 пикселей
Соотношение сторон : 16:9
Частота кадров : 25,000 кадров/сек
Стандарт вещания : PAL
Цветовое пространство : YUV
Субдискретизация насыщенности : 4:2:0
Битовая глубина : 8 бит
Тип развёртки : Прогрессивная
Метод сжатия : С потерями
Бит/(Пиксели*Кадры) : 0.586
Временной код первого кадра : 00:17:33:03
Оригинал временного кода : Group of pictures header
GOP, открыто/закрыто : Закрыто
Размер потока : 801 Мбайт (78%)
Основные цвета : BT.601 PAL
Характеристики трансфера : BT.470 System B/G
Коэффициенты матрицы : BT.601
Аудио
Идентификатор : 189 (0xBD)-160 (0xA0)
Формат : PCM
Настройки формата : Big / Signed
Режим смешивания : DVD-Video
Продолжительность : 18 м. 26 с.
Вид битрейта : Постоянный
Битрейт : 1536 Кбит/сек
Каналы : 2 канала
Частота : 48,0 КГц
Битовая глубина : 16 бит
Задержка видео : -498 мс.
Размер потока : 203 Мбайт (20%)
Меню
Общее
Полное имя : J:\MONAR\Видео\Документальные фильмы\Святые Вселенского Православия\Святитель\VIDEO_TS\VTS_01_3.VOB
Формат : MPEG-PS
Размер файла : 886 Мбайт
Продолжительность : 16 м. 2 с.
Режим общего битрейта : Переменный
Общий поток : 7725 Кбит/сек
Видео
Идентификатор : 224 (0xE0)
Формат : MPEG Video
Версия формата : Version 2
Профиль формата : [email protected]
Настройки формата : CustomMatrix / BVOP
Параметр BVOP формата : Да
Параметр матрицы формата : Выборочная
Параметр GOP формата : M=3, N=12
Продолжительность : 16 м. 1 с.
Вид битрейта : Переменный
Битрейт : 6036 Кбит/сек
Максимальный битрейт : 7700 Кбит/сек
Ширина : 720 пикселей
Высота : 576 пикселей
Соотношение сторон : 16:9
Частота кадров : 25,000 кадров/сек
Стандарт вещания : PAL
Цветовое пространство : YUV
Субдискретизация насыщенности : 4:2:0
Битовая глубина : 8 бит
Тип развёртки : Прогрессивная
Метод сжатия : С потерями
Бит/(Пиксели*Кадры) : 0.582
Временной код первого кадра : 00:35:59:13
Оригинал временного кода : Group of pictures header
GOP, открыто/закрыто : Закрыто
Размер потока : 692 Мбайт (78%)
Основные цвета : BT.601 PAL
Характеристики трансфера : BT.470 System B/G
Коэффициенты матрицы : BT.601
Аудио
Идентификатор : 189 (0xBD)-160 (0xA0)
Формат : PCM
Настройки формата : Big / Signed
Режим смешивания : DVD-Video
Продолжительность : 16 м. 2 с.
Вид битрейта : Постоянный
Битрейт : 1536 Кбит/сек
Каналы : 2 канала
Частота : 48,0 КГц
Битовая глубина : 16 бит
Задержка видео : -617 мс.
Размер потока : 176 Мбайт (20%)
Меню
Скриншоты
Анамофированные скриншоты
Обложка и диск
Download
Для скачивания .torrent файлов необходима регистрация
Сайт не распространяет и не хранит электронные версии произведений, а лишь предоставляет доступ к создаваемому пользователями каталогу ссылок на торрент-файлы, которые содержат только списки хеш-сумм
[Профиль]  [ЛС] 
 
Ответить
Loading...
Error