Священик Костантин Корепанов. Читаем Ветхий Завет [2018, Лекции, WEBRip]

Страницы:  1

Ответить
Автор
Сообщение

ILIA_D

Top Loader 01* 100GB

Стаж: 7 лет

Сообщений: 45

ILIA_D · 10-Окт-18 23:42 (1 месяц 6 дней назад, ред. 15-Окт-18 15:49)

Читаем Ветхий Завет
Дата/Год выпуска: С 2018
Страна: Россия
Жанр: Лекции
Продолжительность: 7х30
Перевод: Не требуется
Русские субтитры: нет
Телеканал: ТК "Союз"
Описание: Данный курс является расширенной и углубленной версией курса, шедшего в 2009-2011гг. на ТК "Союз".
Доп. информация: Автор и ведущий - клирик Свято-Троицкого кафедрального собора города Екатеринбурга, старший преподаватель екатеринбургского Миссионерского института Константин Корепанов.
По мере появления новых выпусков торрент будет обновляться!
Торрент обновлен! Добавлен файл 007.Подобие Божие в человеке. Человечество.

Сэмпл: https://yadi.sk/i/ZInrlhptM8tmPA
качество: WEBRip
формат: MP4
Видео: MPEG-4, 1920х1080, 16:9, ~1000kbps, 25.00fps
Аудио: AAC, 126kbps, 44.1KHz, стерео
Список выпусков/серий
001.Вводная беседа;
002.Первый стих Библии;
003.Шестоднев и наука;
004.Шестой день творения;
005.Воинство небесное;
006.Проблема седьмого дня – «почил». Образ Божий в человеке;
007.Подобие Божие в человеке. Человечество;
MediaInfo
003.Шестоднев и наука.mp4
Format: MPEG-4
Format profile: Base Media
Codec ID: isom (isom/iso2/avc1/mp41)
File size: 194 MiB
Duration: 29mn 49s
Overall bit rate: 911 Kbps
Writing application: Lavf57.2.100
Video
ID: 1
Format: AVC
Format/Info: Advanced Video Codec
Format profile: [email protected]
Format settings, CABAC: Yes
Format settings, ReFrames: 3 frames
Codec ID: avc1
Codec ID/Info: Advanced Video Coding
Duration: 29mn 49s
Bit rate: 779 Kbps
Width: 1 920 pixels
Height: 1 080 pixels
Display aspect ratio: 16:9
Frame rate mode: Constant
Frame rate: 25.000 fps
Color space: YUV
Chroma subsampling: 4:2:0
Bit depth: 8 bits
Scan type: Progressive
Bits/(Pixel*Frame): 0.015
Stream size: 166 MiB (86%)
Color range: Limited
Color primaries: BT.709
Transfer characteristics: BT.709
Matrix coefficients: BT.709
Audio
ID: 2
Format: AAC
Format/Info: Advanced Audio Codec
Format profile: LC
Codec ID: 40
Duration: 29mn 49s
Bit rate mode: Constant
Bit rate: 126 Kbps
Channel(s): 2 channels
Channel positions: Front: L R
Sampling rate: 44.1 KHz
Frame rate: 43.066 fps (1024 spf)
Compression mode: Lossy
Stream size: 26.8 MiB (14%)
Default: Yes
Alternate group: 1
Скриншоты
Download
Для скачивания .torrent файлов необходима регистрация
Сайт не распространяет и не хранит электронные версии произведений, а лишь предоставляет доступ к создаваемому пользователями каталогу ссылок на торрент-файлы, которые содержат только списки хеш-сумм
[Профиль]  [ЛС] 

Arsenal15

Moderator

Стаж: 8 лет 3 месяца

Сообщений: 12172

Arsenal15 · 15-Окт-18 20:54 (спустя 4 дня)

[Цитировать] 

ILIA_D
Источник видео?
? Недооформлено

[Профиль]  [ЛС] 
 
Ответить
Loading...
Error