(Chanson) [CD] Juliette Gréco - Je Suis Comme Je Suis 2 CD Black Box - 2005, FLAC (tracks+.cue), lossless

Страницы:  1

Ответить
Автор
Сообщение

Hermes1967

Хранитель

Стаж: 11 лет 11 месяцев

Сообщений: 535

Hermes1967 · 14-Окт-18 20:19 (1 месяц 4 дня назад, ред. 14-Окт-18 20:21)

Juliette Gréco / Je Suis Comme Je Suis 2 CD Black Box
Жанр: Chanson
Носитель: CD
Страна-производитель диска (релиза): UK & Europe
Год издания: 2005
Издатель (лейбл): "Weton-Wesgram"
Номер по каталогу: BB2132
Страна исполнителя (группы): France
Аудиокодек: FLAC (*.flac)
Тип рипа: tracks+.cue
Битрейт аудио: lossless
Продолжительность: 00:61:31
Источник (релизер): собственный рип
Наличие сканов в содержимом раздачи: да
Треклист

CD1
00:29:23
01. Sous Le Ciel De Paris
02. Si Tu T'Imagines
03. La Fourmi
04. Rue Des Blancs-Manteaux
05. Lers Feuilles Mortes
06. Je Hais Les Dimanches
07. Embrase-Moi
08. Je Suis Comme Je Suis
09. Les Enfants Qui S'aiment
10. Il Y Avait
CD2
00:32:08
01. Ca Va (Le Diable)
02. Les Dames De La Poste
03. Les Croix
04. Les Roulottes
05. La Fiancee Du Pirate
06. Coin De Rue
07. L'ombree
08. Je Mens
09. Barbara Soung
10. A La Belle Etoile
Лог создания рипа
CD1
Exact Audio Copy V1.3 from 2. September 2016
Отчёт EAC об извлечении, выполненном 11. апреля 2018, 0:27
Juliette Greco / Je Suis Comme Je Suis CD 1
Дисковод: PLEXTOR DVDR PX-L890SA Adapter: 1 ID: 0
Режим чтения : Достоверность
Использование точного потока : Да
Отключение кэша аудио : Да
Использование указателей C2 : Нет
Коррекция смещения при чтении : 6
Способность читать области Lead-in и Lead-out : Нет
Заполнение пропущенных сэмплов тишиной : Да
Удаление блоков с тишиной в начале и конце : Нет
При вычислениях CRC использовались нулевые сэмплы : Да
Интерфейс : Встроенный Win32-интерфейс для Win NT/2000
Обработка зазоров : Добавлено к предыдущему треку
Выходной формат : Пользовательский кодировщик
Выбранный битрейт : 896 kBit/s
Качество : Высокий
Добавление ID3-тега : Нет
Утилита сжатия : C:\Program Files\Exact Audio Copy\Flac\flac.exe
Дополнительные параметры : -V -8 -T "Genre=%genre%" -T "Artist=%artist%" -T "Title=%title%" -T "Album=%albumtitle%" -T "Date=%year%" -T "Tracknumber=%tracknr%" -T "Comment=%comment%" %source%
TOC извлечённого CD
Трек | Старт | Длительность | Начальный сектор | Конечный сектор
---------------------------------------------------------------------
1 | 0:00.00 | 3:25.02 | 0 | 15376
2 | 3:25.02 | 3:12.42 | 15377 | 29818
3 | 6:37.44 | 1:22.33 | 29819 | 36001
4 | 8:00.02 | 1:50.67 | 36002 | 44318
5 | 9:50.69 | 2:58.59 | 44319 | 57727
6 | 12:49.53 | 3:39.69 | 57728 | 74221
7 | 16:29.47 | 3:04.66 | 74222 | 88087
8 | 19:34.38 | 3:02.60 | 88088 | 101797
9 | 22:37.23 | 3:18.66 | 101798 | 116713
10 | 25:56.14 | 3:27.47 | 116714 | 132285
Трек 1
Имя файла H:\Lossles\Juliette Greco - Je Suis Comme Je Suis 2 CD Black Box 2005\Je Suis Comme Je Suis CD 1\01 Sous Le Ciel De Paris.wav
Длина предзазора 0:00:02.00
Пиковый уровень 73.8 %
Скорость извлечения 3.5 X
Качество трека 100.0 %
CRC теста 32BDEE81
CRC копии 32BDEE81
Точное извлечение (достоверность 1) [AC62C31D] (AR v2)
Копирование... OK
Трек 2
Имя файла H:\Lossles\Juliette Greco - Je Suis Comme Je Suis 2 CD Black Box 2005\Je Suis Comme Je Suis CD 1\02 Si Tu T'Imagines.wav
Длина предзазора 0:00:02.00
Пиковый уровень 65.0 %
Скорость извлечения 3.2 X
Качество трека 99.9 %
CRC теста DDDADF3C
CRC копии DDDADF3C
Точное извлечение (достоверность 1) [3321227C] (AR v2)
Копирование... OK
Трек 3
Имя файла H:\Lossles\Juliette Greco - Je Suis Comme Je Suis 2 CD Black Box 2005\Je Suis Comme Je Suis CD 1\03 La Fourmi.wav
Длина предзазора 0:00:02.00
Пиковый уровень 90.1 %
Скорость извлечения 3.2 X
Качество трека 100.0 %
CRC теста CBB6DD86
CRC копии CBB6DD86
Точное извлечение (достоверность 1) [1AE6254A] (AR v2)
Копирование... OK
Трек 4
Имя файла H:\Lossles\Juliette Greco - Je Suis Comme Je Suis 2 CD Black Box 2005\Je Suis Comme Je Suis CD 1\04 Rue Des Blancs-Manteaux.wav
Длина предзазора 0:00:02.00
Пиковый уровень 64.9 %
Скорость извлечения 2.9 X
Качество трека 99.9 %
CRC теста 0AC41BF9
CRC копии 0AC41BF9
Точное извлечение (достоверность 1) [16109217] (AR v2)
Копирование... OK
Трек 5
Имя файла H:\Lossles\Juliette Greco - Je Suis Comme Je Suis 2 CD Black Box 2005\Je Suis Comme Je Suis CD 1\05 Lers Feuilles Mortes.wav
Длина предзазора 0:00:02.00
Пиковый уровень 67.7 %
Скорость извлечения 4.1 X
Качество трека 100.0 %
CRC теста 86AEA7A2
CRC копии 86AEA7A2
Точное извлечение (достоверность 1) [A5ACD895] (AR v2)
Копирование... OK
Трек 6
Имя файла H:\Lossles\Juliette Greco - Je Suis Comme Je Suis 2 CD Black Box 2005\Je Suis Comme Je Suis CD 1\06 Je Hais Les Dimanches.wav
Длина предзазора 0:00:02.00
Пиковый уровень 75.3 %
Скорость извлечения 4.5 X
Качество трека 100.0 %
CRC теста 509C5E81
CRC копии 509C5E81
Точное извлечение (достоверность 1) [2AF0DD89] (AR v2)
Копирование... OK
Трек 7
Имя файла H:\Lossles\Juliette Greco - Je Suis Comme Je Suis 2 CD Black Box 2005\Je Suis Comme Je Suis CD 1\07 Embrase-Moi.wav
Длина предзазора 0:00:02.00
Пиковый уровень 75.5 %
Скорость извлечения 4.6 X
Качество трека 100.0 %
CRC теста 42A2B0B0
CRC копии 42A2B0B0
Точное извлечение (достоверность 1) [153292E2] (AR v2)
Копирование... OK
Трек 8
Имя файла H:\Lossles\Juliette Greco - Je Suis Comme Je Suis 2 CD Black Box 2005\Je Suis Comme Je Suis CD 1\08 Je Suis Comme Je Suis.wav
Длина предзазора 0:00:02.00
Пиковый уровень 71.5 %
Скорость извлечения 4.7 X
Качество трека 100.0 %
CRC теста BD1EC9DE
CRC копии BD1EC9DE
Точное извлечение (достоверность 1) [AD9FF704] (AR v2)
Копирование... OK
Трек 9
Имя файла H:\Lossles\Juliette Greco - Je Suis Comme Je Suis 2 CD Black Box 2005\Je Suis Comme Je Suis CD 1\09 Les Enfants Qui S'aiment.wav
Длина предзазора 0:00:02.00
Пиковый уровень 78.1 %
Скорость извлечения 4.3 X
Качество трека 99.9 %
CRC теста 0299B975
CRC копии 0299B975
Точное извлечение (достоверность 1) [209FEAB3] (AR v2)
Копирование... OK
Трек 10
Имя файла H:\Lossles\Juliette Greco - Je Suis Comme Je Suis 2 CD Black Box 2005\Je Suis Comme Je Suis CD 1\10 Il Y Avait.wav
Длина предзазора 0:00:02.00
Пиковый уровень 92.3 %
Скорость извлечения 4.9 X
Качество трека 100.0 %
CRC теста 98CB9362
CRC копии 98CB9362
Точное извлечение (достоверность 1) [435BAB76] (AR v2)
Копирование... OK
Все треки извлечены точно
Ошибок не произошло
Конец отчёта
---- CUETools DB Plugin V2.1.6
[CTDB TOCID: ghGbFxKki0QJGQB3z_8hbf7m8c0-] found
Submit result:
Track | CTDB Status
1 | (3/3) Accurately ripped
2 | (3/3) Accurately ripped
3 | (3/3) Accurately ripped
4 | (3/3) Accurately ripped
5 | (3/3) Accurately ripped
6 | (3/3) Accurately ripped
7 | (3/3) Accurately ripped
8 | (3/3) Accurately ripped
9 | (3/3) Accurately ripped
10 | (3/3) Accurately ripped
==== Контрольная сумма отчёта C9A65300B9F6B73CB9B328CB07AF5752374D21BE649C7F74A05FDD0A667AD580 ====
CD2
Exact Audio Copy V1.3 from 2. September 2016
Отчёт EAC об извлечении, выполненном 11. апреля 2018, 0:58
Juliette Greco / Je Suis Comme Je Suis CD 2
Дисковод: PLEXTOR DVDR PX-L890SA Adapter: 1 ID: 0
Режим чтения : Достоверность
Использование точного потока : Да
Отключение кэша аудио : Да
Использование указателей C2 : Нет
Коррекция смещения при чтении : 6
Способность читать области Lead-in и Lead-out : Нет
Заполнение пропущенных сэмплов тишиной : Да
Удаление блоков с тишиной в начале и конце : Нет
При вычислениях CRC использовались нулевые сэмплы : Да
Интерфейс : Встроенный Win32-интерфейс для Win NT/2000
Обработка зазоров : Добавлено к предыдущему треку
Выходной формат : Пользовательский кодировщик
Выбранный битрейт : 896 kBit/s
Качество : Высокий
Добавление ID3-тега : Нет
Утилита сжатия : C:\Program Files\Exact Audio Copy\Flac\flac.exe
Дополнительные параметры : -V -8 -T "Genre=%genre%" -T "Artist=%artist%" -T "Title=%title%" -T "Album=%albumtitle%" -T "Date=%year%" -T "Tracknumber=%tracknr%" -T "Comment=%comment%" %source%
TOC извлечённого CD
Трек | Старт | Длительность | Начальный сектор | Конечный сектор
---------------------------------------------------------------------
1 | 0:00.00 | 2:46.30 | 0 | 12479
2 | 2:46.30 | 3:21.62 | 12480 | 27616
3 | 6:08.17 | 3:30.23 | 27617 | 43389
4 | 9:38.40 | 3:00.56 | 43390 | 56945
5 | 12:39.21 | 2:52.07 | 56946 | 69852
6 | 15:31.28 | 3:20.67 | 69853 | 84919
7 | 18:52.20 | 2:44.30 | 84920 | 97249
8 | 21:36.50 | 2:33.19 | 97250 | 108743
9 | 24:09.69 | 4:17.50 | 108744 | 128068
10 | 28:27.44 | 3:40.41 | 128069 | 144609
Трек 1
Имя файла H:\Lossles\Juliette Greco - Je Suis Comme Je Suis 2 CD Black Box 2005\Je Suis Comme Je Suis CD 2\01 Ca Va (Le Diable).wav
Длина предзазора 0:00:02.00
Пиковый уровень 66.7 %
Скорость извлечения 4.7 X
Качество трека 100.0 %
CRC теста 5151CEEB
CRC копии 5151CEEB
Точное извлечение (достоверность 2) [75D9C26B] (AR v2)
Копирование... OK
Трек 2
Имя файла H:\Lossles\Juliette Greco - Je Suis Comme Je Suis 2 CD Black Box 2005\Je Suis Comme Je Suis CD 2\02 Les Dames De La Poste.wav
Длина предзазора 0:00:02.00
Пиковый уровень 65.1 %
Скорость извлечения 4.3 X
Качество трека 99.9 %
CRC теста 37758659
CRC копии 37758659
Точное извлечение (достоверность 2) [8F0A09F0] (AR v2)
Копирование... OK
Трек 3
Имя файла H:\Lossles\Juliette Greco - Je Suis Comme Je Suis 2 CD Black Box 2005\Je Suis Comme Je Suis CD 2\03 Les Croix.wav
Длина предзазора 0:00:02.00
Пиковый уровень 78.0 %
Скорость извлечения 5.0 X
Качество трека 100.0 %
CRC теста 94F2628F
CRC копии 94F2628F
Точное извлечение (достоверность 2) [BB1A33CC] (AR v2)
Копирование... OK
Трек 4
Имя файла H:\Lossles\Juliette Greco - Je Suis Comme Je Suis 2 CD Black Box 2005\Je Suis Comme Je Suis CD 2\04 Les Roulottes.wav
Длина предзазора 0:00:02.00
Пиковый уровень 71.5 %
Скорость извлечения 4.9 X
Качество трека 100.0 %
CRC теста 53DC7699
CRC копии 53DC7699
Точное извлечение (достоверность 2) [8A504717] (AR v2)
Копирование... OK
Трек 5
Имя файла H:\Lossles\Juliette Greco - Je Suis Comme Je Suis 2 CD Black Box 2005\Je Suis Comme Je Suis CD 2\05 La Fiancee Du Pirate.wav
Длина предзазора 0:00:02.00
Пиковый уровень 60.9 %
Скорость извлечения 4.9 X
Качество трека 100.0 %
CRC теста CADD6BC9
CRC копии CADD6BC9
Точное извлечение (достоверность 2) [08473F78] (AR v2)
Копирование... OK
Трек 6
Имя файла H:\Lossles\Juliette Greco - Je Suis Comme Je Suis 2 CD Black Box 2005\Je Suis Comme Je Suis CD 2\06 Coin De Rue.wav
Длина предзазора 0:00:02.00
Пиковый уровень 75.0 %
Скорость извлечения 5.0 X
Качество трека 100.0 %
CRC теста 478262B0
CRC копии 478262B0
Точное извлечение (достоверность 2) [6193B914] (AR v2)
Копирование... OK
Трек 7
Имя файла H:\Lossles\Juliette Greco - Je Suis Comme Je Suis 2 CD Black Box 2005\Je Suis Comme Je Suis CD 2\07 L'ombree.wav
Длина предзазора 0:00:02.00
Пиковый уровень 60.9 %
Скорость извлечения 4.9 X
Качество трека 100.0 %
CRC теста 010003C5
CRC копии 010003C5
Точное извлечение (достоверность 2) [751AD475] (AR v2)
Копирование... OK
Трек 8
Имя файла H:\Lossles\Juliette Greco - Je Suis Comme Je Suis 2 CD Black Box 2005\Je Suis Comme Je Suis CD 2\08 Je Mens.wav
Длина предзазора 0:00:02.00
Пиковый уровень 63.5 %
Скорость извлечения 4.7 X
Качество трека 100.0 %
CRC теста AE03AD6D
CRC копии AE03AD6D
Точное извлечение (достоверность 2) [2A531949] (AR v2)
Копирование... OK
Трек 9
Имя файла H:\Lossles\Juliette Greco - Je Suis Comme Je Suis 2 CD Black Box 2005\Je Suis Comme Je Suis CD 2\09 Barbara Soung.wav
Длина предзазора 0:00:02.00
Пиковый уровень 79.4 %
Скорость извлечения 5.2 X
Качество трека 100.0 %
CRC теста 4E95DBEE
CRC копии 4E95DBEE
Точное извлечение (достоверность 2) [53705A7D] (AR v2)
Копирование... OK
Трек 10
Имя файла H:\Lossles\Juliette Greco - Je Suis Comme Je Suis 2 CD Black Box 2005\Je Suis Comme Je Suis CD 2\10 A La Belle Etoile.wav
Длина предзазора 0:00:02.00
Пиковый уровень 91.2 %
Скорость извлечения 5.0 X
Качество трека 100.0 %
CRC теста C27CF2EF
CRC копии C27CF2EF
Точное извлечение (достоверность 2) [044C1640] (AR v2)
Копирование... OK
Все треки извлечены точно
Ошибок не произошло
Конец отчёта
---- CUETools DB Plugin V2.1.6
[CTDB TOCID: mkYl7sGVTHwUzHr.1GMTKTwi6UE-] found
Submit result:
Track | CTDB Status
1 | (2/2) Accurately ripped
2 | (2/2) Accurately ripped
3 | (2/2) Accurately ripped
4 | (2/2) Accurately ripped
5 | (2/2) Accurately ripped
6 | (2/2) Accurately ripped
7 | (2/2) Accurately ripped
8 | (2/2) Accurately ripped
9 | (2/2) Accurately ripped
10 | (2/2) Accurately ripped
==== Контрольная сумма отчёта 4B5D57F1A79C10A8455EF4134A011413790707F184A34D42791F6F7FFE43FFC9 ====
Содержание индексной карты (.CUE)
CD1
REM GENRE Chanson
REM DATE 2005
REM DISCID 9406E30A
REM COMMENT "ExactAudioCopy v1.3"
PERFORMER "Juliette Greco"
TITLE "Je Suis Comme Je Suis CD 1"
REM COMPOSER ""
FILE "01 Sous Le Ciel De Paris.wav" WAVE
TRACK 01 AUDIO
TITLE "Sous Le Ciel De Paris"
PERFORMER "Juliette Greco"
REM COMPOSER ""
INDEX 01 00:00:00
TRACK 02 AUDIO
TITLE "Si Tu T'Imagines"
PERFORMER "Juliette Greco"
REM COMPOSER ""
INDEX 00 03:23:02
FILE "02 Si Tu T'Imagines.wav" WAVE
INDEX 01 00:00:00
TRACK 03 AUDIO
TITLE "La Fourmi"
PERFORMER "Juliette Greco"
REM COMPOSER ""
INDEX 00 03:10:42
FILE "03 La Fourmi.wav" WAVE
INDEX 01 00:00:00
TRACK 04 AUDIO
TITLE "Rue Des Blancs-Manteaux"
PERFORMER "Juliette Greco"
REM COMPOSER ""
INDEX 00 01:20:33
FILE "04 Rue Des Blancs-Manteaux.wav" WAVE
INDEX 01 00:00:00
TRACK 05 AUDIO
TITLE "Lers Feuilles Mortes"
PERFORMER "Juliette Greco"
REM COMPOSER ""
INDEX 00 01:48:67
FILE "05 Lers Feuilles Mortes.wav" WAVE
INDEX 01 00:00:00
TRACK 06 AUDIO
TITLE "Je Hais Les Dimanches"
PERFORMER "Juliette Greco"
REM COMPOSER ""
INDEX 00 02:56:59
FILE "06 Je Hais Les Dimanches.wav" WAVE
INDEX 01 00:00:00
TRACK 07 AUDIO
TITLE "Embrase-Moi"
PERFORMER "Juliette Greco"
REM COMPOSER ""
INDEX 00 03:37:69
FILE "07 Embrase-Moi.wav" WAVE
INDEX 01 00:00:00
TRACK 08 AUDIO
TITLE "Je Suis Comme Je Suis"
PERFORMER "Juliette Greco"
REM COMPOSER ""
INDEX 00 03:02:66
FILE "08 Je Suis Comme Je Suis.wav" WAVE
INDEX 01 00:00:00
TRACK 09 AUDIO
TITLE "Les Enfants Qui S'aiment"
PERFORMER "Juliette Greco"
REM COMPOSER ""
INDEX 00 03:00:60
FILE "09 Les Enfants Qui S'aiment.wav" WAVE
INDEX 01 00:00:00
TRACK 10 AUDIO
TITLE "Il Y Avait"
PERFORMER "Juliette Greco"
REM COMPOSER ""
INDEX 00 03:16:66
FILE "10 Il Y Avait.wav" WAVE
INDEX 01 00:00:00
CD2
REM GENRE Chanson
REM DATE 2005
REM DISCID 7E07880A
REM COMMENT "ExactAudioCopy v1.3"
PERFORMER "Juliette Greco"
TITLE "Je Suis Comme Je Suis CD 2"
REM COMPOSER ""
FILE "01 Ca Va (Le Diable).wav" WAVE
TRACK 01 AUDIO
TITLE "Ca Va (Le Diable)"
PERFORMER "Juliette Greco"
REM COMPOSER ""
INDEX 01 00:00:00
TRACK 02 AUDIO
TITLE "Les Dames De La Poste"
PERFORMER "Juliette Greco"
REM COMPOSER ""
INDEX 00 02:44:30
FILE "02 Les Dames De La Poste.wav" WAVE
INDEX 01 00:00:00
TRACK 03 AUDIO
TITLE "Les Croix"
PERFORMER "Juliette Greco"
REM COMPOSER ""
INDEX 00 03:19:62
FILE "03 Les Croix.wav" WAVE
INDEX 01 00:00:00
TRACK 04 AUDIO
TITLE "Les Roulottes"
PERFORMER "Juliette Greco"
REM COMPOSER ""
INDEX 00 03:28:23
FILE "04 Les Roulottes.wav" WAVE
INDEX 01 00:00:00
TRACK 05 AUDIO
TITLE "La Fiancee Du Pirate"
PERFORMER "Juliette Greco"
REM COMPOSER ""
INDEX 00 02:58:56
FILE "05 La Fiancee Du Pirate.wav" WAVE
INDEX 01 00:00:00
TRACK 06 AUDIO
TITLE "Coin De Rue"
PERFORMER "Juliette Greco"
REM COMPOSER ""
INDEX 00 02:50:07
FILE "06 Coin De Rue.wav" WAVE
INDEX 01 00:00:00
TRACK 07 AUDIO
TITLE "L'ombree"
PERFORMER "Juliette Greco"
REM COMPOSER ""
INDEX 00 03:18:67
FILE "07 L'ombree.wav" WAVE
INDEX 01 00:00:00
TRACK 08 AUDIO
TITLE "Je Mens"
PERFORMER "Juliette Greco"
REM COMPOSER ""
INDEX 00 02:42:30
FILE "08 Je Mens.wav" WAVE
INDEX 01 00:00:00
TRACK 09 AUDIO
TITLE "Barbara Soung"
PERFORMER "Juliette Greco"
REM COMPOSER ""
INDEX 00 02:31:19
FILE "09 Barbara Soung.wav" WAVE
INDEX 01 00:00:00
TRACK 10 AUDIO
TITLE "A La Belle Etoile"
PERFORMER "Juliette Greco"
REM COMPOSER ""
INDEX 00 04:15:50
FILE "10 A La Belle Etoile.wav" WAVE
INDEX 01 00:00:00
Download
Для скачивания .torrent файлов необходима регистрация
Сайт не распространяет и не хранит электронные версии произведений, а лишь предоставляет доступ к создаваемому пользователями каталогу ссылок на торрент-файлы, которые содержат только списки хеш-сумм
[Профиль]  [ЛС] 
 
Ответить
Loading...
Error