Kasabian Live! - Live at the O2 [2012, Rock, indie rock, BDRip, 1080p]

Страницы:  1

Ответить
Автор
Сообщение

anbelk27

Admin

Стаж: 9 лет 7 месяцев

Сообщений: 6358

anbelk27 · 17-Окт-18 00:03 (28 дней назад)

Kasabian Live! - Live at the O2
Жанр: Rock, indie rock
Продолжительность: 01:47:59
Год выпуска: 2012
Описание: • Filmed in high definition at London's renowned O2 Arena on December 15th 2011, this is Kasabian's first stand alone Blu-Ray release. The show came on the back of the band's No.1 album Velociraptor! and the setlist combines tracks from that album with hits and classic album tracks from across their career so far. The concert was part of a sold out arena tour that covered the UK and Ireland at the end of last year. Kasabian are the recipients of numerous awards for Best Live Band and Best British Band in recent years and this new show with its spectacular and innovative staging will be a must have for their huge and dedicated fanbase
Треклист:
1. Days Are Forgotten
2. Shoot The Runner
3. Velociraptor!
4. Underdog
5. Where Did All The Love Go?
6. I.D.
7. I Hear Voices
8. Thick As Thieves
9. Take Aim
10. Clubfoot
11. Re-Wired
12. Empire
13. La FÃce Verte
14. Fast Fuse / Pulp Fiction
15. Goodbye Kiss
16. L.S.F.
17. Switchblade Smiles
18. Vlad The Impaler
19. Fire
Качество: BDRip
Разрешение видео/развертка: 1080p
Контейнер: MKV
Видео кодек: H.264
Аудио кодек: FLAC, DTS
Видео: AVC, 1920x816 (2.35:1), 29.970 fps, 13.8 Mbps
Аудио#1: DTS, 48.0 KHz, 6 ch, 755 Kbps
Аудио#2: FLAC, 48.0 KHz, 2 ch, 1 791 Kbps
MediaInfo / x264Log
x264Log
[Information] [10.10.2018 5:12:04] Standard error stream
-[Information] [10.10.2018 5:12:56] y4m [info]: 1920x816p 1:1 @ 30000/1001 fps (cfr)
-[Information] [10.10.2018 5:12:56] x264 [info]: using SAR=1/1
-[Information] [10.10.2018 5:12:56] x264 [info]: using cpu capabilities: MMX2 SSE2Fast SSSE3 SSE4.2 AVX
-[Information] [10.10.2018 5:12:56] x264 [info]: profile High, level 4.1
-[Information] [11.10.2018 0:12:54] x264 [info]: frame I:890 Avg QP:18.33 size:139898
-[Information] [11.10.2018 0:12:54] x264 [info]: frame P:56579 Avg QP:21.74 size: 75114
-[Information] [11.10.2018 0:12:54] x264 [info]: frame B:136701 Avg QP:23.16 size: 49321
-[Information] [11.10.2018 0:12:54] x264 [info]: consecutive B-frames: 4.9% 9.8% 10.5% 40.5% 14.8% 16.1% 2.3% 0.5% 0.4%
-[Information] [11.10.2018 0:12:54] x264 [info]: mb I I16..4: 18.8% 62.9% 18.3%
-[Information] [11.10.2018 0:12:54] x264 [info]: mb P I16..4: 6.5% 21.7% 3.1% P16..4: 26.1% 27.3% 6.1% 0.8% 0.0% skip: 8.4%
-[Information] [11.10.2018 0:12:54] x264 [info]: mb B I16..4: 1.2% 4.7% 0.6% B16..8: 37.9% 15.9% 2.6% direct:14.3% skip:22.9% L0:46.6% L1:43.8% BI: 9.5%
-[Information] [11.10.2018 0:12:54] x264 [info]: 8x8 transform intra:70.2% inter:64.3%
-[Information] [11.10.2018 0:12:54] x264 [info]: direct mvs spatial:97.6% temporal:2.4%
-[Information] [11.10.2018 0:12:54] x264 [info]: coded y,uvDC,uvAC intra: 68.7% 72.3% 38.8% inter: 40.3% 45.1% 9.2%
-[Information] [11.10.2018 0:12:54] x264 [info]: i16 v,h,dc,p: 43% 18% 7% 32%
-[Information] [11.10.2018 0:12:54] x264 [info]: i8 v,h,dc,ddl,ddr,vr,hd,vl,hu: 5% 5% 9% 12% 16% 14% 14% 12% 13%
-[Information] [11.10.2018 0:12:54] x264 [info]: i4 v,h,dc,ddl,ddr,vr,hd,vl,hu: 6% 6% 8% 10% 15% 13% 14% 11% 16%
-[Information] [11.10.2018 0:12:54] x264 [info]: i8c dc,h,v,p: 36% 29% 19% 16%
-[Information] [11.10.2018 0:12:54] x264 [info]: Weighted P-Frames: Y:9.9% UV:6.6%
-[Information] [11.10.2018 0:12:54] x264 [info]: ref P L0: 49.3% 7.7% 21.1% 11.5% 8.8% 1.5% 0.1%
-[Information] [11.10.2018 0:12:54] x264 [info]: ref B L0: 78.4% 13.7% 6.4% 1.5%
-[Information] [11.10.2018 0:12:54] x264 [info]: ref B L1: 95.5% 4.5%
-[Information] [11.10.2018 0:12:54] x264 [info]: kb/s:13726.81
-[Information] [11.10.2018 0:12:54] encoded 194170 frames, 2.84 fps, 13726.81 kb/s
General
Unique ID : 74759059621688575618048189990174419618 (0x383E1237256CAC620FC31E4DC6DB6AA2)
Complete name : K:\Kasabian Live! - Live at the O2.BDRip1080p.mkv
Format : Matroska
Format version : Version 2
File size : 12.3 GiB
Duration : 1 h 47 min
Overall bit rate mode : Variable
Overall bit rate : 16.3 Mb/s
Movie name : Kasabian Live! - Live at the O2.BDRip1080p @ rutracker.org
Encoded date : UTC 2018-10-13 15:38:59
Writing application : mkvmerge v26.0.0 ('In The Game') 64-bit
Writing library : libebml v1.3.6 + libmatroska v1.4.9
Video
ID : 1
Format : AVC
Format/Info : Advanced Video Codec
Format profile : [email protected]
Format settings : CABAC / 5 Ref Frames
Format settings, CABAC : Yes
Format settings, RefFrames : 5 frames
Codec ID : V_MPEG4/ISO/AVC
Duration : 1 h 47 min
Bit rate : 13.8 Mb/s
Width : 1 920 pixels
Height : 816 pixels
Display aspect ratio : 2.35:1
Frame rate mode : Constant
Frame rate : 29.970 (30000/1001) FPS
Color space : YUV
Chroma subsampling : 4:2:0
Bit depth : 8 bits
Scan type : Progressive
Bits/(Pixel*Frame) : 0.293
Stream size : 10.4 GiB (84%)
Title : anbelk27 @ rutracker.org
Writing library : x264 core 155 r2901 7d0ff22
Encoding settings : cabac=1 / ref=5 / deblock=1:-2:-2 / analyse=0x3:0x133 / me=umh / subme=11 / psy=1 / psy_rd=1.10:0.05 / mixed_ref=1 / me_range=32 / chroma_me=1 / trellis=2 / 8x8dct=1 / cqm=0 / deadzone=21,11 / fast_pskip=1 / chroma_qp_offset=-3 / threads=6 / lookahead_threads=1 / sliced_threads=0 / nr=0 / decimate=1 / interlaced=0 / bluray_compat=0 / constrained_intra=0 / bframes=8 / b_pyramid=2 / b_adapt=2 / b_bias=0 / direct=3 / weightb=1 / open_gop=0 / weightp=2 / keyint=300 / keyint_min=29 / scenecut=50 / intra_refresh=0 / rc_lookahead=110 / rc=2pass / mbtree=1 / bitrate=13750 / ratetol=1.0 / qcomp=0.60 / qpmin=0 / qpmax=69 / qpstep=4 / cplxblur=20.0 / qblur=0.5 / vbv_maxrate=50000 / vbv_bufsize=62500 / nal_hrd=none / filler=0 / ip_ratio=1.40 / aq=1:1.00
Default : Yes
Forced : No
Audio #1
ID : 2
Format : DTS
Format/Info : Digital Theater Systems
Codec ID : A_DTS
Duration : 1 h 47 min
Bit rate mode : Constant
Bit rate : 768 kb/s
Channel(s) : 6 channels
Channel positions : Front: L C R, Side: L R, LFE
Sampling rate : 48.0 kHz
Frame rate : 93.750 FPS (512 SPF)
Bit depth : 24 bits
Compression mode : Lossy
Stream size : 593 MiB (5%)
Title : DTS 5.1 @ 24 bit
Default : Yes
Forced : No
Audio #2
ID : 3
Format : FLAC
Format/Info : Free Lossless Audio Codec
Codec ID : A_FLAC
Duration : 1 h 47 min
Bit rate mode : Variable
Bit rate : 1 791 kb/s
Channel(s) : 2 channels
Channel positions : Front: L R
Sampling rate : 48.0 kHz
Frame rate : 11.719 FPS (4096 SPF)
Bit depth : 24 bits
Stream size : 1.35 GiB (11%)
Title : FLAC 2.0 @ 24 bit
Writing library : libFLAC 1.2.1 (UTC 2007-09-17)
Default : No
Forced : No
Menu
00:00:00.000 : en: 1. Intro & Days Are Forgotten
00:06:52.679 : en: 2. Shoot The Runner
00:10:42.709 : en: 3. Velociraptor!
00:14:02.942 : en: 4. Underdog
00:20:29.528 : en: 5. Where Did All The Love Go?
00:25:17.116 : en: 6. I.D.
00:31:33.725 : en: 7. I Hear Voices
00:35:50.015 : en: 8. Thick As Thieves
00:39:35.673 : en: 9. Take Aim
00:46:22.046 : en: 10. Clubfoot
00:50:41.305 : en: 11. Re-Wired
00:55:37.701 : en: 12. Empire
01:01:04.561 : en: 13. La FÃce Verte
01:06:54.711 : en: 14. Fast Fuse / Pulp Fiction
01:14:23.726 : en: 15. Goodbye Kiss
01:18:37.780 : en: 16. L.S.F.
01:25:08.670 : en: 17. Switchblade Smiles
01:31:37.459 : en: 18. Vlad The Impaler
01:37:09.057 : en: 19. Fire
Скриншоты
Download
Для скачивания .torrent файлов необходима регистрация
Сайт не распространяет и не хранит электронные версии произведений, а лишь предоставляет доступ к создаваемому пользователями каталогу ссылок на торрент-файлы, которые содержат только списки хеш-сумм
[Профиль]  [ЛС] 

Atomikfilms

Стаж: 9 лет 8 месяцев

Сообщений: 92


Atomikfilms · 17-Окт-18 12:49 (спустя 12 часов)

[Цитировать] 

а будет ли сам BLUE-RAY?
[Профиль]  [ЛС] 

anbelk27

Admin

Стаж: 9 лет 7 месяцев

Сообщений: 6358

anbelk27 · 17-Окт-18 21:47 (спустя 8 часов)

[Цитировать] 

Atomikfilms
Он давно уже на трекере есть http://rutracker.org/forum/viewtopic.php?t=4115350
Другое дело, что поддержать ту раздачу не могу - разный хэш
[Профиль]  [ЛС] 

gochia

Стаж: 4 года 3 месяца

Сообщений: 4


gochia · 01-Ноя-18 20:21 (спустя 14 дней)

[Цитировать] 

Ребята поддайте жару , хочется скачать, быстро. Плизззззз
[Профиль]  [ЛС] 
 
Ответить
Loading...
Error