Загружается…
Ошибка

Скачать бесплатно торрент Helene Fischer: Live - Zum ersten Mal mit Band und Orchester [2011 г., Pop, Blu-ray] torrent download

Страницы:  1

Ответить на тему
Автор Сообщение

Ozer

Helene Fischer: Live - Zum ersten Mal mit Band und Orchester- Год выпуска: 2011
Жанр: Pop
Продолжительность: 02:44:19-Описание: Diese Blu-ray zeigt das Konzert in der Kolner Lanxess-Arena, es ist ein Dokument des Konnens und des Feingefuhls der Helene Fischer. Sie singt nicht allein all jene Titel, die ihre Fans und Freunde von ihr aus zahlreichen CDs kennen, sie kann viel mehr. Aus dem Musicalfach bringt sie "Memory", "Send In The Clowns" oder auch das fetzige "Big Spender" - mit offenbar vielen Gru?en aus dem Showparadies Las Vegas. Helene Fischer kann sogar locker "We Are The Champions" geben - und wenig spater, mit Hilfe ihres Orchesters und des Publikums, die Lady Gaga des deutschen Schlagers geben. Mit Augenzwinkern und einer Portion Selbstvertrauen.-Треклист:
01. Von Hier Bis Unendlich (Live 2011)
02. Lass Mich In Dein Leben (Live 2011)
03. Die Sonne Kann Warten (Live 2011)
04. Frag Nicht Wo Und Wann (Live 2011)
05. Manchmal Kommt Die Liebe Einfach So (Live 2011)
06. Medley 1 (Live 2011)
07. Medley 2 (Live 2011)
08. Russisches Medley (Live 2011)
09. Verlieb Dich Nie Nach Mitternacht (Live 2011)
10. Ewig Ist Manchmal Zu Lang (Live 2011)
11. Big Spender (Live 2011)
12. Send In The Clowns (Live 2011)
13. Memory (Live 2011)
14. Ich Will Immer Wieder... Dieses Fieber Sp?r'n (Live 2011)
15. We Will Rock You (Live 2011)
16. Who Wants To Live Forever (Live 2011)
17. The Show Must Go On (Live 2011)
18. We Are The Champions (Live 2011)
19. Nicht Von Dieser Welt (Live 2011)
20. Von Null Auf Sehnsucht (Live 2011)
21. Pokerface (Live 2011)
22. Ich Glaub' Dir Hundert L?gen (Live 2011)
23. Du Hast Mein Herz Ber?hrt (Live 2011)
24. Du F?ngst Mich Auf Und L??t Mich Fliegen (Live 2011)
25. Du L??t Mich Sein, So Wie Ich Bin (Live 2011)
26. The Prayer - Duett Mit Michael Bolton (Live 2011)
27. Vivo Per Lei - Duett Mit Michael Bolton (Live 2011)
28. Mitten im Paradies (Live 2011)
29. Mal Ganz Ehrlich (Live 2011)
30. Hundert Prozent (Live 2011)
31. Und Morgen Fr?h K?ss Ich Dich Wach (Live 2011)
32. What A Wonderful World (Live 2011)
33. Medley 2 (Hintergrundmusik F?r Fotogalerie)
34. Manchmal Kommt Die Liebe Einfach So (Hintergrundmusik F?r Abspann 'titelinformationen')
35. Manchmal Kommt Die Liebe Einfach So (Hintergrundmusik F?r Abspann 'mitwirkende')
36. Poluschko Pole (Instrumental, Menu-Loop)-Бонус:
Fotogalerie
01. Verlieb Dich Nie Nach Mitternacht
02. Ich Glaub Dir Hundert Lugen-Качество: Blu-ray
Формат: BDMV
Видео кодек: MPEG-4 AVC
Аудио кодек: DTS, PCM
Видео: 1920x1080i, MPEG-4 AVC, 29.970 fps, ~27078 Kbps
Аудио №1: DTS-HD MA 5.1 (48 kHz / 5267 kbps / 24-bit)
Аудио №2: LPCM 2.0 (48 kHz / 2304 kbps / 24-bit)-
Disc Title: HELENE_FISCHER_BDDisc Size: 46 876 597 164 bytesProtection: AACSBD-Java: YesBDInfo: 0.5.6
Notes:
BDINFO HOME: Cinema Squid http://www.cinemasquid.com/blu-ray/tools/bdinfo
INCLUDES FORUMS REPORT FOR: AVS Forum Blu-ray Audio and Video Specifications Thread http://www.avsforum.com/avs-vb/showthread.php?t=1155731
********************PLAYLIST: 00005.MPLS********************
Код:
Total   Video
Title                                                           Codec   Length  Movie Size      Disc Size       Bitrate Bitrate Main Audio Track                          Secondary Audio Track
-----                                                           ------  ------- --------------  --------------  ------- ------- ------------------                        ---------------------
00005.MPLS                                                      AVC     2:44:19 44 903 675 904  46 876 597 164  36,44   27,00   DTS-HD Master 5.1 5267Kbps (48kHz/24-bit) LPCM 2.0 2304Kbps (48kHz/24-bit)
Код:
DISC INFO:
Disc Title:     HELENE_FISCHER_BD
Disc Size:      46 876 597 164 bytes
Protection:     AACS
BD-Java:        Yes
BDInfo:         0.5.6
PLAYLIST REPORT:
Name:                   00005.MPLS
Length:                 2:44:19 (h:m:s)
Size:                   44 903 675 904 bytes
Total Bitrate:          36,44 Mbps
VIDEO:
Codec                   Bitrate             Description
-----                   -------             -----------
MPEG-4 AVC Video        26998 kbps          1080i / 25 fps / 16:9 / High Profile 4.1
AUDIO:
Codec                           Language        Bitrate         Description
-----                           --------        -------         -----------
DTS-HD Master Audio             German          5267 kbps       5.1 / 48 kHz / 5267 kbps / 24-bit (DTS Core: 5.1 / 48 kHz / 1509 kbps / 24-bit)
LPCM Audio                      German          2304 kbps       2.0 / 48 kHz / 2304 kbps / 24-bit
FILES:
Name            Time In         Length          Size            Total Bitrate
----            -------         ------          ----            -------------
00010.M2TS      0:00:00.000     2:44:19.200     44 903 675 904  36 436
CHAPTERS:
Number          Time In         Length          Avg Video Rate  Max 1-Sec Rate  Max 1-Sec Time  Max 5-Sec Rate  Max 5-Sec Time  Max 10Sec Rate  Max 10Sec Time  Avg Frame Size  Max Frame Size  Max Frame Time
------          -------         ------          --------------  --------------  --------------  --------------  --------------  --------------  --------------  --------------  --------------  --------------
1               0:00:00.000     0:09:42.840     25 756 kbps     40 022 kbps     00:03:51.480    37 996 kbps     00:03:12.200    37 322 kbps     00:01:25.360    128 774 bytes   463 027 bytes   00:05:22.680
2               0:09:42.840     0:03:52.640     23 783 kbps     46 186 kbps     00:11:18.320    36 947 kbps     00:11:04.720    33 688 kbps     00:11:02.600    118 916 bytes   446 357 bytes   00:11:18.920
3               0:13:35.480     0:02:34.600     28 810 kbps     41 087 kbps     00:14:25.960    37 896 kbps     00:14:22.040    37 677 kbps     00:14:17.120    144 049 bytes   416 012 bytes   00:14:26.360
4               0:16:10.080     0:04:04.239     27 499 kbps     40 369 kbps     00:16:34.600    37 022 kbps     00:18:02.480    33 947 kbps     00:19:27.080    137 493 bytes   446 147 bytes   00:18:58.080
5               0:20:14.320     0:07:36.440     26 871 kbps     40 053 kbps     00:23:07.760    38 168 kbps     00:26:09.440    37 929 kbps     00:22:58.760    134 356 bytes   473 970 bytes   00:21:38.920
6               0:27:50.760     0:05:51.160     28 639 kbps     39 911 kbps     00:32:06.240    37 319 kbps     00:32:51.240    36 819 kbps     00:32:06.360    143 197 bytes   367 886 bytes   00:32:07.760
7               0:33:41.920     0:10:29.680     24 536 kbps     39 756 kbps     00:41:32.279    37 629 kbps     00:34:43.439    34 096 kbps     00:34:43.439    122 681 bytes   390 256 bytes   00:34:47.279
8               0:44:11.600     0:10:41.359     29 130 kbps     39 594 kbps     00:51:30.160    37 968 kbps     00:45:34.880    37 058 kbps     00:46:41.439    145 650 bytes   413 990 bytes   00:52:16.479
9               0:54:52.960     0:01:13.800     25 155 kbps     34 776 kbps     00:55:41.640    31 749 kbps     00:55:57.760    27 913 kbps     00:55:41.560    125 773 bytes   291 360 bytes   00:55:58.279
10              0:56:06.760     0:05:16.960     22 948 kbps     39 460 kbps     00:59:09.240    34 317 kbps     00:59:07.439    31 914 kbps     00:56:09.920    114 739 bytes   326 352 bytes   00:56:35.200
11              1:01:23.720     0:03:17.000     31 173 kbps     40 605 kbps     01:04:11.680    38 012 kbps     01:03:29.840    37 532 kbps     01:04:02.640    155 867 bytes   411 901 bytes   01:03:44.800
12              1:04:40.720     0:02:10.399     21 833 kbps     35 890 kbps     01:06:29.240    31 967 kbps     01:06:27.640    29 686 kbps     01:06:24.880    109 165 bytes   326 881 bytes   01:06:27.920
13              1:06:51.120     0:05:38.440     24 781 kbps     42 955 kbps     01:09:15.280    38 796 kbps     01:09:11.360    36 743 kbps     01:07:49.840    123 906 bytes   492 808 bytes   01:09:15.880
14              1:12:29.560     0:05:46.960     28 092 kbps     40 856 kbps     01:13:49.040    38 079 kbps     01:15:58.560    37 118 kbps     01:15:23.160    140 458 bytes   380 519 bytes   01:14:13.800
15              1:18:16.520     0:01:19.800     26 001 kbps     39 422 kbps     01:18:47.640    34 908 kbps     01:18:42.000    32 149 kbps     01:18:39.240    130 004 bytes   414 158 bytes   01:18:48.280
16              1:19:36.320     0:03:24.599     29 508 kbps     40 248 kbps     01:22:29.480    37 776 kbps     01:21:20.840    36 939 kbps     01:21:17.280    147 540 bytes   357 965 bytes   01:22:29.760
17              1:23:00.920     0:02:36.199     28 400 kbps     38 973 kbps     01:25:00.840    37 950 kbps     01:24:11.640    36 508 kbps     01:24:07.880    142 000 bytes   366 453 bytes   01:25:01.240
18              1:25:37.120     0:04:11.600     26 981 kbps     40 175 kbps     01:27:22.080    37 130 kbps     01:27:18.600    35 284 kbps     01:27:13.120    134 907 bytes   424 785 bytes   01:28:57.200
19              1:29:48.720     0:03:57.199     33 241 kbps     40 962 kbps     01:32:06.480    38 122 kbps     01:30:08.640    37 954 kbps     01:30:25.840    166 206 bytes   424 734 bytes   01:30:26.880
20              1:33:45.920     0:04:21.600     25 827 kbps     39 065 kbps     01:36:15.600    37 501 kbps     01:36:36.880    34 969 kbps     01:36:14.240    129 133 bytes   400 863 bytes   01:36:16.280
21              1:38:07.520     0:04:37.000     30 684 kbps     42 937 kbps     01:41:24.600    37 570 kbps     01:41:15.080    36 793 kbps     01:41:42.080    153 418 bytes   454 351 bytes   01:41:25.520
22              1:42:44.520     0:02:18.840     31 538 kbps     39 721 kbps     01:42:54.080    37 485 kbps     01:43:20.080    36 367 kbps     01:43:18.960    157 688 bytes   375 807 bytes   01:42:54.560
23              1:45:03.360     0:06:46.960     21 306 kbps     33 291 kbps     01:49:41.840    29 937 kbps     01:49:38.640    27 436 kbps     01:49:22.000    106 532 bytes   312 900 bytes   01:48:01.360
24              1:51:50.320     0:04:20.599     21 782 kbps     34 653 kbps     01:54:40.600    32 231 kbps     01:54:40.400    28 777 kbps     01:54:38.280    108 908 bytes   312 201 bytes   01:54:55.320
25              1:56:10.920     0:07:06.800     24 737 kbps     41 897 kbps     01:59:59.400    37 878 kbps     02:00:17.120    36 890 kbps     02:00:15.520    123 686 bytes   490 826 bytes   02:00:21.800
26              2:03:17.720     0:06:06.199     24 314 kbps     38 483 kbps     02:08:04.160    33 167 kbps     02:08:03.760    31 405 kbps     02:08:03.760    121 572 bytes   320 976 bytes   02:07:07.720
27              2:09:23.920     0:05:34.800     24 934 kbps     37 240 kbps     02:12:17.000    33 954 kbps     02:12:15.920    31 633 kbps     02:12:14.360    124 668 bytes   324 417 bytes   02:11:21.920
28              2:14:58.720     0:04:04.199     31 335 kbps     41 458 kbps     02:18:52.400    38 132 kbps     02:16:53.640    37 641 kbps     02:15:33.520    156 676 bytes   393 102 bytes   02:15:37.480
29              2:19:02.920     0:03:48.600     31 251 kbps     41 105 kbps     02:22:39.440    37 924 kbps     02:19:36.280    37 501 kbps     02:21:44.120    156 253 bytes   394 339 bytes   02:22:39.960
30              2:22:51.520     0:07:16.399     31 636 kbps     40 776 kbps     02:25:20.760    38 289 kbps     02:25:16.920    37 674 kbps     02:25:29.640    158 180 bytes   444 555 bytes   02:29:06.080
31              2:30:07.920     0:09:53.120     29 033 kbps     41 247 kbps     02:33:12.840    37 995 kbps     02:37:32.800    37 364 kbps     02:31:12.360    145 163 bytes   448 297 bytes   02:30:08.920
32              2:40:01.040     0:04:18.159     26 823 kbps     40 349 kbps     02:43:30.200    37 894 kbps     02:42:40.160    37 737 kbps     02:42:34.080    134 138 bytes   447 340 bytes   02:43:34.520
STREAM DIAGNOSTICS:
File            PID             Type            Codec           Language                Seconds                 Bitrate                 Bytes           Packets
----            ---             ----            -----           --------                --------------          --------------          -------------   -----
00010.M2TS      4113 (0x1011)   0x1B            AVC                                     9859,040                26 999                  33 272 597 375  180 973 095
00010.M2TS      4352 (0x1100)   0x80            LPCM            deu (German)            9859,040                2 310                   2 847 336 960   15 774 720
00010.M2TS      4353 (0x1101)   0x86            DTS-HD MA       deu (German)            9859,040                5 267                   6 491 366 160   36 795 184
QUICK SUMMARY:
Disc Title: HELENE_FISCHER_BDDisc Size: 46 876 597 164 bytesProtection: AACSBD-Java: YesPlaylist: 00005.MPLSSize: 44 903 675 904 bytesLength: 2:44:19Total Bitrate: 36,44 MbpsVideo: MPEG-4 AVC Video / 26998 kbps / 1080i / 25 fps / 16:9 / High Profile 4.1Audio: German / DTS-HD Master Audio / 5.1 / 48 kHz / 5267 kbps / 24-bit (DTS Core: 5.1 / 48 kHz / 1509 kbps / 24-bit)Audio: German / LPCM Audio / 2.0 / 48 kHz / 2304 kbps / 24-bit
********************PLAYLIST: 00602.MPLS********************
Код:
Total   Video
Title                                                           Codec   Length  Movie Size      Disc Size       Bitrate Bitrate Main Audio Track                          Secondary Audio Track
-----                                                           ------  ------- --------------  --------------  ------- ------- ------------------                        ---------------------
00602.MPLS                                                      AVC     2:44:19 44 903 675 904  46 876 597 164  36,44   27,00   DTS-HD Master 5.1 5267Kbps (48kHz/24-bit) LPCM 2.0 2304Kbps (48kHz/24-bit)
Код:
DISC INFO:
Disc Title:     HELENE_FISCHER_BD
Disc Size:      46 876 597 164 bytes
Protection:     AACS
BD-Java:        Yes
BDInfo:         0.5.6
PLAYLIST REPORT:
Name:                   00602.MPLS
Length:                 2:44:19 (h:m:s)
Size:                   44 903 675 904 bytes
Total Bitrate:          36,44 Mbps
VIDEO:
Codec                   Bitrate             Description
-----                   -------             -----------
MPEG-4 AVC Video        26998 kbps          1080i / 25 fps / 16:9 / High Profile 4.1
AUDIO:
Codec                           Language        Bitrate         Description
-----                           --------        -------         -----------
DTS-HD Master Audio             German          5267 kbps       5.1 / 48 kHz / 5267 kbps / 24-bit (DTS Core: 5.1 / 48 kHz / 1509 kbps / 24-bit)
LPCM Audio                      German          2304 kbps       2.0 / 48 kHz / 2304 kbps / 24-bit
FILES:
Name            Time In         Length          Size            Total Bitrate
----            -------         ------          ----            -------------
00010.M2TS      0:00:00.000     2:44:19.200     44 903 675 904  36 436
CHAPTERS:
Number          Time In         Length          Avg Video Rate  Max 1-Sec Rate  Max 1-Sec Time  Max 5-Sec Rate  Max 5-Sec Time  Max 10Sec Rate  Max 10Sec Time  Avg Frame Size  Max Frame Size  Max Frame Time
------          -------         ------          --------------  --------------  --------------  --------------  --------------  --------------  --------------  --------------  --------------  --------------
1               0:00:00.000     0:09:42.840     25 756 kbps     40 022 kbps     00:03:51.480    37 996 kbps     00:03:12.200    37 322 kbps     00:01:25.360    128 774 bytes   463 027 bytes   00:05:22.680
2               0:09:42.840     0:03:52.640     23 783 kbps     46 186 kbps     00:11:18.320    36 947 kbps     00:11:04.720    33 688 kbps     00:11:02.600    118 916 bytes   446 357 bytes   00:11:18.920
3               0:13:35.480     0:02:34.600     28 810 kbps     41 087 kbps     00:14:25.960    37 896 kbps     00:14:22.040    37 677 kbps     00:14:17.120    144 049 bytes   416 012 bytes   00:14:26.360
4               0:16:10.080     0:04:04.239     27 499 kbps     40 369 kbps     00:16:34.600    37 022 kbps     00:18:02.480    33 947 kbps     00:19:27.080    137 493 bytes   446 147 bytes   00:18:58.080
5               0:20:14.320     0:07:36.440     26 871 kbps     40 053 kbps     00:23:07.760    38 168 kbps     00:26:09.440    37 929 kbps     00:22:58.760    134 356 bytes   473 970 bytes   00:21:38.920
6               0:27:50.760     0:05:51.160     28 639 kbps     39 911 kbps     00:32:06.240    37 319 kbps     00:32:51.240    36 819 kbps     00:32:06.360    143 197 bytes   367 886 bytes   00:32:07.760
7               0:33:41.920     0:10:29.680     24 536 kbps     39 756 kbps     00:41:32.279    37 629 kbps     00:34:43.439    34 096 kbps     00:34:43.439    122 681 bytes   390 256 bytes   00:34:47.279
8               0:44:11.600     0:10:41.359     29 130 kbps     39 594 kbps     00:51:30.160    37 968 kbps     00:45:34.880    37 058 kbps     00:46:41.439    145 650 bytes   413 990 bytes   00:52:16.479
9               0:54:52.960     0:01:13.800     25 155 kbps     34 776 kbps     00:55:41.640    31 749 kbps     00:55:57.760    27 913 kbps     00:55:41.560    125 773 bytes   291 360 bytes   00:55:58.279
10              0:56:06.760     0:05:16.960     22 948 kbps     39 460 kbps     00:59:09.240    34 317 kbps     00:59:07.439    31 914 kbps     00:56:09.920    114 739 bytes   326 352 bytes   00:56:35.200
11              1:01:23.720     0:03:17.000     31 173 kbps     40 605 kbps     01:04:11.680    38 012 kbps     01:03:29.840    37 532 kbps     01:04:02.640    155 867 bytes   411 901 bytes   01:03:44.800
12              1:04:40.720     0:02:10.399     21 833 kbps     35 890 kbps     01:06:29.240    31 967 kbps     01:06:27.640    29 686 kbps     01:06:24.880    109 165 bytes   326 881 bytes   01:06:27.920
13              1:06:51.120     0:05:38.440     24 781 kbps     42 955 kbps     01:09:15.280    38 796 kbps     01:09:11.360    36 743 kbps     01:07:49.840    123 906 bytes   492 808 bytes   01:09:15.880
14              1:12:29.560     0:05:46.960     28 092 kbps     40 856 kbps     01:13:49.040    38 079 kbps     01:15:58.560    37 118 kbps     01:15:23.160    140 458 bytes   380 519 bytes   01:14:13.800
15              1:18:16.520     0:01:19.800     26 001 kbps     39 422 kbps     01:18:47.640    34 908 kbps     01:18:42.000    32 149 kbps     01:18:39.240    130 004 bytes   414 158 bytes   01:18:48.280
16              1:19:36.320     0:03:24.599     29 508 kbps     40 248 kbps     01:22:29.480    37 776 kbps     01:21:20.840    36 939 kbps     01:21:17.280    147 540 bytes   357 965 bytes   01:22:29.760
17              1:23:00.920     0:02:36.199     28 400 kbps     38 973 kbps     01:25:00.840    37 950 kbps     01:24:11.640    36 508 kbps     01:24:07.880    142 000 bytes   366 453 bytes   01:25:01.240
18              1:25:37.120     0:04:11.600     26 981 kbps     40 175 kbps     01:27:22.080    37 130 kbps     01:27:18.600    35 284 kbps     01:27:13.120    134 907 bytes   424 785 bytes   01:28:57.200
19              1:29:48.720     0:03:57.199     33 241 kbps     40 962 kbps     01:32:06.480    38 122 kbps     01:30:08.640    37 954 kbps     01:30:25.840    166 206 bytes   424 734 bytes   01:30:26.880
20              1:33:45.920     0:04:21.600     25 827 kbps     39 065 kbps     01:36:15.600    37 501 kbps     01:36:36.880    34 969 kbps     01:36:14.240    129 133 bytes   400 863 bytes   01:36:16.280
21              1:38:07.520     0:04:37.000     30 684 kbps     42 937 kbps     01:41:24.600    37 570 kbps     01:41:15.080    36 793 kbps     01:41:42.080    153 418 bytes   454 351 bytes   01:41:25.520
22              1:42:44.520     0:02:18.840     31 538 kbps     39 721 kbps     01:42:54.080    37 485 kbps     01:43:20.080    36 367 kbps     01:43:18.960    157 688 bytes   375 807 bytes   01:42:54.560
23              1:45:03.360     0:06:46.960     21 306 kbps     33 291 kbps     01:49:41.840    29 937 kbps     01:49:38.640    27 436 kbps     01:49:22.000    106 532 bytes   312 900 bytes   01:48:01.360
24              1:51:50.320     0:04:20.599     21 782 kbps     34 653 kbps     01:54:40.600    32 231 kbps     01:54:40.400    28 777 kbps     01:54:38.280    108 908 bytes   312 201 bytes   01:54:55.320
25              1:56:10.920     0:07:06.800     24 737 kbps     41 897 kbps     01:59:59.400    37 878 kbps     02:00:17.120    36 890 kbps     02:00:15.520    123 686 bytes   490 826 bytes   02:00:21.800
26              2:03:17.720     0:06:06.199     24 314 kbps     38 483 kbps     02:08:04.160    33 167 kbps     02:08:03.760    31 405 kbps     02:08:03.760    121 572 bytes   320 976 bytes   02:07:07.720
27              2:09:23.920     0:05:34.800     24 934 kbps     37 240 kbps     02:12:17.000    33 954 kbps     02:12:15.920    31 633 kbps     02:12:14.360    124 668 bytes   324 417 bytes   02:11:21.920
28              2:14:58.720     0:04:04.199     31 335 kbps     41 458 kbps     02:18:52.400    38 132 kbps     02:16:53.640    37 641 kbps     02:15:33.520    156 676 bytes   393 102 bytes   02:15:37.480
29              2:19:02.920     0:03:48.600     31 251 kbps     41 105 kbps     02:22:39.440    37 924 kbps     02:19:36.280    37 501 kbps     02:21:44.120    156 253 bytes   394 339 bytes   02:22:39.960
30              2:22:51.520     0:07:16.399     31 636 kbps     40 776 kbps     02:25:20.760    38 289 kbps     02:25:16.920    37 674 kbps     02:25:29.640    158 180 bytes   444 555 bytes   02:29:06.080
31              2:30:07.920     0:09:53.120     29 033 kbps     41 247 kbps     02:33:12.840    37 995 kbps     02:37:32.800    37 364 kbps     02:31:12.360    145 163 bytes   448 297 bytes   02:30:08.920
32              2:40:01.040     0:04:18.159     26 823 kbps     40 349 kbps     02:43:30.200    37 894 kbps     02:42:40.160    37 737 kbps     02:42:34.080    134 138 bytes   447 340 bytes   02:43:34.520
STREAM DIAGNOSTICS:
File            PID             Type            Codec           Language                Seconds                 Bitrate                 Bytes           Packets
----            ---             ----            -----           --------                --------------          --------------          -------------   -----
00010.M2TS      4113 (0x1011)   0x1B            AVC                                     9859,040                26 999                  33 272 597 375  180 973 095
00010.M2TS      4352 (0x1100)   0x80            LPCM            deu (German)            9859,040                2 310                   2 847 336 960   15 774 720
00010.M2TS      4353 (0x1101)   0x86            DTS-HD MA       deu (German)            9859,040                5 267                   6 491 366 160   36 795 184
QUICK SUMMARY:
Disc Title: HELENE_FISCHER_BDDisc Size: 46 876 597 164 bytesProtection: AACSBD-Java: YesPlaylist: 00602.MPLSSize: 44 903 675 904 bytesLength: 2:44:19Total Bitrate: 36,44 MbpsVideo: MPEG-4 AVC Video / 26998 kbps / 1080i / 25 fps / 16:9 / High Profile 4.1Audio: German / DTS-HD Master Audio / 5.1 / 48 kHz / 5267 kbps / 24-bit (DTS Core: 5.1 / 48 kHz / 1509 kbps / 24-bit)Audio: German / LPCM Audio / 2.0 / 48 kHz / 2304 kbps / 24-bit
********************PLAYLIST: 00006.MPLS********************
Код:
Total   Video
Title                                                           Codec   Length  Movie Size      Disc Size       Bitrate Bitrate Main Audio Track                          Secondary Audio Track
-----                                                           ------  ------- --------------  --------------  ------- ------- ------------------                        ---------------------
00006.MPLS                                                      AVC     0:03:49 532 426 752     46 876 597 164  18,57   17,31   DTS 2.0 320Kbps (48kHz/24-bit)
Код:
DISC INFO:
Disc Title:     HELENE_FISCHER_BD
Disc Size:      46 876 597 164 bytes
Protection:     AACS
BD-Java:        Yes
BDInfo:         0.5.6
PLAYLIST REPORT:
Name:                   00006.MPLS
Length:                 0:03:49 (h:m:s)
Size:                   532 426 752 bytes
Total Bitrate:          18,57 Mbps
VIDEO:
Codec                   Bitrate             Description
-----                   -------             -----------
MPEG-4 AVC Video        17309 kbps          1080i / 25 fps / 16:9 / High Profile 4.1
AUDIO:
Codec                           Language        Bitrate         Description
-----                           --------        -------         -----------
DTS Audio                       Undetermined    320 kbps        2.0 / 48 kHz / 320 kbps / 24-bit
FILES:
Name            Time In         Length          Size            Total Bitrate
----            -------         ------          ----            -------------
00012.M2TS      0:00:00.000     0:03:49.400     532 426 752     18 568
CHAPTERS:
Number          Time In         Length          Avg Video Rate  Max 1-Sec Rate  Max 1-Sec Time  Max 5-Sec Rate  Max 5-Sec Time  Max 10Sec Rate  Max 10Sec Time  Avg Frame Size  Max Frame Size  Max Frame Time
------          -------         ------          --------------  --------------  --------------  --------------  --------------  --------------  --------------  --------------  --------------  --------------
1               0:00:00.000     0:03:49.400     17 309 kbps     54 539 kbps     00:03:42.200    34 495 kbps     00:03:38.240    27 179 kbps     00:03:34.160    86 545 bytes    938 055 bytes   00:03:42.720
STREAM DIAGNOSTICS:
File            PID             Type            Codec           Language                Seconds                 Bitrate                 Bytes           Packets
----            ---             ----            -----           --------                --------------          --------------          -------------   -----
00012.M2TS      4113 (0x1011)   0x1B            AVC                                     229,320                 17 315                  496 334 575     2 700 842
00012.M2TS      4352 (0x1100)   0x82            DTS             und (Undetermined)      229,320                 318                     9 118 968       64 521
QUICK SUMMARY:
Disc Title: HELENE_FISCHER_BDDisc Size: 46 876 597 164 bytesProtection: AACSBD-Java: YesPlaylist: 00006.MPLSSize: 532 426 752 bytesLength: 0:03:49Total Bitrate: 18,57 MbpsVideo: MPEG-4 AVC Video / 17309 kbps / 1080i / 25 fps / 16:9 / High Profile 4.1Audio: Undetermined / DTS Audio / 2.0 / 48 kHz / 320 kbps / 24-bit
********************PLAYLIST: 00007.MPLS********************
Код:
Total   Video
Title                                                           Codec   Length  Movie Size      Disc Size       Bitrate Bitrate Main Audio Track                          Secondary Audio Track
-----                                                           ------  ------- --------------  --------------  ------- ------- ------------------                        ---------------------
00007.MPLS                                                      AVC     0:03:00 434 196 480     46 876 597 164  19,30   18,01   DTS 2.0 320Kbps (48kHz/24-bit)
Код:
DISC INFO:
Disc Title:     HELENE_FISCHER_BD
Disc Size:      46 876 597 164 bytes
Protection:     AACS
BD-Java:        Yes
BDInfo:         0.5.6
PLAYLIST REPORT:
Name:                   00007.MPLS
Length:                 0:03:00 (h:m:s)
Size:                   434 196 480 bytes
Total Bitrate:          19,30 Mbps
VIDEO:
Codec                   Bitrate             Description
-----                   -------             -----------
MPEG-4 AVC Video        18009 kbps          1080i / 25 fps / 16:9 / High Profile 4.1
AUDIO:
Codec                           Language        Bitrate         Description
-----                           --------        -------         -----------
DTS Audio                       Undetermined    320 kbps        2.0 / 48 kHz / 320 kbps / 24-bit
FILES:
Name            Time In         Length          Size            Total Bitrate
----            -------         ------          ----            -------------
00013.M2TS      0:00:00.000     0:03:00.000     434 196 480     19 298
CHAPTERS:
Number          Time In         Length          Avg Video Rate  Max 1-Sec Rate  Max 1-Sec Time  Max 5-Sec Rate  Max 5-Sec Time  Max 10Sec Rate  Max 10Sec Time  Avg Frame Size  Max Frame Size  Max Frame Time
------          -------         ------          --------------  --------------  --------------  --------------  --------------  --------------  --------------  --------------  --------------  --------------
1               0:00:00.000     0:03:00.000     18 009 kbps     31 721 kbps     00:02:06.200    27 290 kbps     00:02:02.840    24 421 kbps     00:01:58.040    90 043 bytes    633 251 bytes   00:01:44.640
STREAM DIAGNOSTICS:
File            PID             Type            Codec           Language                Seconds                 Bitrate                 Bytes           Packets
----            ---             ----            -----           --------                --------------          --------------          -------------   -----
00013.M2TS      4113 (0x1011)   0x1B            AVC                                     179,880                 18 021                  405 192 929     2 204 772
00013.M2TS      4352 (0x1100)   0x82            DTS             und (Undetermined)      179,880                 318                     7 155 000       50 625
QUICK SUMMARY:
Disc Title: HELENE_FISCHER_BDDisc Size: 46 876 597 164 bytesProtection: AACSBD-Java: YesPlaylist: 00007.MPLSSize: 434 196 480 bytesLength: 0:03:00Total Bitrate: 19,30 MbpsVideo: MPEG-4 AVC Video / 18009 kbps / 1080i / 25 fps / 16:9 / High Profile 4.1Audio: Undetermined / DTS Audio / 2.0 / 48 kHz / 320 kbps / 24-bit
********************PLAYLIST: 00008.MPLS********************
Код:
Total   Video
Title                                                           Codec   Length  Movie Size      Disc Size       Bitrate Bitrate Main Audio Track                          Secondary Audio Track
-----                                                           ------  ------- --------------  --------------  ------- ------- ------------------                        ---------------------
00008.MPLS                                                      AVC     0:03:00 434 571 264     46 876 597 164  19,31   18,01   DTS 2.0 320Kbps (48kHz/24-bit)
Код:
DISC INFO:
Disc Title:     HELENE_FISCHER_BD
Disc Size:      46 876 597 164 bytes
Protection:     AACS
BD-Java:        Yes
BDInfo:         0.5.6
PLAYLIST REPORT:
Name:                   00008.MPLS
Length:                 0:03:00 (h:m:s)
Size:                   434 571 264 bytes
Total Bitrate:          19,31 Mbps
VIDEO:
Codec                   Bitrate             Description
-----                   -------             -----------
MPEG-4 AVC Video        18006 kbps          1080i / 25 fps / 16:9 / High Profile 4.1
AUDIO:
Codec                           Language        Bitrate         Description
-----                           --------        -------         -----------
DTS Audio                       Undetermined    320 kbps        2.0 / 48 kHz / 320 kbps / 24-bit
FILES:
Name            Time In         Length          Size            Total Bitrate
----            -------         ------          ----            -------------
00014.M2TS      0:00:00.000     0:03:00.000     434 571 264     19 314
CHAPTERS:
Number          Time In         Length          Avg Video Rate  Max 1-Sec Rate  Max 1-Sec Time  Max 5-Sec Rate  Max 5-Sec Time  Max 10Sec Rate  Max 10Sec Time  Avg Frame Size  Max Frame Size  Max Frame Time
------          -------         ------          --------------  --------------  --------------  --------------  --------------  --------------  --------------  --------------  --------------  --------------
1               0:00:00.000     0:03:00.000     18 006 kbps     31 404 kbps     00:01:02.360    27 910 kbps     00:01:00.320    25 278 kbps     00:00:55.120    90 028 bytes    509 126 bytes   00:01:03.360
STREAM DIAGNOSTICS:
File            PID             Type            Codec           Language                Seconds                 Bitrate                 Bytes           Packets
----            ---             ----            -----           --------                --------------          --------------          -------------   -----
00014.M2TS      4113 (0x1011)   0x1B            AVC                                     179,880                 18 018                  405 127 033     2 206 718
00014.M2TS      4352 (0x1100)   0x82            DTS             und (Undetermined)      179,880                 318                     7 155 000       50 625
QUICK SUMMARY:
Disc Title: HELENE_FISCHER_BDDisc Size: 46 876 597 164 bytesProtection: AACSBD-Java: YesPlaylist: 00008.MPLSSize: 434 571 264 bytesLength: 0:03:00Total Bitrate: 19,31 MbpsVideo: MPEG-4 AVC Video / 18006 kbps / 1080i / 25 fps / 16:9 / High Profile 4.1Audio: Undetermined / DTS Audio / 2.0 / 48 kHz / 320 kbps / 24-bit

Скриншоты



Раздача от:
Как качать и Как раздавать  ·  Часто задаваемые Вопросы и Ответы (FAQ)